#TITLE:Aerodynamic;
#SUBTITLE:;
#ARTIST:Daft Punk;
#TITLETRANSLIT:;
#SUBTITLETRANSLIT:;
#ARTISTTRANSLIT:;
#CREDIT:;
#BANNER:aerodynamic-bn.png;
#BACKGROUND:aerodynamic-bg.png;
#LYRICSPATH:;
#CDTITLE:;
#MUSIC:Aerodynamic.mp3;
#OFFSET:-3.800;
#SAMPLESTART:66.260;
#SAMPLELENGTH:12.000;
#SELECTABLE:YES;
#BPMS:0.000=122.900;
#STOPS:;
#BGCHANGES:;
// cache tags:
#FIRSTBEAT:0.000;
#LASTBEAT:176.000;
#SONGFILENAME:Songs/toune 8/Aerodynamic2/Aerodynamic.sm;
#HASMUSIC:1;
#HASBANNER:1;
#MUSICLENGTH:93.701;
// end cache tags

//---------------dance-single - ----------------
#NOTES:
     dance-single:
     :
     Hard:
     8:
     0.541,0.470,0.139,0.000,0.064,342.000,13.000,0.000,0.000,0.000:
1000
0100
1000
0100
0010
0100
0010
0000
,
0001
0100
0000
0100
0010
0100
0010
0000
,
1000
0001
1000
0001
0010
0001
0010
0000
,
0001
0010
0100
0010
0001
0001
1000
1000
,
0010
1000
0100
1000
0010
1000
0100
0000
,
0100
1000
0000
1000
0010
0100
0001
0000
,
0001
0100
0010
0100
0001
0100
0010
0000
,
0010
0100
0010
1000
0001
0001
0100
0100
,
0010
0000
1000
0010
0000
0000
0010
0000
0100
0000
0001
0000
0010
0000
0010
0000
,
0001
0000
0100
0001
0000
0000
0001
0000
0010
0000
0001
0000
0100
0000
0100
0000
,
0010
0000
1000
0010
0000
0000
0010
0000
1000
0000
0100
0000
1000
0000
1000
0000
,
0010
0100
0001
0010
0001
1000
0010
0100
,
0010
0000
0100
0001
0000
0000
0001
0000
0100
0000
0010
0000
1000
0000
0010
0000
,
0100
0000
0001
0010
0000
0000
0010
0000
0001
0000
0100
0000
0010
0000
1000
0000
,
0100
0000
1000
0010
0000
0000
0010
0000
0100
0000
0001
0000
1000
0000
0010
0000
,
0100
0000
0001
0100
0000
0001
0100
0000
0001
0000
0010
0000
0100
0000
1000
0000
,
0010
1000
0010
1000
0010
1000
0010
1000
,
0010
0100
0010
0100
0010
0100
0010
0100
,
0010
1000
0010
1000
0010
1000
0010
1000
,
1000
0001
1000
0001
1000
0001
1000
0001
,
1000
0010
1000
0010
1000
0010
1000
0010
,
0100
0001
0100
0001
0100
0001
0100
0001
,
0100
0010
0100
0010
0100
0010
0100
0010
,
1000
0010
0100
0001
0100
0010
1000
0001
,
1001
1000
1001
0001
0100
0010
0100
0000
,
0001
0010
0000
0010
0100
0010
0001
1000
,
1010
1000
1010
0010
1000
0010
0100
0000
,
0001
0000
0010
0001
0000
0010
0001
0000
0100
0000
0010
0000
1000
0000
0001
0000
,
0101
0001
0101
0100
0001
0010
0100
0000
,
0010
0100
0000
0100
0010
1000
0010
0100
,
0110
0010
0110
0010
0100
0001
1000
0000
,
0010
0000
0100
0010
0000
0100
0010
0000
1000
0000
0100
0000
0010
0000
0001
0000
,
0100
0001
1000
0010
0100
0010
1000
0100
,
0001
0100
1000
0010
0100
0010
1000
0100
,
1000
0010
0100
0010
1000
0100
0001
0100
,
1000
0010
0100
0001
0010
0100
1000
0001
,
0100
0001
0100
0010
1000
0100
0010
0001
,
0010
0100
0010
1000
0010
0100
0001
0010
,
0001
0100
0010
1000
0100
0010
0001
1000
,
0010
1000
0100
0001
0100
1000
0010
0100
,
0101
0001
0010
0100
0010
0001
1000
0010
,
1010
1000
0100
0010
0001
0010
0100
1000
,
1100
1000
0010
0100
0010
0100
0001
1000
,
1001
0001
0010
0100
0010
0001
1000
0010
,
0110
0000
0000
0000
;

//---------------dance-single - ----------------
#NOTES:
     dance-single:
     :
     Challenge:
     11:
     0.904,0.798,0.032,0.277,1.000,564.000,3.000,26.000,0.000,0.000:
0020
0000
0130
0000
0001
0000
0020
0000
0031
1000
0010
0100
0010
0000
1000
0000
,
0200
0000
2300
0000
3200
0000
0310
0000
0001
0100
0001
0100
0010
0000
1000
0000
,
0020
0000
0130
0000
1000
0000
0200
0000
0310
0100
0001
0010
0001
0000
0100
0000
,
0010
0000
0100
0001
0000
0001
0000
0001
0100
0010
0100
0010
1000
0000
1000
0000
,
0200
0000
1300
0000
0001
0000
0200
0000
1300
0010
0100
0001
0010
0000
0001
0000
,
0200
0000
0302
0000
2003
0000
3010
0000
0100
0010
0100
0010
1000
0000
0100
0000
,
0002
0000
0103
0000
0010
0000
2000
0000
3100
1000
0100
0010
0100
0000
0010
0000
,
0100
0000
1000
0010
0000
0010
0000
0010
1000
0100
0010
0001
0010
0000
0100
0000
,
1000
0010
0000
0010
1000
0000
1000
0100
0010
0100
1000
0010
0100
0000
0001
0000
,
0100
0001
0000
0001
0100
0000
0010
0100
1000
0100
0010
0100
0001
0000
1000
0000
,
0010
0100
0000
0001
0010
0000
0001
1000
0100
1000
0010
0100
0001
0000
0010
0000
,
0101
0000
0001
0010
0000
0100
0010
0000
0001
1000
0010
0100
0010
1000
0100
0000
,
0001
0100
0000
0100
0001
0000
0001
0010
0100
0010
0001
0100
0010
0000
1000
0000
,
0010
1000
0000
1000
0010
0000
0100
0010
0001
0010
0100
0010
1000
0000
0001
0000
,
0100
0010
0000
1000
0100
0000
1000
0001
0010
0001
0100
0010
1000
0000
0100
0000
,
1010
0000
1000
0100
0000
0010
0100
0000
1000
0001
0100
0010
0100
0001
0010
0000
,
0001
0100
0001
0100
0001
0100
0001
0100
0001
0100
0001
0100
0001
0100
0001
0100
,
1000
0100
1000
0100
1000
0100
1000
0100
1000
0100
1000
0100
1000
0100
1000
0100
,
0010
0100
0010
0100
0010
0100
0010
0100
0010
0100
0010
0100
0010
0100
0010
0100
,
0001
1000
0001
1000
0001
1000
0001
1000
0001
1000
0001
1000
0001
1000
0001
1000
,
0001
0010
0001
0010
0001
0010
0001
0010
0001
0010
0001
0010
0001
0010
0001
0010
,
1000
0010
1000
0010
1000
0010
1000
0010
1000
0010
1000
0010
1000
0010
1000
0010
,
0100
0001
0100
0001
0100
0001
0100
0001
0100
0001
0100
0001
0100
0001
0100
0001
,
1000
0001
1000
0001
1000
0001
1000
0001
1000
0001
1000
0001
1000
0001
1000
0001
,
1000
0000
0200
0000
1300
0000
0200
0000
0310
0100
0001
0010
0001
0000
0100
0000
,
0010
0000
0200
0000
0302
0000
0013
0000
0001
0100
1000
0100
0001
0000
0010
0000
,
0001
0000
0200
0000
0301
0000
0200
0000
0310
1000
0100
1000
0010
0000
0100
0000
,
0001
0000
0010
0001
0000
0100
0010
0000
1000
0100
1000
0100
1000
0000
0010
0000
,
0100
0000
0020
0000
1030
0000
0020
0000
0130
0001
1000
0100
1000
0001
0010
0000
,
0100
0000
0020
0000
2030
0000
3000
0000
0100
1000
0010
0100
0001
0010
0001
0000
,
0010
0000
0002
0000
0013
0000
0002
0000
1003
0010
0100
0010
1000
0100
1000
0000
,
0010
0000
1000
0100
0000
0001
0100
0000
1000
0010
0100
0001
0010
0000
0001
0000
,
0100
0010
1000
0100
0001
0100
1000
0010
0100
0000
0010
0000
0100
0001
0100
0000
,
0001
0010
0100
0010
0001
1000
0010
0100
0010
0000
1000
0000
0100
1000
0100
0000
,
1000
0100
0001
0100
1000
0010
0100
0001
0010
0000
0001
0000
0100
0010
0100
0000
,
0001
0010
0100
1000
0100
0010
0001
1000
0010
0000
0100
0000
0010
1000
0010
0000
,
1000
0100
1000
0100
0001
0100
0001
0100
1000
0000
0010
1000
0100
1000
0010
0000
,
0100
0001
0010
0001
0100
0010
1000
0100
0010
0000
0001
0010
0100
0010
0001
0000
,
1000
0010
0001
0010
1000
0100
0010
0001
0010
0000
1000
0001
0010
0001
1000
0000
,
0001
0010
0100
1000
0100
0010
0001
1000
0010
0100
0010
1000
0100
1000
0010
0000
,
0100
0001
0010
1000
0010
0001
0100
0010
1000
0010
0100
0010
1000
0100
0010
0001
,
0010
0100
1000
0010
0100
0010
1000
0100
0010
0001
0100
0001
0010
0001
0100
0010
,
0100
0001
1000
0001
0100
0010
0001
0010
0100
0010
1000
0100
1000
0010
0100
0010
,
1000
0100
1000
0001
0010
0001
0100
0010
1000
0001
0100
0010
1000
0100
1000
0001
,
1001
0000
0000
0000
;

//---------------dance-single - ----------------
#NOTES:
     dance-single:
     :
     Medium:
     5:
     0.369,0.376,0.011,0.000,0.000,241.000,1.000,0.000,0.000,0.000:
1000
0000
0000
0100
0000
0100
1000
0000
,
0001
1000
0010
0010
,
0100
0000
0000
0001
0000
0001
0100
0000
,
0010
0010
1000
1000
,
0001
0000
0000
1000
0000
1000
0001
0000
,
1000
0100
0010
0010
,
0100
0000
0000
0100
0000
0100
0010
0000
,
1000
0100
0010
0001
,
1000
0000
0001
0000
0100
0001
0100
0000
,
0001
0100
0000
0000
0001
0000
0010
0000
,
0100
0000
0010
0000
0001
1000
0001
0000
,
1000
0010
0000
0000
0010
0000
1000
0000
,
0100
0000
1000
0000
0100
0010
0100
0000
,
0010
0100
0000
0000
1000
0000
0001
0000
,
0100
0000
0001
0000
0010
0001
0010
0000
,
0001
0100
0000
0001
0100
0000
0010
0000
,
1000
0001
1000
0001
1000
0001
1000
0000
,
0001
1000
0001
1000
0001
1000
0001
0000
,
0100
0010
0100
0010
0100
0010
0100
0000
,
0010
0100
0010
0100
0010
0100
0010
0000
,
1000
0100
1000
0100
1000
0100
1000
0000
,
0010
0001
0010
0001
0010
0001
0010
0000
,
0001
0100
0001
0100
0001
0100
0001
0000
,
0010
1000
0010
1000
0010
1000
0010
0000
,
1000
0100
0000
1000
0000
0100
1000
0000
,
0001
1000
0001
0000
0100
0000
0100
0000
,
0001
0010
0000
0001
0000
0010
0001
0000
,
0100
0010
0000
0100
0010
0000
1000
0000
,
0001
1000
0000
0001
0000
1000
0001
0000
,
0010
1000
0010
0000
1000
0000
0001
0000
,
0100
0010
0000
0100
0000
0010
0100
0000
,
0010
1000
0000
0010
1000
0000
0001
0000
,
1000
1000
1000
0000
1000
0010
1000
0000
,
0001
0001
0001
0000
0001
0100
0001
0000
,
0100
0100
0100
0000
0100
0010
0100
0000
,
0010
0010
0010
0000
0010
0100
0000
0000
,
1000
0100
1000
0000
0010
0001
0010
0000
,
0001
0100
0001
0000
0010
1000
0010
0000
,
0100
0001
0100
0000
0010
1000
0010
0000
,
0100
0010
0100
0000
0001
1000
0001
0000
,
1000
0100
1000
0100
1000
0010
1000
0000
,
0001
0100
0001
0100
0001
0010
0001
0000
,
0100
0010
0100
0010
0100
0001
0100
0000
,
0010
1000
0010
1000
0010
0100
0010
0000
,
0110
0000
0000
0000
;

//---------------dance-single - ----------------
#NOTES:
     dance-single:
     :
     Easy:
     3:
     0.271,0.258,0.011,0.085,0.000,169.000,1.000,8.000,0.000,0.000:
1000
1000
0100
0100
,
0010
0000
0010
0000
,
0001
0001
0100
0100
,
0010
0100
0100
0010
,
1000
1000
0010
0010
,
0100
0000
0100
0000
,
0001
0001
1000
1000
,
0010
1000
0100
1000
,
0010
1000
0100
0100
,
0001
0100
1000
0100
,
0001
1000
0100
0100
,
1000
0010
1000
0010
,
0100
0001
0010
0010
,
0001
0100
0010
1000
,
0100
0010
0100
0100
,
1000
0100
0010
0001
,
0200
0010
0010
0310
,
0020
0100
0100
0130
,
2000
0001
0001
3001
,
0002
1000
1000
1003
,
0002
0010
0010
0013
,
0200
1000
1000
1300
,
2000
0010
0010
3010
,
0200
0001
0001
0301
,
0100
0000
0010
0010
,
1000
0100
0001
0100
,
1000
0100
0100
0000
,
0100
1000
0010
0100
,
0001
0100
0100
0000
,
0100
0001
0010
0001
,
0100
0010
0010
0000
,
1000
0010
1000
0010
,
1000
1000
0100
0100
,
1000
0010
1000
0010
,
0100
0100
0001
0001
,
0010
0100
0010
0100
,
0001
0010
0100
0100
,
0010
0001
0100
0100
,
0010
1000
0100
0100
,
1000
0010
0100
0100
,
0001
1000
0010
0100
,
0010
1000
0100
0010
,
0001
0010
0100
1000
,
0010
1000
0100
1000
,
1001
0000
0000
0000
;

//---------------dance-single - ----------------
#NOTES:
     dance-single:
     :
     Beginner:
     1:
     0.123,0.188,0.011,0.096,0.000,71.000,1.000,9.000,0.000,0.000:
1000
0000
0000
0000
,
0100
0000
0000
0000
,
1000
0000
0000
0000
,
0001
0000
0000
0000
,
0100
0000
0000
0000
,
0001
0000
0000
0000
,
0100
0000
0000
0000
,
0010
0000
0000
0000
,
0010
0000
0000
0000
,
0100
0100
0000
0000
,
0001
0000
0000
0000
,
1000
1000
1000
0000
,
1000
0000
0000
0000
,
0010
0010
0000
0000
,
0100
0000
0000
0000
,
0001
0001
0001
0000
,
0002
0000
0000
0003
,
0002
0000
0003
0000
,
2000
0000
0000
3000
,
2000
0000
3000
0000
,
0020
0000
0000
0030
,
0020
0000
0030
0000
,
0200
0000
0000
0300
,
0200
0000
0300
0000
,
0001
0000
0001
0000
,
0010
0000
0000
0000
,
1000
0000
1000
0000
,
0100
0000
0000
0000
,
1000
0000
1000
0000
,
0001
0000
0000
0000
,
0100
0000
0100
0000
,
0002
0000
0003
0000
,
0001
0001
0000
0000
,
0010
0010
0000
0000
,
0100
0100
0000
0000
,
1000
1000
0000
0000
,
0010
0000
1000
0000
,
0010
0000
0100
0000
,
0001
0000
0100
0000
,
0010
0000
0100
0000
,
0010
0010
0010
0000
,
1000
1000
1000
0000
,
0001
0001
0001
0000
,
0100
0100
0100
0000
,
0110
0000
0000
0000
;
