#TITLE:Evacuate the Moshpit;
#SUBTITLE:;
#ARTIST:Imil;
#TITLETRANSLIT:;
#SUBTITLETRANSLIT:;
#ARTISTTRANSLIT:;
#CREDIT:;
#BANNER:../BN.png;
#BACKGROUND:../BG.png;
#LYRICSPATH:;
#CDTITLE:../CDTitleBRAEDEN.png;
#MUSIC:Evacuate the Moshpit.ogg;
#OFFSET:0.013;
#SAMPLESTART:30.958;
#SAMPLELENGTH:12.000;
#SELECTABLE:YES;
#DISPLAYBPM:200.000;
#BPMS:0.000=200.004,64.000=400.008,128.000=200.004,192.000=400.008,320.000=200.004,416.000=400.008,640.000=200.004;
#STOPS:;
#BGCHANGES:;
// cache tags:
#FIRSTBEAT:10.000;
#LASTBEAT:608.000;
#SONGFILENAME:Songs/Index Gradation/Evacuate the Moshpit - [Braeden]/Evacuate the Moshpit.sm;
#HASMUSIC:1;
#HASBANNER:1;
#MUSICLENGTH:141.055;
// end cache tags

//---------------dance-single - J. Nero----------------
#NOTES:
     dance-single:
     J. Nero:
     Challenge:
     41:
     1.000,1.000,0.518,0.326,1.000,1417.000,73.000,46.000,8.000,3.000:

0000
0000
0000
0000
,
0000
0000
0000
0000
,
0004
0000
0403
0000
,
0340
0000
4030
0000
,
3400
0000
0340
0000
,
0034
0000
0403
0000
,
0340
0000
4030
0000
,
3400
0000
0340
0000
,
1031
0000
0000
0110
0110
0000
0000
1001
,
0000
0002
0203
0320
2030
3000
1010
0000
,
1010
0000
0100
0001
0100
0000
1010
0000
1001
0000
0100
0000
0001
0000
1001
0000
,
0000
2000
3200
0320
0032
0003
1001
0010
,
1010
0000
1000
0001
0100
0000
0110
0000
1010
0000
1000
0001
0100
0000
0220
0000
,
0330
2000
3200
0320
0032
1003
0010
0000
,
1001
0000
1000
0001
0100
0000
0110
0000
1001
0000
0001
0100
0010
0000
2020
0000
,
3030
0200
0302
0203
0320
0030
1000
0000
,
0010
0100
0001
1000
0100
0010
0100
1000
,
0001
0100
0010
0100
0001
0010
0001
1000
,
0100
0010
0100
1000
0001
0100
0010
1000
,
0100
0000
0010
0000
0100
0000
1000
0000
0001
0100
0010
1000
0001
0100
0010
1000
,
0010
0100
0001
1000
0100
0010
0100
1000
,
0001
0100
0010
0100
0001
0010
0001
1000
,
0100
0010
0100
1000
0001
0100
0010
1000
,
0001
0010
0100
1000
0001
0100
0010
1000
0001
0100
0010
1000
0100
0000
0000
0000
,
0010
0001
0100
0010
1000
0100
0010
0100
,
1000
0001
0100
0010
1000
0100
0010
0100
,
1000
0001
0100
0010
1000
0001
0010
0100
,
0110
0000
1010
1001
,
0001
0100
0010
1000
0100
0010
0100
1000
,
0001
0100
0010
1000
0100
0010
0100
1000
,
0001
0100
0010
1000
0100
0010
0001
1000
,
0010
0100
0001
1000
0100
0010
0100
1000
0001
0010
0001
1000
0010
0100
0001
0100
,
0020
1030
0000
0010
0200
0301
0010
0002
,
0003
0100
0020
1030
1100
0000
1001
0000
,
0002
0203
0310
1000
0002
0103
0100
0010
,
0100
0010
0100
0001
0101
0010
1000
0001
,
1101
0000
1000
0001
0100
0100
0010
2000
,
3100
0000
0010
0000
0001
0000
0001
0000
0100
0000
0100
0000
0010
1000
0010
1000
,
0001
0100
0010
1000
0100
0010
0100
1000
,
0001
0100
0010
1000
0100
0010
0001
0000
,
0111
0001
0000
0110
0110
0000
0010
0110
,
0000
1001
0100
0110
0110
0000
0001
0000
,
1001
0000
0010
1000
0100
0000
0110
0000
1001
0000
0010
0000
0100
0000
0110
0000
,
0000
1001
0010
1001
0110
0010
0010
0100
,
1101
0010
0100
0101
1001
0010
0100
0101
,
0000
1010
0100
0100
1001
0110
1001
0000
,
1001
0010
0100
1001
0110
0010
1000
0001
,
0100
0000
0010
0000
1000
0000
0100
0000
1000
0001
1000
0010
0100
0000
0000
0000
,
0001
0010
0100
1000
0001
0100
0010
0100
,
0001
0000
1000
0000
0100
0000
0010
0000
0100
0000
1000
0000
0100
0010
0100
0010
,
0001
1000
0100
0010
0100
1000
0001
0100
,
0010
0000
1000
0000
0100
0000
0010
0000
0001
1000
0100
1000
0001
0100
0010
1000
,
0001
0100
0010
1000
0001
0100
0010
1000
,
0100
0010
0100
1000
0001
0010
0100
1000
,
0001
0100
0010
1000
0100
0010
0100
1000
,
0001
0100
0010
1000
0001
0000
0000
0000
,
1000
0010
0100
0001
0100
0010
1000
0100
,
0010
0100
1000
0001
0100
0010
1000
0100
,
0010
0100
1000
0001
0100
0010
1000
0100
,
1100
1100
1100
0000
,
1000
0010
0100
0001
1000
0100
0010
0100
,
0010
0000
0100
0000
1000
0000
0001
0000
0100
0000
0010
0000
1000
0001
1000
0001
,
1000
0010
0100
0001
1000
0100
0010
0001
,
1000
0100
0010
0001
0010
0000
0100
0000
1000
0001
0100
0010
1000
0000
0001
0000
,
0100
0010
1000
0001
0010
0100
1000
0001
,
0100
0010
0100
0001
1000
0100
0010
0100
,
0010
0100
1000
0100
1000
0001
0100
0010
,
1000
0000
0100
0000
0010
0000
0100
0000
1000
0100
0010
0001
1000
0010
0100
0001
,
1000
0010
0100
0001
1000
0100
0010
0100
,
1000
0000
0001
0000
0100
0000
0010
0000
1000
0000
0100
0000
1000
0010
0100
0001
,
0100
0010
1000
0100
0010
0100
1000
0000
,
2002
0000
0000
0000
0000
3003
0000
0000
,
0001
0010
0100
1000
0001
0100
0010
0100
,
0001
1000
0100
0010
0100
1000
0001
0100
,
0010
1000
0100
0010
0100
1000
0001
0100
,
0010
0000
1000
0000
0001
0000
0100
0000
0010
1000
0100
0010
0100
1000
0001
0100
,
0010
1000
0100
0010
0001
1000
0010
0100
0001
0010
0001
1000
0100
0010
0100
1000
,
0001
0100
0010
1000
0100
0010
0100
1000
0001
0100
0010
1000
0001
0010
0001
1000
,
0010
0100
0001
0010
0001
1000
0100
0010
0001
0100
0010
1000
0001
0010
0100
1000
,
0001
0100
0010
1000
0100
0010
0100
1000
0001
0100
0010
1000
0100
0010
0100
1000
,
0010
0100
0101
0010
,
0010
0000
0100
0001
0101
0000
1010
1000
,
0010
0100
0101
0010
,
0010
0000
1001
0000
0100
0010
1000
0000
,
1001
0000
0010
0100
0202
0303
1001
0000
,
1010
0000
0100
0001
0202
0303
1010
0100
,
1001
0000
1000
0001
2002
3003
1000
0010
,
0220
0330
0001
0100
0220
0330
0010
0000
,
1000
0100
0010
0001
0010
0100
1000
0001
0100
0010
1000
0100
0010
0100
1000
0001
,
0100
0010
1000
0001
1000
0001
1000
0100
1000
0001
0010
0100
1000
0001
0100
0010
,
1000
0100
0010
0001
0010
0100
1000
0001
0100
0010
1000
0100
0010
0100
1000
0001
,
0100
0000
0010
0000
1000
0000
0100
0000
0010
0000
0100
0000
1000
0000
0001
0000
0100
0000
0010
0000
1000
0000
0001
0000
1000
0100
0010
0001
1000
0010
0100
0001
,
1000
0010
0100
0001
1000
0100
0010
0100
1000
0001
0100
0010
1000
0001
0010
0100
,
1000
0001
0100
0010
0100
0001
1000
0100
0010
0100
1000
0001
0100
0010
1000
0100
,
0010
0001
0100
0010
1000
0001
0010
0100
1000
0001
0100
0010
1000
0100
0010
0001
,
1000
0000
0000
M0M0
0000
0000
M00M
0000
,
0010
0100
0001
1000
0100
0010
0100
1000
0001
0100
0010
1000
0001
0100
0010
1000
,
0001
0010
0100
1000
0001
0100
0010
1000
0001
0010
0100
1000
0001
0100
0010
1000
,
0001
0010
0100
1000
0001
0100
0010
1000
0001
0010
0001
1000
0010
0100
0001
0010
,
0001
1000
0100
1000
0001
0010
0100
1000
0001
0100
0010
1000
0001
0100
0010
1000
,
0001
0100
0010
1000
0001
0010
0100
1000
0001
0010
0001
1000
0100
0010
0001
1000
,
0010
0100
0001
0010
0001
1000
0100
0010
0100
1000
0001
0100
0010
1000
0100
0010
,
0001
0000
M00M
0000
,
M00M
0000
0000
0000
0000
0000
0000
0000
0000
0000
0000
0000
0000
0000
0000
0000
1000
0100
0010
0001
0010
0100
1000
0001
0100
0010
1000
0100
0010
0001
1000
0010
,
0100
0010
0100
0010
0100
0001
0100
0001
,
1000
0100
1000
0100
0010
0001
0010
0001
,
0100
0010
0100
0010
1000
0100
1000
0100
,
0010
0001
0010
0001
2000
0000
0000
0000
,
3001
0010
0001
0010
0100
1000
0100
1000
,
0001
0100
0001
0100
0010
1000
0010
1000
,
0001
0100
0001
0100
0010
1000
0010
1000
,
0001
0000
0100
0000
0001
0000
0100
0000
0010
1000
0001
0010
0100
1000
0001
0100
,
0010
1000
0010
1000
0001
0100
0001
0100
,
0010
1000
0010
1000
0001
0010
0001
0010
,
0100
1000
0100
1000
0001
0010
0001
0010
,
0100
0010
0100
1000
0020
0000
0000
0000
,
0130
0001
0100
0010
1000
0100
0010
0100
,
1000
0001
0100
0010
1000
0100
0010
0001
,
1000
0000
0000
0000
,
0000
0000
0000
0000
,
0001
0100
0010
1000
0001
0010
0100
1000
0001
0100
0010
1000
0100
0010
0100
1000
,
0001
0100
0010
1000
0001
0010
0001
1000
0100
0010
0100
1000
0001
0100
0010
1000
,
0100
0010
0001
0010
0100
1000
0001
0010
0001
1000
0010
0100
0001
0010
0001
1000
,
0100
1000
0001
0100
0010
1000
0001
0100
0040
0000
0000
0000
0000
0000
0000
0000
,
1030
0001
0100
0010
1000
0001
0010
0100
1000
0001
0100
0001
1000
0100
0010
0100
,
1000
0001
0010
0100
1000
0001
0100
0010
0100
0001
1000
0100
1000
0001
0100
0010
,
1000
0001
0010
0100
1000
0001
0010
0001
1000
0010
0100
0001
0010
0001
1000
0100
,
0010
0001
1000
0001
0010
0100
1000
0010
0100
0001
1000
0100
0010
0100
1000
0001
,
0100
0010
1000
0001
0010
0100
1000
0001
0100
0010
1000
0100
0010
0100
1000
0001
,
0100
0010
1000
0001
0010
0001
1000
0100
0010
0001
1000
0001
0010
0001
0100
0010
,
1000
0001
0010
0100
1000
0001
0010
0001
1000
0100
0010
0001
1000
0100
1000
0001
,
0010
0100
1000
0001
0100
0010
1000
0001
1000
0000
0000
0000
0000
0000
0000
0000
,
0001
0010
0100
1000
0001
0000
0000
0000
1000
0100
0010
0100
1000
0000
0000
0000
,
0001
0100
0010
1000
0001
0000
0000
0000
1000
0100
0010
0001
1000
0000
0000
0000
,
0001
0010
0100
1000
0001
0100
0010
0100
0010
1000
0001
0010
0100
1000
0001
0100
,
0010
0000
0000
0000
,
0001
0010
0100
1000
0001
0100
0010
1000
0001
0010
0100
1000
0001
0010
0001
1000
,
0100
0010
0100
1000
0001
0010
0100
1000
0001
0100
0010
1000
0100
0010
0100
1000
,
0001
0100
0010
1000
0001
0010
0100
1000
0001
0100
0010
1000
0100
0010
0100
1000
,
0001
0010
0100
1000
0001
0100
0010
1000
0100
0010
0100
1000
0001
0100
0010
1000
,
0001
0100
0010
0100
0001
0010
0100
1000
0001
0100
0010
1000
0100
0010
0100
1000
,
0001
0100
0010
1000
0001
0010
0100
1000
0001
0100
0010
1000
0001
0010
0100
1000
,
0010
1000
0001
0010
0100
0000
0000
0000
1000
0100
0010
0001
1000
0000
0000
0000
,
2002
3003
0000
0000
0220
0330
0000
0000
,
0100
0001
1000
0100
0010
0001
0010
0100
1000
0001
0100
0010
0100
0001
0010
0001
,
1000
0100
0010
0100
1000
0001
0010
0100
1000
0001
0100
0010
1000
0100
0010
0100
,
1000
0001
0100
0010
1000
0100
0010
0100
1000
0001
0010
0001
1000
0001
0010
0100
,
1000
0001
0100
0010
1000
0100
0010
0001
0010
0000
0000
0000
0010
0000
0000
0000
,
0001
0000
0000
0000
0000
0000
0000
0000
0000
0010
0000
0000
0000
0000
0000
0000
0000
0000
0000
0100
0000
0000
0000
0000
0000
0000
0000
0000
0000
1000
0000
0000
0000
0000
0000
0000
0000
0000
0001
0000
0000
0000
0000
0000
0000
0000
0000
0000
0010
0000
0000
0000
0000
0000
0000
0000
0000
0100
0000
0000
0000
0000
0000
0000
0000
0000
0000
1000
0000
0000
0000
0000
0000
0000
0000
0000
0000
0001
0000
0000
0000
0000
0000
0000
0000
0000
0010
0000
0000
0000
0000
0000
0000
0000
0000
0000
0100
0000
0000
0000
0000
0000
0000
0000
0000
1000
0000
0000
0000
0000
0000
0000
0000
0000
0000
0001
0000
0000
0000
0000
0000
0000
0000
0000
0000
0010
0000
0000
0000
0000
0000
0000
0000
0000
0100
0000
0000
0000
0000
0000
0000
0000
0000
0000
1000
0000
0000
0000
0000
0000
0000
0000
0000
0001
0000
0000
0000
0000
0000
0000
0000
0000
0000
0010
0000
0000
0000
0000
0000
0000
0000
0000
0000
0100
0000
0000
0000
0000
0000
0000
0000
0000
1000
0000
0000
0000
0000
0000
0000
0000
0000
0000
,
0001
0000
0000
0000
0000
0000
0000
0000
0000
0010
0000
0000
0000
0000
0000
0000
0000
0000
0000
0100
0000
0000
0000
0000
0000
0000
0000
0000
0000
1000
0000
0000
0000
0000
0000
0000
0000
0000
0001
0000
0000
0000
0000
0000
0000
0000
0000
0000
0010
0000
0000
0000
0000
0000
0000
0000
0000
0100
0000
0000
0000
0000
0000
0000
0000
0000
0000
1000
0000
0000
0000
0000
0000
0000
0000
0000
0000
0001
0000
0000
0000
0000
0000
0000
0000
0000
0010
0000
0000
0000
0000
0000
0000
0000
0000
0000
0100
0000
0000
0000
0000
0000
0000
0000
0000
1000
0000
0000
0000
0000
0000
0000
0000
0000
0000
0001
0000
0000
0000
0000
0000
0000
0000
0000
0000
0010
0000
0000
0000
0000
0000
0000
0000
0000
0100
0000
0000
0000
0000
0000
0000
0000
0000
0000
1000
0000
0000
0000
0000
0000
0000
0000
0000
0001
0000
0000
0000
0000
0000
0000
0000
0000
0000
0010
0000
0000
0000
0000
0000
0000
0000
0000
0000
0100
0000
0000
0000
0000
0000
0000
0000
0000
1000
0000
0000
0000
0000
0000
0000
0000
0000
0000
,
0010
0100
0001
1000
,
0100
0010
0100
0000
,
1001
0000
0000
0000
;
