#TITLE:Into the Night;
#SUBTITLE:;
#ARTIST:Ondina;
#TITLETRANSLIT:;
#SUBTITLETRANSLIT:;
#ARTISTTRANSLIT:;
#CREDIT:;
#BANNER:into the night.banner.jpg;
#BACKGROUND:into the night.bg.jpg;
#LYRICSPATH:;
#CDTITLE:CDTITLE.jpg;
#MUSIC:ondina - into the night.mp3;
#OFFSET:0.120;
#SAMPLESTART:100.000;
#SAMPLELENGTH:12.000;
#SELECTABLE:YES;
#BPMS:0.000=134.020;
#STOPS:;
#BGCHANGES:;
// cache tags:
#FIRSTBEAT:4.000;
#LASTBEAT:294.000;
#SONGFILENAME:Songs/Definitive Keyboard Megapack/Into the night - ondina(Leone510)/ondina - into the night.sm;
#HASMUSIC:1;
#HASBANNER:1;
#MUSICLENGTH:136.626;
// end cache tags

//---------------dance-single - ----------------
#NOTES:
     dance-single:
     :
     Challenge:
     12:
     1.000,1.000,1.000,0.088,1.000,836.000,464.000,12.000,0.000,0.000:
0000
0000
0000
0000
,
2000
0000
0000
0000
,
3020
0000
0000
0000
,
0230
0000
0000
0000
,
2300
0000
3020
0000
,
0032
0010
1000
0010
0000
0100
1000
0100
,
0023
0100
0001
0100
0000
0100
1000
0001
,
0230
1000
0010
0001
0000
1000
0010
1000
,
2300
0000
0000
0000
0000
0000
0000
0000
3020
0000
0000
0030
0010
0001
0100
1000
,
0101
0010
1001
0010
1100
0000
1001
1100
0000
0110
0000
0101
1001
0000
0101
0000
,
0101
1000
0101
0010
1001
0000
0011
1100
0000
1100
0000
1001
0110
0000
1100
0000
,
1100
0001
1100
0010
0101
0000
1010
0101
0000
1001
0000
0011
0101
0000
0101
0000
,
0110
1000
0101
1000
0011
0000
1010
0101
0000
0110
0000
0011
1010
0000
0101
0000
,
0101
0010
1001
0010
1100
0000
1001
1100
0000
0110
0000
0101
1001
0000
0101
0000
,
0101
1000
0101
0010
1001
0000
0011
1100
0000
1100
0000
1001
0110
0000
1100
0000
,
1100
0001
1100
0010
0101
0000
1010
0101
0000
1001
0000
0011
0101
0000
0101
0000
,
0110
1000
0101
1000
0011
0000
1010
0101
0000
0110
0000
0011
1010
0000
0101
0000
,
0100
0000
0010
0100
1010
0000
0001
0100
0011
0000
0010
0100
1010
0000
0100
0010
,
1001
0000
0001
0010
1100
0000
1000
0010
0101
0000
0001
1000
0011
0000
0100
0010
,
1100
0000
0010
0001
1010
0000
0100
0010
1001
0000
0001
0100
1010
0000
0100
1000
,
0011
0000
0010
0001
0110
0000
1000
0001
1010
0000
0010
0100
0011
0000
0010
0100
,
1010
0000
0001
0100
0011
0000
0010
0100
1010
0000
0100
0010
1001
0000
0001
0010
,
1100
0000
1000
0010
0101
0000
0001
1000
0011
0000
0100
0010
1100
0000
0010
0001
,
1010
0000
0100
0010
1001
0000
0001
0100
1010
0000
0100
1000
0011
0000
0010
0001
,
0110
0001
1100
0001
1010
0100
0011
0100
0011
1000
0101
0010
1100
0010
1001
0100
,
1001
0000
0010
0100
1010
0000
0001
0100
0011
0000
0010
0100
1010
0000
0100
0010
,
1001
0000
0001
0010
1100
0000
1000
0010
0101
0000
0001
1000
0011
0000
0100
0010
,
1100
0000
0010
0001
1010
0000
0100
0010
1001
0000
0001
0100
1010
0000
0100
1000
,
0011
0000
0010
0001
0110
0000
1000
0001
1010
0000
0010
0100
0011
0000
0010
0100
,
1010
0000
0001
0100
0011
0000
0010
0100
1010
0000
0100
0010
1001
0000
0001
0010
,
1100
0000
1000
0010
0101
0000
0001
1000
0011
0000
0100
0010
1100
0000
0010
0001
,
1010
0000
0100
0010
1001
0000
0001
0100
1010
0000
0100
1000
0011
0000
0010
0001
,
0110
0000
1000
0000
0001
0000
1000
0000
0010
0000
0100
0000
0010
0001
1000
0010
,
0101
0010
1001
0010
1100
0000
0011
0100
1010
0000
0101
1000
0011
1000
0101
0000
,
0110
1000
0101
0010
1001
0000
1010
0100
0011
0000
1100
0001
0110
0001
1100
0000
,
0110
0001
1100
0010
0101
0000
0011
0100
1001
0000
1100
0010
0101
0010
1100
0000
,
0110
0001
1100
0010
0101
0000
0110
0001
1100
0000
0110
0001
1100
0001
0110
0000
,
0101
0010
1001
0010
1100
0000
0011
0100
1010
0000
0101
1000
0011
1000
0101
0000
,
0110
1000
0101
0010
1001
0000
1010
0100
0011
0000
1100
0001
0110
0001
1100
0000
,
0110
0001
1100
0010
0101
0000
0011
0100
1001
0000
1100
0010
0101
0010
1100
0000
,
0110
0001
1100
0010
0101
1000
0110
0001
1100
0001
0110
0001
1100
0001
0110
1000
,
0101
0010
1001
0010
1100
0000
0011
0100
1010
0000
0101
1000
0011
1000
0101
0000
,
0110
1000
0101
0010
1001
0000
1010
0100
0011
0000
1100
0001
0110
0001
1100
0000
,
0110
0001
1100
0010
0101
0000
0011
0100
1001
0000
1100
0010
0101
0010
1100
0000
,
0110
0001
1100
0010
0101
0000
0110
0001
1100
0000
0110
0001
1100
0001
0110
0000
,
0101
0010
1001
0010
1100
0000
0011
0100
1010
0000
0101
1000
0011
1000
0101
0000
,
0110
1000
0101
0010
1001
0000
1010
0100
0011
0000
1100
0001
0110
0001
1100
0000
,
0110
0001
1100
0010
0101
0000
0011
0100
1001
0000
1100
0010
0101
0010
1100
0000
,
0110
0001
1100
0010
0101
1000
0110
0001
1100
0001
0110
0001
1100
0001
0110
1000
,
0101
0010
1001
0010
1100
0000
1001
1100
0000
0110
0000
0101
1001
0000
0101
0000
,
0101
1000
0101
0010
1001
0000
0011
1100
0000
1100
0000
1001
0110
0000
1100
0000
,
1100
0001
1100
0010
0101
0000
1010
0101
0000
1001
0000
0011
0101
0000
0101
0000
,
0110
1000
0101
1000
0011
0000
1010
0101
0000
0110
0000
0011
1010
0000
0101
0000
,
0101
0010
1001
0010
1100
0000
1001
1100
0000
0110
0000
0101
1001
0000
0101
0000
,
0101
1000
0101
0010
1001
0000
0011
1100
0000
1100
0000
1001
0110
0000
1100
0000
,
1100
0001
1100
0010
0101
0000
1010
0101
0000
1001
0000
0011
0101
0000
0101
0000
,
0110
1000
0101
1000
0011
0100
1010
0001
1100
0010
1100
0001
1010
0001
0110
1000
,
0101
0010
1001
0010
1100
0000
0011
0100
1010
0000
0101
1000
0011
1000
0101
0000
,
0110
1000
0101
0010
1001
0000
1010
0100
0011
0000
1100
0001
0110
0001
1100
0000
,
0110
0001
1100
0010
0101
0000
0011
0100
1001
0000
1100
0010
0101
0010
1100
0000
,
0110
0001
1100
0010
0101
0000
0110
0001
1100
0000
0110
0001
1100
0001
0110
0000
,
0101
0010
1001
0010
1100
0000
0011
0100
1010
0000
0101
1000
0011
1000
0101
0000
,
0110
1000
0101
0010
1001
0000
1010
0100
0011
0000
1100
0001
0110
0001
1100
0000
,
0110
0001
1100
0010
0101
0000
0011
0100
1001
0000
1100
0010
0101
0010
1100
0000
,
0110
0001
1100
0010
0101
1000
0110
0001
1100
0001
0110
0001
1100
0001
0110
1000
,
0101
0010
1001
0010
1100
0000
0011
0100
1010
0000
0101
1000
0011
1000
0101
0000
,
0110
1000
0101
0010
1001
0000
1010
0100
0011
0000
1100
0001
0110
0001
1100
0000
,
0110
0001
1100
0010
0101
0000
0011
0100
1001
0000
1100
0010
0101
0010
1100
0000
,
0110
0001
1100
0010
0101
0000
0110
0001
1100
0000
0110
0001
1100
0001
0110
0000
,
0101
0010
1001
0010
1100
0000
0011
0100
1010
0000
0101
1000
0011
1000
0101
0000
,
0110
1000
0101
0010
1001
0000
1010
0100
0011
0000
1100
0001
0110
0001
1100
0000
,
0110
0001
1100
0010
0101
0000
0011
0100
1001
0000
1100
0010
0101
0010
1100
0000
,
0110
0001
1100
0010
0101
1000
0110
0001
1100
0001
0110
0001
1100
0001
0110
1000
,
0202
0000
0303
0000
;

//---------------dance-single - Copied from----------------
#NOTES:
     dance-single:
     Copied from:
     Hard:
     10:
     0.829,0.807,0.747,0.081,0.611,680.000,102.000,11.000,0.000,0.000:
0000
0000
0000
0000
,
2000
0000
0000
0000
,
3020
0000
0000
0000
,
0230
0000
0000
0000
,
2300
0000
3020
0000
,
0032
0010
1000
0010
0000
0100
1000
0100
,
0023
0100
0001
0100
0000
0100
1000
0001
,
0230
1000
0010
0001
0000
1000
0010
1000
,
2300
0000
0000
0000
0000
0000
0000
0000
3020
0000
0000
0030
0010
0001
0100
1000
,
0100
0000
0001
0000
0100
0000
0001
0100
0000
0101
0000
0100
1000
0000
0101
0000
,
1000
0000
0100
0000
0001
0000
0010
0100
0000
1100
0000
0001
0010
0000
1100
0000
,
0100
0000
0001
0000
1000
0000
0010
0100
0000
1001
0000
0010
0100
0000
0101
0000
,
0100
0000
0010
0000
0001
0000
0010
0001
0000
0110
0000
0001
1000
0000
0101
0000
,
0100
0000
0001
0000
0100
0000
0001
0100
0000
0110
0000
0100
1000
0000
0101
0000
,
0100
0000
0001
0000
1000
0000
0010
0100
0000
1100
0000
0001
0010
0000
1100
0000
,
0100
0000
0010
0000
0100
0000
0010
0100
0000
1001
0000
0010
0100
0000
0101
0000
,
0001
0000
0100
0000
0001
0000
0010
0001
0000
0110
0000
0001
1000
0000
0101
0000
,
0100
0010
1100
0001
0011
0100
1010
0100
,
1001
0001
1100
0010
0101
1000
0011
0100
,
1100
0010
1010
0100
1001
0001
1010
0100
,
0011
0010
0110
1000
1010
0010
0011
0010
,
1010
0001
0011
0100
1010
0100
1001
0001
,
1100
1000
0101
0001
0011
0100
1100
0010
,
1010
0100
1001
0001
1010
0100
0011
0010
,
0110
0001
1000
0001
1000
0100
0010
0100
0001
1000
0100
0010
1000
0010
0001
0100
,
1000
0010
1010
0100
0011
1000
1010
0100
,
1001
0001
1100
1000
0101
0001
0011
0100
,
1100
0010
1010
0100
1001
0001
1010
0100
,
0011
0010
0110
1000
1010
0010
0011
0010
,
1010
0001
0011
0100
1010
0100
1001
0001
,
1100
1000
0101
0001
0011
0001
1100
0010
,
1010
0100
1001
0001
1010
0100
0011
0010
,
0110
0000
1000
0000
0001
0000
1000
0000
0010
0000
0100
0000
0010
0001
1000
0010
,
0100
0000
0001
0000
1000
0000
0001
0100
0010
0000
0001
1000
0001
0010
0100
0000
,
0100
0000
0001
0000
1000
0000
0010
0100
0010
0000
1000
0001
0100
0001
1000
0000
,
0100
0000
0010
0000
0001
0000
0010
0100
0001
0000
0100
0010
0001
0010
0100
0000
,
0101
0100
1010
0001
1100
0010
1100
0010
,
0100
0000
0001
0000
0100
0000
0001
0100
1000
0000
0001
1000
0010
1000
0001
0000
,
0100
0000
0010
0000
0001
0000
0010
0100
0001
0000
1000
0001
0100
0001
1000
0000
,
0100
0000
0001
0000
1000
0000
0010
0100
1000
0000
0100
0010
0001
0010
1000
0000
,
0100
0001
0100
0010
1000
0001
0010
0001
1000
0100
0010
0001
0100
0001
0010
1000
,
0001
0000
1000
0000
0100
0000
0001
0100
1000
0000
0001
1000
0001
1000
0001
0000
,
0100
0000
0010
0000
1000
0000
0010
0100
0010
0000
1000
0001
0100
0001
1000
0000
,
0100
0000
0001
0000
1000
0000
0010
0100
0001
0000
0100
0010
0001
0010
0100
0000
,
0101
0100
1001
0010
1100
0010
1100
0010
,
0100
0000
0001
0000
0100
0000
0001
0100
1000
0000
0001
1000
0010
1000
0001
0000
,
0100
0000
1000
0000
0001
0000
0010
0100
0001
0000
1000
0001
0100
0001
1000
0000
,
0100
0000
0001
0000
0010
0000
0010
0100
1000
0000
0100
0010
0100
0010
0100
0000
,
0100
0001
0100
0010
1000
0001
0010
0001
1000
0100
0010
0001
1000
0001
0010
0000
,
0100
0000
0001
0000
0100
0000
0001
0100
0000
0110
0000
0100
1000
0000
0101
0000
,
0100
0000
0010
0000
0001
0000
0010
0100
0000
1100
0000
0001
0010
0000
1100
0000
,
0001
0000
1000
0000
0001
0000
0010
0100
0000
1001
0000
0010
0100
0000
0101
0000
,
0100
0000
1000
0000
0001
0000
0010
0001
0000
0110
0000
0001
1000
0000
0101
0000
,
0100
0000
0001
0000
0100
0000
0001
0100
0000
0110
0000
0100
1000
0000
0101
0000
,
0010
0000
0100
0000
0001
0000
0010
0100
0000
1100
0000
0001
0010
0000
1100
0000
,
0001
0000
1000
0000
0001
0000
0010
0100
0000
1001
0000
0010
0100
0000
0101
0000
,
0100
1000
0100
1000
0001
0100
0010
0001
1000
0010
0100
0001
1000
0010
0001
1000
,
0100
0000
0001
0000
1000
0000
0001
0100
0010
0000
0001
1000
0001
0010
0100
0000
,
0100
0000
0001
0000
1000
0000
0010
0100
0010
0000
1000
0001
0100
0001
1000
0000
,
0100
0000
0010
0000
0001
0000
0010
0100
0001
0000
0100
0010
0001
0010
0100
0000
,
0101
0100
1010
0001
1100
0010
1100
0010
,
0100
0000
0001
0000
0100
0000
0001
0100
1000
0000
0001
1000
0010
1000
0001
0000
,
0100
0000
0010
0000
0001
0000
0010
0100
0001
0000
1000
0001
0100
0001
1000
0000
,
0100
0000
0001
0000
1000
0000
0010
0100
1000
0000
0100
0010
0001
0010
1000
0000
,
0100
0001
0100
0010
1000
0001
0010
0001
1000
0100
0010
0001
0100
0001
0010
1000
,
0001
0000
1000
0000
0100
0000
0001
0100
1000
0000
0001
1000
0001
1000
0001
0000
,
0100
0000
0010
0000
1000
0000
0010
0100
0010
0000
1000
0001
0100
0001
1000
0000
,
0100
0000
0001
0000
1000
0000
0010
0100
0001
0000
0100
0010
0001
0010
0100
0000
,
0101
0100
1001
0010
1100
0010
1100
0010
,
0100
0000
0001
0000
0100
0000
0001
0100
1000
0000
0001
1000
0010
1000
0001
0000
,
0100
0000
1000
0000
0001
0000
0010
0100
0001
0000
1000
0001
0100
0001
1000
0000
,
0100
0000
0001
0000
0010
0000
0010
0100
1000
0000
0100
0010
0100
0010
0100
0000
,
0100
0001
0100
0010
1000
0001
0010
0001
1000
0100
0010
0001
1000
0001
0010
0000
,
0200
0000
0300
0000
;
