#TITLE:Kenka Yohou no Jikan Dayo;
#SUBTITLE:Lucky Star Character Song Vol. 002;
#ARTIST:Katou Emiri;
#TITLETRANSLIT:;
#SUBTITLETRANSLIT:;
#ARTISTTRANSLIT:;
#CREDIT:;
#BANNER:;
#BACKGROUND:Minitokyo.Anime.Wallpapers.Lucky.Star_333572.jpg;
#LYRICSPATH:;
#CDTITLE:Kaburicho-tittle.png;
#MUSIC:01-kenka-yohou-no-jikan-dayo.mp3;
#OFFSET:0.000;
#SAMPLESTART:100.000;
#SAMPLELENGTH:12.000;
#SELECTABLE:YES;
#BPMS:0.000=170.020;
#STOPS:;
#BGCHANGES:;
// cache tags:
#FIRSTBEAT:4.000;
#LASTBEAT:602.500;
#SONGFILENAME:Songs/new cedric/kenka/01-kenka-yohou-no-jikan-dayo.sm;
#HASMUSIC:1;
#HASBANNER:0;
#MUSICLENGTH:223.367;
// end cache tags

//---------------dance-single - ----------------
#NOTES:
     dance-single:
     :
     Challenge:
     10:
     0.745,0.944,0.801,0.166,0.148,949.000,179.000,37.000,0.000,0.000:
0000
0000
0000
0000
,
0010
1100
0010
0001
0100
0010
0001
1000
,
0100
0010
0001
0100
0010
1000
0100
0010
,
0001
0001
0100
0100
0010
1000
0100
0010
,
0001
0100
1000
0100
0010
0001
0100
1000
,
1000
1000
1000
0100
0100
0100
0100
0010
,
0010
0010
0010
0001
0001
0001
0001
1000
,
0100
0010
0001
0100
0010
0001
0100
0010
,
0001
0100
0010
0001
0100
0010
0011
1000
,
0100
1000
0100
0000
1000
0000
0100
0000
1000
0100
1000
0000
0010
0000
0001
0000
,
0100
0000
0010
0000
0001
0000
0000
0000
0002
0000
0000
0000
0000
0003
1000
0100
,
0010
0000
0001
1000
0100
0010
0000
0001
0100
0010
0001
0000
0100
0000
0020
0000
,
0000
0000
0000
0030
1000
0100
0010
0000
0001
0000
0100
0000
0010
0000
1000
0000
,
0100
1000
0001
0000
0010
0100
1000
0000
0010
1000
0100
0000
1000
0100
0010
0000
,
0001
0100
0010
0000
0100
0001
1000
0000
0001
0100
0010
0000
0100
0000
0010
0000
,
0001
0100
0010
0001
0001
0000
1000
0100
,
0010
0000
0011
0011
0000
1000
0100
0010
,
0000
0001
1000
0000
1000
0100
0010
0001
,
0000
1000
0100
0000
0010
0000
0000
1000
,
1000
0100
0100
0010
0010
0000
0001
0001
,
0000
1000
1000
0000
0000
0100
0100
0010
,
0000
0010
1000
0000
1000
0100
0010
0001
,
0000
0001
0002
0000
0000
0003
1100
1100
,
0000
0000
0101
0101
0000
0000
1100
1100
,
0011
0011
0011
0011
0011
0000
0000
0010
,
1000
0100
0010
0000
0001
0000
0100
0000
1000
0100
0010
0000
0001
0000
0100
0000
,
0010
0000
0001
0000
0100
0000
0000
0000
0001
0000
0000
0000
0001
0000
1000
0100
,
0010
0001
0001
0100
0010
0001
0100
0010
0001
0010
0100
0010
0001
0100
0001
0020
,
0000
0000
0000
0030
1000
0100
0010
0000
0001
0000
0100
0000
0010
0000
1000
0000
,
0100
1000
0100
0000
1000
0001
1000
0000
0001
1000
0001
0000
0100
0010
0100
0000
,
0010
0100
0010
0000
1000
0001
1000
0000
0001
1000
0100
0000
0010
0000
0100
0000
,
0010
0001
0100
1000
0100
0010
0001
1100
,
1100
0000
0101
0101
0000
1000
0100
0010
,
0000
1000
0100
0000
1000
0100
0010
0001
,
0000
1000
0100
0000
0100
0000
0000
0001
,
0001
0010
0010
0100
0100
0010
0010
0001
,
0000
0001
0001
0100
0000
1000
0100
0010
,
0000
0101
0101
0000
0100
0010
0001
0100
,
0000
0100
0002
0000
0003
0000
1001
1001
,
0000
0000
0110
0110
0000
0000
1100
0100
,
0101
0101
1100
0100
1100
0000
0000
0101
,
0000
0101
0000
1000
0100
0010
0001
0000
,
1000
0100
0010
0002
0000
0003
0000
1000
,
0100
0010
0000
0100
0010
0000
0100
0000
,
0100
0001
0001
0002
0000
0003
0000
1100
,
0000
0100
0000
0010
0001
0100
0010
0000
,
1000
0100
0010
0001
0000
1100
1100
0001
,
0000
0100
0000
0010
0100
0000
1001
0000
,
1001
1001
0000
0110
0000
0110
0000
0001
,
0000
0001
0000
1000
0100
0000
0010
0000
,
0001
0100
0010
0002
0000
0003
0000
1000
,
0100
0010
0000
0001
0000
0001
0100
0000
,
0010
0100
0010
0200
0000
0300
0000
1000
,
0100
0010
0000
0001
0000
0001
1000
0000
,
1000
0100
0010
0001
0000
0100
0010
0100
,
0000
0100
0000
0001
0100
0000
0011
0000
,
1100
1100
0000
0101
0000
0000
0100
0000
,
0001
0000
0000
0101
0000
0000
0000
0000
0000
0101
0000
0000
0000
0000
0000
0101
0000
0000
0000
0000
0000
0000
0100
0000
,
1000
0100
1000
0100
1000
0001
0100
0001
0100
0001
0100
0001
,
0100
0000
0001
0000
0010
0000
0100
0000
0010
0000
0000
0000
0000
0000
0000
0101
0000
0000
0000
0000
0000
1000
0000
0000
,
1000
0100
0010
0001
0001
1000
0100
0010
,
0001
0100
0100
0001
0102
0000
0003
1000
,
0100
0010
0001
0100
0010
0001
0100
0202
,
0000
0303
0100
0010
0100
0010
0000
1000
,
0100
1000
0100
0000
1000
0100
1000
0000
0100
1000
0100
0000
1000
0000
0100
0010
,
0001
0100
1000
0010
0001
0100
0010
0001
0100
0010
0001
0100
0010
0000
1000
0000
,
0100
0010
0001
0100
0010
0100
0010
1100
,
1100
0000
0101
0101
0000
1100
1100
1100
,
0000
0101
0101
0000
0100
0010
0100
0010
,
0000
0001
0001
0000
0002
0000
0003
1000
,
0100
0010
0001
0100
0010
0100
0010
0100
,
0010
0100
0000
0101
0000
0100
0010
0001
,
0000
0001
0002
0000
1003
0100
0010
0001
,
0000
0100
0020
0000
0030
0000
1001
0110
,
0000
0000
0110
1001
0000
0000
0110
1001
,
0110
1001
0110
1001
0110
0000
0000
1000
,
1000
0100
0100
0010
0010
0001
0001
1000
,
1000
0100
0010
0010
0002
0000
0003
1000
,
0100
0010
0001
0100
0010
0100
0010
2200
,
0000
3300
0001
0100
0010
0001
0000
0100
,
1000
0100
1000
0000
0100
1000
0100
0000
1000
0100
1000
0000
0100
0000
0001
0010
,
0001
0100
0010
0001
1000
0100
0010
0001
0100
0001
0100
0010
0000
0000
0011
0000
,
0011
1000
0100
0010
0001
0100
0010
1100
,
1100
0000
1100
1100
0000
0101
0101
0101
,
0000
0100
0010
0000
0100
0010
0100
1000
,
0000
1000
0001
0000
0002
0000
0003
1100
,
1100
0001
0100
0010
0100
0010
0100
0010
,
1000
0100
0000
1100
0000
0001
0100
0010
,
0000
1000
0100
0000
1000
0001
0001
0001
,
0000
1000
2000
0000
0000
3000
0011
1100
,
0000
0000
0011
1100
0000
0000
1100
0011
,
1100
0011
1100
0011
1100
0000
0000
1001
,
0000
1001
0000
0100
0010
0000
0100
0000
,
1000
0100
0010
0002
0000
0003
0000
1100
,
0000
0100
0001
0100
0010
0001
0100
0000
,
0010
0001
0000
0011
0000
0000
0000
1000
,
0000
1000
0100
0010
0001
0100
0010
0000
,
0100
0010
0100
0010
0000
0001
1000
0110
,
0000
0100
0000
0001
0100
0000
0010
0000
,
1100
1100
0000
0101
0000
0101
0000
1000
,
0000
1000
0000
0100
0010
0001
0010
0000
,
0001
0001
0100
0020
0000
0000
0030
1100
,
0100
1100
0001
0100
0010
0000
1000
0000
,
1000
0100
0010
0002
0000
0000
0003
1000
,
0100
0010
0001
0100
1000
0100
0010
0000
,
0001
0100
0010
0001
0000
0100
0000
0101
,
0000
0101
0000
0001
0100
0000
1100
0000
,
0001
0101
0000
0101
0000
0000
1100
0000
,
0000
0001
0000
0101
0000
0101
0000
1000
,
0100
0010
0001
0100
0010
0100
1000
0100
,
0010
0001
0100
1000
0100
0010
0001
0100
,
1000
0100
0010
0001
1000
0100
0010
0001
,
1000
0100
0010
0001
1000
0100
0010
0001
,
0001
0001
0100
0100
0100
0010
0010
0010
,
1000
1000
1000
0100
0010
0001
0001
0100
,
1000
0100
0001
0100
0001
0100
0010
0001
,
0100
0010
0001
0100
0010
0001
0100
1100
,
0000
1100
0000
0101
0101
0000
1100
0000
,
0101
0100
0010
0020
0000
0000
0030
1000
,
0100
0010
0001
0100
0010
0001
1000
0000
,
1000
0100
0000
0022
0000
0000
0033
1000
,
0100
0010
0001
1000
0100
0010
0001
0000
,
0100
0001
0100
0001
0000
0100
0001
0100
,
0000
1100
0000
1100
1100
0000
0101
0000
,
0101
0101
0000
0202
0000
0300
0003
1001
,
0000
0110
0000
1001
1001
0000
0100
0000
,
0010
1000
0100
0020
0000
0000
0030
1100
,
1100
1100
1100
0001
0100
0000
1000
0000
,
1000
0100
0000
0020
0000
0000
0030
0001
,
0011
0100
0010
0001
0100
0010
0001
0000
,
1000
0100
0010
0001
0000
1100
0000
0001
,
0000
0100
0000
0001
0100
0000
0010
0000
,
0100
0010
0000
0100
0000
0100
0000
1000
,
0000
1000
0000
1000
0100
0010
0100
0000
,
0010
0100
0010
0200
0000
0000
0300
1001
,
1001
0001
1000
0100
0010
0001
0100
0000
,
1000
0100
0010
0002
0000
0000
0003
1100
,
1100
1100
0000
0001
0100
0010
0001
0000
,
0001
0100
0010
0010
0000
1100
1100
1100
,
0000
0101
0000
1100
1100
0000
0011
0000
,
0011
0011
0000
1001
0000
1001
0000
0110
,
0000
0110
0000
1000
0100
0010
0001
0000
,
1000
0100
0010
0002
0000
0000
0003
1100
,
1100
0001
0100
0010
1000
0100
0010
0000
,
0001
0100
0010
0002
0000
0000
0003
1001
,
1001
1001
0000
0100
0000
1000
0100
0000
,
0010
0001
0100
0010
0000
1100
1100
1100
,
0000
0101
0000
0101
0101
0000
0011
0000
,
0011
0011
0000
1010
0000
0000
0110
0000
,
0110
0110
0000
0210
0000
0300
1001
0000
,
1001
1001
0000
0220
0000
0330
0000
0000
;
