#TITLE:Freezeey Peak;
#SUBTITLE:Banjo-Kazooie;
#ARTIST:Rareware;
#TITLETRANSLIT:;
#SUBTITLETRANSLIT:;
#ARTISTTRANSLIT:;
#CREDIT:;
#BANNER:fp-bn.PNG;
#BACKGROUND:fp-bg.png;
#LYRICSPATH:;
#CDTITLE:kyka06.png;
#MUSIC:FreezeezyPeak.mp3;
#OFFSET:-0.900;
#SAMPLESTART:59.647;
#SAMPLELENGTH:12.500;
#SELECTABLE:YES;
#BPMS:0.000=144.780,48.000=146.780,56.000=144.780,104.000=146.780,112.000=144.780,184.000=146.780,192.000=144.780,240.000=146.780,248.000=144.780;
#STOPS:;
#BGCHANGES:;
// cache tags:
#FIRSTBEAT:0.000;
#LASTBEAT:292.000;
#SONGFILENAME:Songs/new/BK - Freezeey Peak/fp.sm;
#HASMUSIC:1;
#HASBANNER:1;
#MUSICLENGTH:126.380;
// end cache tags

//---------------dance-single - ----------------
#NOTES:
     dance-single:
     :
     Hard:
     10:
     0.569,0.607,0.340,0.087,0.396,449.000,43.000,11.000,0.000,0.000:
0100
0001
0100
0001
0100
0000
0000
0000
0001
1000
0001
1000
0001
0000
0000
0000
,
0001
0010
0001
0010
0001
0000
0000
0000
0010
0100
0010
0100
0010
0000
0000
0000
,
0001
0010
0001
0010
0001
0000
0000
0000
0010
0100
0010
0100
0010
0000
0000
0000
,
0010
1000
0010
1000
0010
0000
0000
0000
1000
0001
1000
0001
1000
0000
0000
0000
,
1000
0100
1000
0100
1000
0000
0000
0000
0100
0010
0100
0010
0100
0000
0000
0000
,
0100
0001
0100
0001
0100
0000
0000
0000
0001
1000
0001
1000
0001
0000
0000
0000
,
0100
0001
1000
0010
0100
0001
0100
0001
,
1000
0010
1000
0010
0001
1000
0100
0010
,
0100
0000
0000
0000
0010
0000
0000
1000
0001
0000
0000
0000
0100
0000
0000
0000
,
0000
0000
1000
0000
0001
0000
0000
0010
1000
0000
0000
0000
0001
0000
0000
0000
,
0100
0001
0100
0001
0100
0000
0000
0000
0010
1000
0010
1000
0010
0000
0000
0000
,
0001
1000
0001
1000
0001
0000
1000
0000
0100
0000
0001
0000
1000
0000
0010
0000
,
0001
0000
0000
0000
1000
0000
0000
0100
0001
0000
0000
0000
1000
0000
0000
0000
,
0000
0000
0010
0000
1000
0000
0000
0001
0100
0000
0000
0000
1000
0000
0000
0000
,
0100
1000
0100
1000
0100
0000
0000
0000
0001
1000
0001
1000
0001
0000
0000
0000
,
1000
0010
1000
0010
1000
0000
0010
0000
0001
0000
1000
0000
0100
0000
0001
0000
,
1000
0000
0000
0010
0001
0000
1000
0100
,
0001
1000
0010
1000
0001
0000
0001
0000
,
0010
0000
0000
1000
0010
0000
1000
0100
,
0001
0000
1000
0000
0020
0000
0000
0030
,
0001
0000
0000
1000
0100
0000
0100
0001
,
1000
0010
0001
0010
1000
0000
0010
0000
,
0001
0000
0000
0000
1000
0000
0000
0100
0001
0000
0000
0000
1000
0000
0000
0001
,
0010
0000
0000
0000
1000
0000
0000
0001
0010
0000
0000
0000
1100
0000
0000
0000
,
1000
0000
0000
0000
0010
0000
0000
0001
1000
0000
0000
0000
0100
0000
0000
0000
,
0000
0000
0001
0000
1000
0000
0000
0010
0001
0000
0000
0000
1000
0000
0000
0000
,
0100
0001
0100
0001
1000
0000
0000
0000
0010
0001
0010
0001
0100
0000
0000
0000
,
1000
0001
1000
0001
1000
0000
0100
0000
0001
0000
1000
0000
0010
0000
0100
0000
,
1000
0000
0000
0000
0001
0000
0000
1000
0010
0000
0000
0000
0001
0000
0000
0000
,
0000
0000
0100
0000
0010
0000
0000
1000
0010
0000
0000
0000
0001
0000
0000
0000
,
0001
0100
0001
0100
0001
0000
0000
0000
1000
0010
1000
0010
1000
0000
0000
0000
,
0010
0001
0010
0001
0010
0000
0001
0000
1000
0000
0100
0000
0001
0000
1000
0000
,
0010
0000
0000
0001
1000
0000
0100
0001
,
1000
0010
0001
1000
0100
0000
0001
0000
,
0010
0000
1000
0001
0100
0000
1000
0001
,
0010
0000
0000
0000
1000
0000
0000
0000
0002
0000
0000
0000
0000
0003
0100
1000
,
0100
0000
0000
0001
1000
0000
0010
0001
,
1000
0100
0001
1000
0010
0000
0001
0000
,
1000
0000
0000
0000
0100
0000
0000
0001
1000
0000
0000
0000
0010
0000
0000
0001
,
1000
0000
0000
0000
0100
0000
0000
0001
1000
0000
0000
0000
0010
0000
0000
0000
,
0110
0000
0000
1001
0000
0110
0000
0001
,
1000
0000
0000
0100
0002
0000
0000
0000
,
0000
0003
1010
0000
1001
0000
0101
0000
,
1010
0000
0000
0001
2000
0000
0000
3000
,
0100
0000
0000
0001
2000
0000
0000
0000
,
0000
3000
0000
0000
0110
0000
0000
0000
1001
0000
0000
0000
0000
0000
0100
0000
,
0002
0000
0000
0000
0000
0000
0000
0000
0000
0000
0000
0000
0000
0000
0000
0003
,
1000
0000
0000
0000
1000
0000
0000
0001
1000
0000
0000
0000
0100
0000
0000
0000
,
1001
0000
0000
0110
0000
1001
0000
0100
,
0010
0000
0000
1000
0200
0000
0000
0000
,
0000
0300
0011
0000
0110
0000
1100
0000
,
0011
0000
0000
0100
0020
0000
0000
0030
,
1000
0000
0000
0100
0020
0000
0000
0000
,
0000
0030
0000
0000
1001
0000
0000
0000
0110
0000
0000
0000
0000
0000
1000
0000
,
0220
0000
0000
0000
,
0000
0000
0000
0000
0000
0000
0000
0000
0000
0000
0000
0000
0000
0000
0000
0330
,
1001
1000
0011
0011
,
1001
0001
1010
1001
,
1001
0010
1100
0011
,
1010
1100
1001
0010
,
1001
1000
1001
0011
,
0011
0100
1001
0011
,
1001
0100
0010
1001
,
0101
0010
0101
0010
,
0010
1000
0010
1000
0010
0000
0000
0000
1000
0001
1000
0001
1000
0000
0000
0000
,
1000
0100
1000
0100
1000
0000
0000
0000
0100
0010
0100
0010
0100
0000
0000
0000
,
1000
0100
1000
0100
1000
0000
0000
0000
0100
0010
0100
0010
0100
0000
0000
0000
,
0100
0001
0100
0001
0100
0000
0000
0000
0001
1000
0001
1000
0001
0000
0000
0000
,
0001
0010
0001
0010
0001
0000
0000
0000
0010
0100
0010
0100
0010
0000
0000
0000
,
0010
1000
0010
1000
0010
0000
0000
0000
1000
0001
1000
0001
1000
0000
0000
0000
,
0001
0010
0001
0010
0001
0000
0000
0000
0010
0100
0010
0100
0010
0000
0000
0000
,
0010
1000
0010
1000
0010
0000
0000
0000
1000
0001
1000
0001
1000
0000
0000
0000
,
0010
1000
0010
1000
0010
0000
0000
0000
1000
0001
1000
0001
1000
0000
0000
0000
,
0110
0000
0000
0000
;

//---------------dance-single - ----------------
#NOTES:
     dance-single:
     :
     Medium:
     8:
     0.466,0.491,0.396,0.103,0.059,349.000,50.000,13.000,0.000,0.000:
0001
1000
0001
0000
0010
0001
0010
0000
,
0010
0100
0010
0000
1000
0100
1000
0000
,
1001
0000
0000
0110
0000
1001
0000
0010
,
0100
0000
0000
0001
0020
0000
0000
0000
,
0000
0030
1100
0000
0110
0000
0011
0000
,
1100
0000
0000
0010
0200
0000
0000
0300
,
0001
1000
0100
0000
0001
0010
0001
0000
,
0100
1000
0100
0000
0010
0100
0001
0000
,
0001
0000
0000
0000
1000
0000
0000
0100
0010
0000
0000
0000
0001
0000
0000
0000
,
0000
0000
0100
0000
0010
0000
0000
1000
0100
0000
0000
0000
0010
0000
0000
0000
,
0001
0100
0001
0000
1000
0100
1000
0000
,
0010
0100
0010
0000
0001
0010
0100
1000
,
0010
0000
0000
0000
0100
0000
0000
0001
0010
0000
0000
0000
0100
0000
0000
0000
,
0000
0000
1000
0000
0100
0000
0000
0010
0001
0000
0000
0000
0100
0000
0000
0000
,
0001
0100
0001
0000
0010
0100
0010
0000
,
0100
1000
0100
0000
0010
0100
0001
0010
,
0100
0000
0000
1000
0010
0000
0100
0000
,
0010
0100
1000
0100
0010
0000
0010
0000
,
1000
0000
0000
0100
1000
0000
0100
0001
,
0010
0000
0100
0000
2000
0000
0000
3000
,
0010
0000
0000
0100
0001
0000
0001
0000
,
0100
1000
0010
1000
0100
0000
1000
0000
,
0010
0000
0000
0000
0100
0000
0000
0001
0010
0000
0000
0000
0100
0000
0000
0010
,
1000
0000
0000
0000
0100
0000
0000
0010
1000
0000
0000
0000
0101
0000
0000
0000
,
0100
0000
0000
0000
1000
0000
0000
0010
0100
0000
0000
0000
0001
0000
0000
0000
,
0000
0000
0010
0000
0100
0000
0000
1000
0010
0000
0000
0000
0100
0000
0000
0000
,
0001
0010
0100
0000
1000
0010
0001
0000
,
0100
0010
0100
0000
0010
0100
1000
0001
,
0100
0000
0000
0000
0010
0000
0000
0100
1000
0000
0000
0000
0010
0000
0000
0000
,
0000
0000
0001
0000
1000
0000
0000
0100
1000
0000
0000
0000
0010
0000
0000
0000
,
0010
0001
0010
0000
0100
1000
0100
0000
,
1000
0010
1000
0000
0100
0001
0010
0100
,
1000
0000
0000
0010
0100
0000
0001
0000
,
0100
1000
0010
0100
0001
0000
0010
0000
,
1000
0000
0100
0010
0001
0000
0100
0010
,
1000
0000
0000
0000
0100
0000
0000
0000
0020
0000
0000
0000
0000
0030
1000
0000
,
0001
0000
0000
0010
0100
0000
1000
0000
,
0100
0001
0010
0100
1000
0000
0010
0000
,
0100
0000
0000
0000
0001
0000
0000
0010
0100
0000
0000
0000
1000
0000
0000
0010
,
0100
0000
0000
0000
0001
0000
0000
0010
0100
0000
0000
0000
1000
0000
0000
0000
,
1001
0000
0000
0110
0000
1001
0000
0010
,
0100
0000
0000
0001
0020
0000
0000
0000
,
0000
0030
1100
0000
0110
0000
0011
0000
,
1100
0000
0000
0010
0200
0000
0000
0300
,
0001
0000
0000
0010
0200
0000
0000
0000
,
0000
0300
0000
0000
1001
0000
0000
0000
0110
0000
0000
0000
0000
0000
0001
0000
,
0020
0000
0000
0000
0000
0000
0000
0000
0000
0000
0000
0000
0000
0000
0000
0030
,
0100
0000
0000
0000
0100
0000
0000
0010
0100
0000
0000
0000
0001
0000
0000
0000
,
0110
0000
0000
1001
0000
0110
0000
0001
,
1000
0000
0000
0100
0002
0000
0000
0000
,
0000
0003
1010
0000
1001
0000
0101
0000
,
1010
0000
0000
0001
2000
0000
0000
3000
,
0100
0000
0000
0001
2000
0000
0000
0000
,
0000
3000
0000
0000
0110
0000
0000
0000
1001
0000
0000
0000
0000
0000
0100
0000
,
2002
0000
0000
0000
,
0000
0000
0000
0000
0000
0000
0000
0000
0000
0000
0000
0000
0000
0000
0000
3003
,
0110
0000
1010
1010
,
0110
0000
1100
0110
,
0110
0000
0101
1010
,
1100
0101
0110
0000
,
0110
0000
0110
1010
,
1010
0000
0110
1010
,
0110
0000
0000
0110
,
0011
0000
0011
0000
,
0001
0010
0100
1000
0010
0100
0001
0010
,
0001
0100
0010
1000
0100
0001
0100
0010
,
1000
0010
0001
0100
0010
1000
0001
0100
,
0001
0010
0001
0100
0010
1000
0100
1000
,
0100
0010
0001
0100
0010
1000
0001
0100
,
0001
0010
0001
0100
0010
1000
0100
1000
,
0010
0100
0001
0010
0001
0100
0010
1000
,
0100
0010
0001
0100
0010
1000
0100
1000
,
0010
1000
0100
0010
0001
0100
0010
1000
,
1001
0000
0000
0000
;

//---------------dance-single - ----------------
#NOTES:
     dance-single:
     :
     Challenge:
     11:
     0.639,0.722,0.340,0.087,0.396,511.000,43.000,11.000,0.000,0.000:
1000
0100
1000
0100
1000
0000
0010
0000
0100
0010
0100
0010
0100
0000
0001
0000
,
0100
0001
0100
0001
0100
0000
1000
0000
0001
1000
0001
1000
0001
0000
0010
0000
,
0100
0001
0100
0001
0100
0000
1000
0000
0001
1000
0001
1000
0001
0000
0010
0000
,
0001
0010
0001
0010
0001
0000
0100
0000
0010
0100
0010
0100
0010
0000
1000
0000
,
0010
1000
0010
1000
0010
0000
0001
0000
1000
0001
1000
0001
1000
0000
0100
0000
,
1000
0100
1000
0100
1000
0000
0010
0000
0100
0010
0100
0010
0100
0000
0001
0000
,
1000
0100
0010
0001
1000
0100
1000
0100
,
0010
0001
0010
0001
0100
0010
1000
0001
,
1000
0000
0000
0000
0001
0000
0000
0010
0100
0000
0000
0000
1000
0000
0000
0000
,
0000
0000
0010
0000
0100
0000
0000
0001
0010
0000
0000
0000
0100
0000
0000
0000
,
1000
0100
1000
0100
1000
0000
0000
0000
0001
0010
0001
0010
0001
0000
0000
0000
,
0100
0010
0100
0010
0100
0000
0010
0000
1000
0000
0100
0000
0010
0000
0001
0000
,
0100
0000
0000
0000
0010
0000
0000
1000
0100
0000
0000
0000
0010
0000
0000
0000
,
0000
0000
0001
0000
0010
0000
0000
0100
1000
0000
0000
0000
0010
0000
0000
0000
,
1000
0010
1000
0010
1000
0000
0000
0000
0100
0010
0100
0010
0100
0000
0000
0000
,
0010
0001
0010
0001
0010
0000
0001
0000
0100
0000
0010
0000
1000
0000
0100
0000
,
0010
0000
0000
0001
0100
0000
0010
1000
,
0100
0010
0001
0010
0100
0000
0100
0000
,
0001
0000
0000
0010
0001
0000
0010
1000
,
0100
0000
0010
0000
0002
0000
0000
0003
,
0100
0000
0000
0010
1000
0000
1000
0100
,
0010
0001
0100
0001
0010
0000
0001
0000
,
0100
0000
0000
0000
0010
0000
0000
1000
0100
0000
0000
0000
0010
0000
0000
0100
,
0001
0000
0000
0000
0010
0000
0000
0100
0001
0000
0000
0000
1010
0000
0000
0000
,
0010
0000
0000
0000
0001
0000
0000
0100
0010
0000
0000
0000
1000
0000
0000
0000
,
0000
0000
0100
0000
0010
0000
0000
0001
0100
0000
0000
0000
0010
0000
0000
0000
,
1000
0100
1000
0100
0010
0000
0000
0000
0001
0100
0001
0100
1000
0000
0000
0000
,
0010
0100
0010
0100
0010
0000
1000
0000
0100
0000
0010
0000
0001
0000
1000
0000
,
0010
0000
0000
0000
0100
0000
0000
0010
0001
0000
0000
0000
0100
0000
0000
0000
,
0000
0000
1000
0000
0001
0000
0000
0010
0001
0000
0000
0000
0100
0000
0000
0000
,
0100
1000
0100
1000
0100
0000
0000
0000
0010
0001
0010
0001
0010
0000
0000
0000
,
0001
0100
0001
0100
0001
0000
0100
0000
0010
0000
1000
0000
0100
0000
0010
0000
,
0001
0000
0000
0100
0010
0000
1000
0100
,
0010
0001
0100
0010
1000
0000
0100
0000
,
0001
0000
0010
0100
1000
0000
0010
0100
,
0001
0000
0000
0000
0010
0000
0000
0000
0200
0000
0000
0000
0000
0300
1000
0010
,
1000
0000
0000
0100
0010
0000
0001
0100
,
0010
1000
0100
0010
0001
0000
0100
0000
,
0010
0000
0000
0000
1000
0000
0000
0100
0010
0000
0000
0000
0001
0000
0000
0100
,
0010
0000
0000
0000
1000
0000
0000
0100
0010
0000
0000
0000
0001
0000
0000
0000
,
1001
0000
0000
0110
0000
1001
0000
0100
,
0010
0000
0000
1000
0200
0000
0000
0000
,
0000
0300
0011
0000
0110
0000
1100
0000
,
0011
0000
0000
0100
0020
0000
0000
0030
,
1000
0000
0000
0100
0020
0000
0000
0000
,
0000
0030
0000
0000
1001
0000
0000
0000
0110
0000
0000
0000
0000
0000
1000
0000
,
0200
0000
0000
0000
0000
0000
0000
0000
0000
0000
0000
0000
0000
0000
0000
0300
,
0010
0000
0000
0000
0010
0000
0000
0100
0010
0000
0000
0000
1000
0000
0000
0000
,
0110
0000
0000
1001
0000
0110
0000
1000
,
0001
0000
0000
0010
2000
0000
0000
0000
,
0000
3000
0101
0000
1001
0000
1010
0000
,
0101
0000
0000
1000
0002
0000
0000
0003
,
0010
0000
0000
1000
0002
0000
0000
0000
,
0000
0003
0000
0000
0110
0000
0000
0000
1001
0000
0000
0000
0000
0000
0010
0000
,
2002
0000
0000
0000
,
0000
0000
0000
0000
0000
0000
0000
0000
0000
0000
0000
0000
0000
0000
0000
3003
,
0110
1000
0010
0100
0101
0010
0101
0100
,
0110
1000
0100
0010
0011
0100
0110
1000
,
0110
0010
0001
0100
1010
1000
0101
0010
,
0011
0100
1010
1000
0110
0010
0001
0100
,
0110
1000
0010
1000
0110
0010
0101
0010
,
0101
0010
1000
0100
0110
0100
0101
0100
,
0110
1000
1000
0001
0001
0100
0110
0010
,
1100
0010
0001
1000
1100
0100
0001
0100
,
0001
0010
0001
0010
0001
0000
0100
0000
0010
0100
0010
0100
0010
0000
1000
0000
,
0010
1000
0010
1000
0010
0000
0001
0000
1000
0001
1000
0001
1000
0000
0100
0000
,
0010
1000
0010
1000
0010
0000
0001
0000
1000
0001
1000
0001
1000
0000
0100
0000
,
1000
0100
1000
0100
1000
0000
0010
0000
0100
0010
0100
0010
0100
0000
0001
0000
,
0100
0001
0100
0001
0100
0000
1000
0000
0001
1000
0001
1000
0001
0000
0010
0000
,
0001
0010
0001
0010
0001
0000
0100
0000
0010
0100
0010
0100
0010
0000
1000
0000
,
0100
0001
0100
0001
0100
0000
1000
0000
0001
1000
0001
1000
0001
0000
0010
0000
,
0001
0010
0001
0010
0001
0000
0100
0000
0010
0100
0010
0100
0010
0000
1000
0000
,
0001
0010
0001
0010
0001
0000
0100
0000
0010
0100
0010
0100
0010
0000
1000
0000
,
1001
0000
0000
0000
;

//---------------dance-single - ----------------
#NOTES:
     dance-single:
     :
     Easy:
     4:
     0.304,0.318,0.190,0.119,0.000,230.000,24.000,15.000,0.000,1.000:
0010
0010
0001
0001
,
0001
0001
0100
0100
,
0110
0000
0000
0000
,
1000
0000
0002
0000
,
0000
0003
1100
0000
1001
0000
0011
0000
,
1100
0000
0000
0000
2000
0000
0000
3000
,
0010
1000
0010
0010
,
1000
1000
0001
0010
,
0010
0100
0001
0010
,
0000
0001
1000
0001
,
0010
0010
0100
0100
,
0001
0001
0010
1000
,
0001
1000
0001
1000
,
0000
1000
0010
1000
,
0010
0010
0001
0001
,
1000
1000
0001
0010
,
1000
0000
0001
1000
,
0001
0100
0001
0001
,
0100
0000
0100
1000
,
0001
0000
1000
0000
0200
0000
0000
0300
,
0001
0000
0010
0010
,
1000
0001
1000
0100
,
0001
1000
0001
1000
,
0100
1000
0100
1010
,
1000
0100
1000
0010
,
0000
1000
0001
1000
,
0010
1000
0100
0010
,
1000
1000
0001
0100
,
1000
0001
0100
0001
,
0000
0100
0100
0001
,
0001
0001
1000
1000
,
0100
0100
1000
0001
,
0100
0000
1000
0010
,
1000
0001
0010
0001
,
0100
1000
0010
1000
,
0100
0000
0000
0000
1000
0000
0000
0000
0002
0000
0000
0000
0000
0003
0000
0000
,
0010
0000
1000
0100
,
1000
0001
0100
0001
,
1000
0010
1000
0100
,
1000
0010
1000
0100
,
0110
0000
0000
0000
,
1000
0000
0002
0000
,
0000
0003
1100
0000
1001
0000
0011
0000
,
1100
0000
0000
0000
2000
0000
0000
3000
,
0010
0000
2000
0000
,
0000
3000
0000
0000
0110
0000
0000
0000
1001
0000
0000
0000
0000
0000
0000
0000
,
0002
0000
0000
0000
0000
0000
0000
0000
0000
0000
0000
0000
0000
0000
0000
0003
,
1000
1000
1000
0010
,
1001
0000
0000
0000
,
0100
0000
0020
0000
,
0000
0030
0101
0000
0110
0000
1010
0000
,
0101
0000
0000
0000
0200
0000
0000
0300
,
1000
0000
0200
0000
,
0000
0300
0000
0000
1001
0000
0000
0000
0110
0000
0000
0000
0000
0000
0000
0000
,
0220
0000
0000
0000
,
0000
0000
0000
0000
0000
0000
0000
0000
0000
0000
0000
0000
0000
0000
0000
0330
,
1001
0000
0001
0100
,
0001
0000
1000
0001
,
1000
0000
1000
0001
,
1000
0010
1000
0000
,
1001
0000
1000
0001
,
0100
0000
0001
0100
,
0001
0000
0000
0001
,
0002
0000
0020
0000
,
0133
1000
0001
0010
,
0010
0001
1000
1000
,
0100
0010
0001
0010
,
0010
0010
0001
1000
,
1000
0010
0001
0010
,
0010
0010
0001
1000
,
0001
0010
0010
0001
,
1000
0010
0001
1000
,
0001
1000
0010
0001
,
0110
0000
0000
0000
;
