#TITLE:Variations 2;
#SUBTITLE:;
#ARTIST:Kil;
#TITLETRANSLIT:;
#SUBTITLETRANSLIT:;
#ARTISTTRANSLIT:;
#CREDIT:;
#BANNER:variations 2 bn.PNG;
#BACKGROUND:variations 2 bg.PNG;
#LYRICSPATH:;
#CDTITLE:monst3rjoe - cdtitle.png;
#MUSIC:Variations 2.ogg;
#OFFSET:-6.027;
#SAMPLESTART:70.178;
#SAMPLELENGTH:28.320;
#SELECTABLE:YES;
#DISPLAYBPM:80.000:160.000;
#BPMS:0.000=159.980,96.000=79.990,103.000=159.980,233.000=79.990,241.000=159.980,293.000=80.000,295.000=20.000;
#STOPS:;
#BGCHANGES:;
// cache tags:
#FIRSTBEAT:0.000;
#LASTBEAT:295.250;
#SONGFILENAME:Songs/SSSC Pack 2/Variations 2 - [Nemo and Monst3rjoe]/Variations 2.sm;
#HASMUSIC:1;
#HASBANNER:1;
#MUSICLENGTH:127.523;
// end cache tags

//---------------dance-single - Monst3rjoe----------------
#NOTES:
     dance-single:
     Monst3rjoe:
     Challenge:
     11:
     0.932,1.000,0.008,1.000,1.000,645.000,1.000,182.000,194.000,16.000:



MMM0
0000
0001
0000
0000
0000
0010
0000
MMM0
0000
0001
0100
0000
0100
0000
0000
,
MM0M
0000
0010
0000
0000
0000
1000
0000
M0MM
0000
0100
0010
0000
0010
0000
0000
,
M0MM
0000
0100
0000
0000
0000
1000
0000
MMM0
0000
0001
0100
0000
0100
0000
0000
,
MM0M
0000
0000
0000
0000
0000
0010
0000
0000
0000
0000
0000
0000
0000
0000
0000
0000
0000
1000
0000
0000
0000
0000
0000
0MM0
0000
0000
0000
0000
0000
0001
0000
0000
1000
0000
0000
0001
0000
1000
0000
0001
0000
1000
0000
0001
0000
1000
0000
,
0002
0000
0100
0000
0000
0000
0010
0000
0003
0000
2000
0100
0000
0100
0000
0000
,
3002
0000
0100
0000
0000
0000
0010
0000
0000
0000
2003
0010
0000
0010
0000
0000
,
3002
0000
0100
0000
0000
0000
0010
0000
0000
0000
0023
0001
0000
0100
0000
0000
,
0230
0000
0000
0010
0000
0000
0000
0000
0000
2000
0300
0000
0000
0000
0000
3000
0000
0000
0001
1000
0001
1000
0001
1000
,
0002
0000
0100
0000
0000
0000
0010
0000
0003
0000
2000
0100
0000
0100
0000
0000
,
3002
0000
0100
0000
0000
0000
0010
0000
0000
0000
2003
0010
0000
0010
0000
0000
,
3200
0000
0001
0000
0000
0000
0010
0000
0000
0000
2300
0000
0000
0200
0000
0000
,
0020
0000
0000
0000
0002
3333
0000
0000
,
4100
3000
0100
0000
0000
1000
0001
0000
M0MM
0000
0100
0010
0000
0010
0000
0000
,
0401
0300
0001
0000
0000
0100
0001
0000
0MMM
0000
1000
0100
0000
0100
0000
0000
,
0041
0030
0001
0000
0000
0010
0001
0000
0MMM
0000
1000
0010
0000
0010
0000
0000
,
4010
0000
0000
3000
0000
0000
0010
0000
0000
0000
0000
0000
0000
0000
0000
1000
0000
0000
0001
0000
0000
0000
0000
0000
0MM0
0000
0000
0000
0000
0000
1000
0000
0000
0001
0000
0000
1000
0000
0001
0000
1000
0000
0001
0000
1000
0000
0001
0000
,
2000
3001
0100
0010
1000
0010
0100
0001
1000
0001
2000
3100
0010
0100
1000
0001
,
0200
0301
0100
0010
0100
0001
1000
0010
0100
0001
2000
3100
0010
0100
1000
0001
,
0200
0310
1000
0010
0100
0001
1000
0001
0100
0010
2000
3100
1000
0100
1000
0100
,
0020
0000
0000
0031
0000
0000
0010
0000
0000
0001
0000
0000
0010
0000
0000
0001
0000
0000
2000
0000
0000
0000
0000
0000
0000
0000
0000
0000
0000
0000
3000
0000
0000
0000
0000
0000
0001
0000
1000
0000
0001
0000
1000
0000
0001
0000
1000
0000
,
0002
1003
0010
0100
0001
0100
0010
1000
0001
1000
0002
0013
0100
0010
0001
1000
,
0020
1030
0010
0100
0010
1000
0001
0100
0010
1000
0002
0013
0100
0010
0001
1000
,
0020
0130
0001
0100
0010
1000
0001
1000
0010
0100
0002
0013
0001
2000
3010
1000
,
0002
0000
0003
0000
1001
0000
0000
0000
0001
1000
0000
1000
0001
0000
0010
0000
,
M002
0000
0000
0000
0000
0000
M000
0000
0M00
0000
0000
0000
M000
0000
0000
0000
00M0
0000
M000
0000
0000
0000
0000
0000
M000
0000
0000
0000
0000
0000
M000
0000
0000
0000
0000
0000
M000
0000
0000
0000
0000
0000
M000
0000
0000
0000
0000
0000
M000
0000
0000
0000
0000
0000
M000
0000
0000
0000
0000
0000
M103
0000
0000
0000
0000
0000
M000
0000
0000
0000
0000
0000
M010
0000
0000
0000
0000
0000
M000
0000
0000
0000
0000
0000
M001
0000
0000
0000
0000
0000
M000
0000
0000
0000
0000
0000
M010
0000
0000
0000
0000
0000
M000
0000
0000
0000
0000
0000
M000
0000
0000
0000
0000
0000
M100
0000
0000
0000
0000
0000
M000
0000
0000
0000
0000
0000
M000
0000
0000
0000
0000
0000
M001
0000
0000
0000
0000
0000
M000
0000
0000
0000
0000
0000
M200
0000
0000
0000
0000
0000
M000
0000
0000
0000
0000
0000
M000
0000
0000
0000
0000
0000
M000
0000
0000
0000
0000
0000
M000
0000
0000
0000
0000
0000
M300
0000
0000
0000
0000
0000
M001
0000
0000
0000
0100
0000
M000
0000
0001
0000
0000
0000
,
M200
0000
0000
0000
0000
0000
M000
0000
00M0
0000
0000
0000
M000
0000
0000
0000
000M
0000
M000
0000
0000
0000
0000
0000
M000
0000
0000
0000
0000
0000
M000
0000
0000
0000
0000
0000
M000
0000
0000
0000
0000
0000
M000
0000
0000
0000
0000
0000
M300
0000
0000
0000
0000
0000
M000
0000
0000
0000
0000
0000
M001
0000
0000
0000
0000
0000
M000
0000
0000
0000
0000
0000
M010
0000
0000
0000
0000
0000
M000
0000
0000
0000
0000
0000
M100
0000
0000
0000
0000
0000
M000
0000
0000
0000
0000
0000
M001
0000
0000
0000
0000
0000
M000
0000
0000
0000
0000
0000
M000
0000
0000
0000
0000
0000
M100
0000
0000
0000
0000
0000
M000
0000
0000
0000
0000
0000
M000
0000
0000
0000
0000
0000
M010
0000
0000
0000
0000
0000
M000
0000
0000
0000
0000
0000
0MM2
0000
0000
0000
0000
0000
0000
0000
0000
0000
0000
0000
0000
0000
0000
0000
0000
0000
0000
0000
0000
0000
0000
0000
0000
0000
0000
0000
0000
0000
0000
0000
0000
0000
0000
0000
0000
0000
0000
0000
0000
0000
0000
0000
0000
0000
0000
0000
,
2MM0
0000
0000
0000
0000
0000
0000
0000
0000
0000
0000
0000
0000
0000
0000
0000
0000
0000
0000
0000
0000
0000
0000
0000
0000
0000
0000
0000
0000
0000
0000
0000
0000
0000
0000
0000
0000
0000
0000
0000
0000
0000
3003
0000
0000
0000
0000
0000
0002
0003
0000
0000
0000
0000
0000
0000
0000
0000
0000
0000
0100
0000
0000
0000
0000
0000
0000
0000
0000
0000
0000
0000
0010
0000
0000
0000
0000
0000
0000
0000
0000
0000
0000
0000
1000
0000
0000
0000
0000
0000
0000
0000
0000
0000
0000
0000
0001
0000
0000
0000
0000
0000
0000
0000
0000
0000
0000
0000
1000
0000
0000
0000
0000
0000
0000
0000
0000
0000
0000
0000
0100
0000
0000
0000
0000
0000
0000
0000
0000
0000
0000
0000
1000
0000
0000
0000
0000
0000
0000
0000
0000
0000
0000
0000
0001
0000
0000
0000
0000
0000
0000
0000
0000
0000
0000
0000
0100
0000
0000
0000
0000
0000
0000
0000
0000
0000
0000
0000
0020
0030
0000
0000
0000
0000
0000
0000
0000
0000
0000
0000
1000
0000
0000
0000
0000
0000
0000
0000
0000
0000
0000
0000
,
0002
0003
0000
0000
0000
0000
0000
0000
0000
0000
0000
0000
0100
0000
0000
0000
0000
0000
0000
0000
0000
0000
0000
0000
0020
0030
0000
0000
0000
0000
0000
0000
0000
0000
0000
0000
1000
0000
0000
0000
0000
0000
0000
0000
0000
0000
0000
0000
0002
0003
0000
0000
0000
0000
0000
0000
0000
0000
0000
0000
1000
0000
0000
0000
0000
0000
0000
0000
0000
0000
0000
0000
0100
0000
0000
0000
0000
0000
0000
0000
0000
0000
0000
0000
0020
0030
0000
0000
0000
0000
0000
0000
0000
0000
0000
0000
0001
0000
0000
0000
0000
0000
0000
0000
0000
0000
0000
0000
1000
0000
0000
0000
0000
0000
0000
0000
0000
0000
0000
0000
0200
0300
0000
0000
0000
0000
0000
0000
0000
0000
0000
0000
0010
0000
0000
0000
0000
0000
0000
0000
0000
0000
0000
0000
0002
0003
0000
0000
0000
0000
0000
0000
0000
0000
0000
0000
0010
0000
0000
0000
0000
0000
0000
0000
0000
0000
0000
0000
0100
0000
0000
0000
0000
0000
0000
0000
0000
0000
0000
0000
1000
0000
0000
0000
0000
0000
0000
0000
0000
0000
0000
0000
,
0002
0003
0000
0000
0000
0000
0000
0000
0000
0000
0000
0000
1000
0000
0000
0000
0000
0000
0000
0000
0000
0000
0000
0000
0100
0000
0000
0000
0000
0000
0000
0000
0000
0000
0000
0000
0010
0000
0000
0000
0000
0000
0000
0000
0000
0000
0000
0000
M001
0000
0000
0000
0000
0000
0000
0000
0000
0000
0000
0000
0100
0000
0000
0000
0000
0000
0000
0000
0000
0000
0000
0000
0010
0000
0000
0000
0000
0000
0000
0000
0000
0000
0000
0000
0100
0000
0000
0000
0000
0000
0000
0000
0000
0000
0000
0000
0001
0000
0000
0000
0000
0000
0000
0000
0000
0000
0000
0000
0100
0000
0000
0000
0000
0000
0000
0000
0000
0000
0000
0000
0010
0000
0000
0000
0000
0000
0000
0000
0000
0000
0000
0000
0100
0000
0000
0000
0000
0000
0000
0000
0000
0000
0000
0000
0001
0000
0000
0000
0000
0000
0000
0000
0000
0000
0000
0000
0100
0000
0000
0000
0000
0000
0000
0000
0000
0000
0000
0000
0010
0000
0000
0000
0000
0000
0000
0000
0000
0000
0000
0000
0100
0000
0000
0000
0000
0000
0000
0000
0000
0000
0000
0000
,
0001
0100
0010
1000
010M
0010
0100
1000
0100
0010
0100
1000
0100
0010
0100
1000
,
0100
1000
0100
1000
0000
0000
0002
0000
0000
0010
0000
0000
MMM0
0000
0000
1003
0000
0000
0002
0000
0000
0010
0000
0000
,
MMM0
1003
0020
0100
MM0M
1030
0020
0100
,
MM0M
1030
0200
0010
M0MM
1300
0200
0010
,
M0MM
1300
0002
0100
MMM0
1003
0002
0103
,
0001
0100
0001
0100
0001
0100
0002
0000
0000
0000
0000
0000
0000
0000
0000
0200
0000
0000
0003
0000
0000
0000
0000
0000
,
2000
0300
0002
3000
0000
2000
0003
0000
,
0002
3000
0020
0003
0000
0200
0030
0000
,
0020
0300
2000
0030
0000
0200
3000
0000
,
0020
0000
0000
0000
0000
0000
0000
0000
0000
0000
0000
0000
0000
0000
0000
0000
0000
0000
0000
0000
0000
0000
0000
0000
0300
0000
0000
0000
0000
0000
0000
0000
0000
0000
0000
0000
0000
0000
0000
0000
0000
0000
0000
0000
0000
0000
0000
0000
0032
0003
0000
0000
0000
0000
0000
0000
0000
0000
0000
0000
0000
0000
0000
0000
0000
0000
0000
0000
0000
0000
0000
0000
0100
0000
0000
0000
0000
0000
0000
0000
0000
0000
0000
0000
0010
0000
0000
0000
0000
0000
0000
0000
0000
0000
0000
0000
0000
0000
0000
0000
0000
0000
0000
0000
0000
0000
0000
0000
1000
0000
0000
0000
0000
0000
0000
0000
0000
0000
0000
0000
0200
0000
0300
0000
0000
0000
0000
0000
0000
0000
0000
0000
0000
0000
0000
0000
0000
0000
0000
0000
0000
0000
0000
0000
00M0
0000
0000
0000
0000
0000
0000
0000
0000
0000
0000
0000
000M
0000
0000
0000
0000
0000
0000
0000
0000
0000
0000
0000
1000
0000
0000
0000
0000
0000
0000
0000
0000
0000
0000
0000
0000
0000
0000
0000
0000
0000
0000
0000
0000
0000
0000
0000
,
2000
0000
0000
3000
0000
0000
0000
0000
0000
0000
0000
0000
0000
0000
0000
0000
0000
0000
0000
0000
0000
0000
0000
0000
0000
0000
0000
0000
0000
0000
0000
0000
0000
0000
0000
0000
0000
0000
0000
0000
0000
0000
0000
0000
0000
0000
0000
0000
0200
0300
0000
0000
0000
0000
0000
0000
0000
0000
0000
0000
0000
0000
0000
0000
0000
0000
0000
0000
0000
0000
0000
0000
0010
0000
0000
0000
0000
0000
0000
0000
0000
0000
0000
0000
0001
0000
0000
0000
0000
0000
0000
0000
0000
0000
0000
0000
0000
0000
0000
0000
0000
0000
0000
0000
0000
0000
0000
0000
0100
0000
0000
0000
0000
0000
0000
0000
0000
0000
0000
0000
0020
0000
0030
0000
0000
0000
0000
0000
0000
0000
0000
0000
0000
0000
0000
0000
0000
0000
0000
0000
0000
0000
0000
0000
M000
0000
0000
0000
0000
0000
0000
0000
0000
0000
0000
0000
000M
0000
0000
0000
0000
0000
0000
0000
0000
0000
0000
0000
0100
0000
0000
0000
0000
0000
0000
0000
0000
0000
0000
0000
0000
0000
0000
0000
0000
0000
0000
0000
0000
0000
0000
0000
,
0200
0000
0000
0300
0000
0000
0000
0000
0000
0000
0000
0000
0000
0000
0000
0000
0000
0000
0000
0000
0000
0000
0000
0000
0000
0000
0000
0000
0000
0000
0000
0000
0000
0000
0000
0000
0000
0000
0000
0000
0000
0000
0000
0000
0000
0000
0000
0000
0020
0030
0000
0000
0000
0000
0000
0000
0000
0000
0000
0000
0000
0000
0000
0000
0000
0000
0000
0000
0000
0000
0000
0000
1000
0000
0000
0000
0000
0000
0000
0000
0000
0000
0000
0000
0001
0000
0000
0000
0000
0000
0000
0000
0000
0000
0000
0000
0000
0000
0000
0000
0000
0000
0000
0000
0000
0000
0000
0000
1000
0000
0000
0000
0000
0000
0000
0000
0000
0000
0000
0000
0200
0000
0300
0000
0000
0000
0000
0000
0000
0000
0000
0000
0000
0000
0000
0000
0000
0000
0000
0000
0000
0000
0000
0000
00M0
0000
0000
0000
0000
0000
0000
0000
0000
0000
0000
0000
000M
0000
0000
0000
0000
0000
0000
0000
0000
0000
0000
0000
1000
0000
0000
0000
0000
0000
0000
0000
0000
0000
0000
0000
0000
0000
0000
0000
0000
0000
0000
0000
0000
0000
0000
0000
,
2000
0000
0000
3000
0000
0000
0000
0000
0000
0000
0000
0000
0000
0000
0000
0000
0000
0000
0000
0000
0000
0000
0000
0000
0000
0000
0000
0000
0000
0000
0000
0000
0000
0000
0000
0000
0000
0000
0000
0000
0000
0000
0000
0000
0000
0000
0000
0000
0M02
0003
0000
0000
0000
0000
0000
0000
0000
0000
0000
0000
M0M0
0000
0000
0000
0000
0000
0000
0000
0000
0000
0000
0000
00M0
0000
0000
0000
0000
0000
0000
0000
0000
0000
0000
0000
0M00
0000
0000
0000
0000
0000
0000
0000
0000
0000
0000
0000
0M00
0000
0000
0000
0000
0000
0000
0000
0000
0000
0000
0000
0000
0000
0000
0000
0000
0000
0000
0000
0000
0000
0000
0000
2000
0000
3000
0000
0000
0000
0000
0000
0000
0000
0000
0000
0M00
0000
0000
0000
0000
0000
0000
0000
0000
0000
0000
0000
0000
0000
0000
0000
0000
0000
0000
0000
0000
0000
0000
0000
0001
0000
0000
0000
0000
0000
0000
0000
0000
0000
0000
0000
1000
0000
0000
0000
0000
0000
0000
0000
0000
0000
0000
0000
0100
0000
0000
0000
0000
0000
0000
0000
0000
0000
0000
0000
,
0010
0001
1000
0000
0020
0000
0000
0000
0000
0000
0230
0000
0000
0000
0000
0000
,
0320
0000
0000
0000
2030
0000
0000
3200
0000
0000
0320
0000
0032
0010
0003
0020
,
0031
0200
2300
0000
0000
3002
0000
0000
,
2003
0000
0000
0000
0002
3000
0000
2000
0000
0003
3200
0000
0320
0100
0030
0100
,
0001
0000
0000
0000
0200
0000
0000
0002
0000
0000
1000
0000
2000
0000
0000
0000
,
3303
0000
0000
0000
0002
0000
0000
0200
0000
0000
0010
0000
0020
1000
0000
1030
,
0313
0000
0000
0000
0002
0000
0000
0020
0000
0003
0002
0030
0020
0000
0003
0002
,
0030
0000
0203
0000
0020
0000
0300
2000
0030
0000
3002
0000
0103
0001
0010
0100
,
1000
0100
0010
0001
M200
0000
0000
0000
0000
0000
M320
0000
0000
0000
0000
0000
,
M230
0000
0000
0000
M302
0000
0000
M023
0000
0000
023M
0000
230M
0100
3000
020M
,
1300
002M
0M32
0000
0000
2M03
0000
0000
,
3M02
0000
0000
0000
2M00
0003
0000
0M02
0000
3000
M023
0000
M230
0010
0300
0010
,
1000
0000
0000
0000
02M0
0000
0000
20M0
0000
0000
00M1
0000
00M2
0000
0000
0000
,
3303
0000
0000
0000
200M
0000
0000
020M
0000
0000
001M
0000
0020
0001
0000
0031
,
3310
0000
0000
0000
200M
0000
0000
320M
0000
0000
0310
0000
0001
0000
0001
0000
,
0100
1000
0001
0010
1000
0100
0001
1000
,
0010
0000
0000
0000
0001
0000
0000
0000
2MM0
0000
0000
0002
0000
0000
3003
0000
0000
1000
0100
0010
0100
0010
0001
0010
0002
0000
0000
2000
0000
0000
3003
0000
,
0000
0001
0100
0010
0100
0010
1000
0010
2000
0000
0000
3200
0000
0000
0320
0000
2030
0000
0000
3020
0000
0000
0230
0000
2300
0000
0000
3002
0000
0000
0203
0000
,
0302
0000
0000
0000
0000
0000
1000
0000
0000
0000
0000
0000
0003
0000
0000
0000
0000
0000
1000
0000
0000
0000
0000
0000
0001
0000
0000
0000
0000
0000
0000
0000
0000
0000
0000
0000
1000
0000
0000
0000
0001
0000
0000
0000
1000
0000
0000
0000
0MM2
0000
0000
0000
0000
0000
0000
0000
0000
0000
0000
0000
0000
0000
0000
0000
0000
0000
0000
0000
0000
0000
0000
0000
0000
0000
0000
0000
0000
0000
0000
0000
0000
0000
0000
0000
2000
0000
0000
0000
0000
0000
0000
0000
0000
0000
0000
0000
0000
0000
0000
0000
0000
0000
0000
0000
0000
0000
0000
0000
0000
0000
0000
0000
0000
0000
0000
0000
0000
0000
0000
0000
0000
0000
0000
0000
0000
0000
0000
0000
0000
0000
0000
0000
3003
0000
0000
0000
0000
0000
0000
0000
0000
0000
0000
0000
0000
0000
0000
0000
0000
0000
0000
0000
0000
0000
0000
0000
0001
0000
0000
0000
0000
0000
0000
0000
0000
0000
0000
0000
0010
0000
0000
0000
0000
0000
0000
0000
0000
0000
0000
0000
0100
0000
0000
0000
0000
0000
0000
0000
0000
0000
0000
0000
,
0010
0100
1000
0100
2000
0000
0000
0002
0000
0000
0000
3003
0000
1000
0010
0100
,
0010
0100
0001
0100
0002
0000
0000
0023
0000
0000
0230
0000
0302
0000
0000
0203
,
0000
0000
0320
0000
0032
0000
0000
2003
0000
0000
3020
0000
1M30
0001
0000
0M01
,
1000
0000
0000
0000
0000
0000
0M01
0000
1000
0000
0001
0000
2000
0000
0000
0000
0000
0000
0000
0000
0000
0002
0000
0000
0000
0000
0000
0000
0000
0000
0000
0000
0000
3003
0000
0000
0000
0000
0000
1000
0000
0000
0010
0000
0000
0100
0000
0000
,
0010
0100
0001
1000
0002
0000
0000
2000
0000
0000
0000
3003
0000
0001
0010
0100
,
0010
0100
1000
0001
2000
0000
0000
3020
0000
0000
0230
0000
2300
0000
0000
3200
,
0000
0000
0320
0000
2030
0000
0000
3002
0000
0000
0203
0000
03M1
1000
0000
10M0
,
0001
0000
0000
0000
0000
0000
10M0
0000
0001
0000
1000
0000
0001
0000
0000
1000
0000
0000
0100
0000
0000
0020
0000
0000
0000
0000
0000
2030
0000
0000
0000
0000
0000
3010
0000
0000
0001
0000
0000
0100
0000
0000
0010
0000
0000
1000
0000
0000
,
0001
0010
0100
1000
0001
0010
0100
M010
0001
M010
0100
1000
0001
0010
0001
0100
,
0010
0100
0001
1000
020M
0000
0000
032M
0000
0000
M032
0000
M203
0000
0000
032M
,
0000
0000
0000
0000
0000
0000
203M
0000
0000
0000
0000
0000
30M1
0000
0000
1000
0000
0000
0100
0000
0000
10M0
0000
0000
0001
0000
0000
0100
0000
0000
00M1
0000
1000
0000
0001
0000
10M0
0000
0000
0001
0000
0000
1000
0000
0000
01M0
0000
0000
,
1000
0000
0000
0001
0000
0000
10M0
0000
0001
0000
1000
0000
00M1
0000
0000
1000
0000
0000
0001
0000
0000
01M0
0000
0000
0001
0000
0000
1000
0000
0000
00M1
0000
1000
0000
0001
0000
10M0
0000
0000
0001
0000
0000
0100
0000
0000
00M1
0000
0000
,
1000
0000
0000
0001
0000
0000
10M0
0000
0001
0000
1000
0000
00M2
0000
0000
0000
0000
0000
0000
0000
0000
0000
0000
0000
0000
0000
0000
0000
0000
0000
0000
0000
0000
0000
0000
0000
M003
0M00
00M0
000M
0000
0000
0000
0000
0000
0000
0000
0000
;
