#TITLE:Metallica One SOLO;
#SUBTITLE:;
#ARTIST:Unknown artist;
#TITLETRANSLIT:;
#SUBTITLETRANSLIT:;
#ARTISTTRANSLIT:;
#CREDIT:;
#BANNER:;
#BACKGROUND:;
#LYRICSPATH:;
#CDTITLE:;
#MUSIC:Metallica One SOLO.MP3;
#OFFSET:0.000;
#SAMPLESTART:19.172;
#SAMPLELENGTH:12.000;
#SELECTABLE:YES;
#BPMS:0.000=312.960;
#STOPS:;
#BGCHANGES:;
// cache tags:
#FIRSTBEAT:49.667;
#LASTBEAT:442.500;
#SONGFILENAME:Songs/toune 1 (2010)/Metallica One SOLO/Metallica One SOLO.sm;
#HASMUSIC:1;
#HASBANNER:0;
#MUSICLENGTH:85.133;
// end cache tags

//---------------dance-single - ----------------
#NOTES:
     dance-single:
     :
     Challenge:
     13:
     1.000,1.000,0.764,1.000,1.000,579.000,65.000,225.000,0.000,0.000:
0000
0000
0000
0000
,
0000
0000
0000
0000
,
0000
0000
0000
0000
,
0000
0000
0000
0000
,
0000
0000
0000
0000
,
0000
0000
0000
0000
,
0000
0000
0000
0000
,
0000
0000
0000
0000
,
0000
0000
0000
0000
,
0000
0000
0000
0000
,
0000
0000
0000
0000
,
0000
0000
0000
0000
,
0000
0000
0000
0000
0000
1000
0000
0100
1000
0010
0100
1000
,
0010
0100
1000
0010
0100
1000
0010
0100
1000
0010
0100
0001
,
1000
0010
0001
0100
0010
0001
0100
0010
0001
0100
0010
0001
,
0100
1000
0010
0100
1000
0010
0100
1000
0010
0100
1000
0010
,
0100
1000
0010
0100
1000
0010
0100
1001
0010
0100
1001
0010
,
0100
1001
0010
0100
1001
0010
0100
1001
0010
0100
1001
0010
,
0100
1000
0010
0100
1000
0010
0100
1000
0010
0100
1000
0010
,
0100
1000
0010
0100
1000
0010
0100
0001
0010
0100
0001
0010
,
0100
0001
0010
0100
0001
0010
0100
0001
0010
0000
0001
0000
,
0002
0000
0003
0020
0000
0000
2030
0000
0000
3200
0000
0000
,
0320
0000
0230
0000
0000
0302
0000
2003
0000
0000
3020
0000
,
0230
0000
0320
0000
0030
0000
0100
0000
1000
0000
0100
0000
,
1000
0000
0100
0000
0010
0000
0001
0000
0010
0000
0001
0000
,
0010
0000
0100
0000
0010
0000
0100
0000
0010
0000
0001
0000
,
0010
0000
0001
0000
0022
0000
0000
0000
0000
0000
0000
0000
,
0000
0000
0033
0022
0000
0000
0033
0022
0000
0000
0000
0000
,
0000
0000
0000
0033
0000
0000
0000
0000
0000
0000
0001
0000
,
1000
0000
0001
0000
1000
0000
0001
0000
1000
0000
0001
0000
,
1000
0000
0100
0000
0010
0000
0100
0000
0010
0000
0100
0000
,
0010
0000
0001
0000
0010
0000
0001
0000
0010
0000
0001
0000
,
0010
0000
0100
0000
1000
0000
0100
0000
1000
0000
0100
0000
,
1000
0000
0000
0000
0100
0000
0000
0000
0000
0010
0000
0000
0001
0000
0000
0010
0000
0000
0001
0000
0000
0010
0000
0000
,
0001
0010
0001
0010
0001
0010
0001
0010
,
0001
0010
0001
0010
0001
0010
0001
0010
,
0001
0000
0000
0010
0000
0000
0001
0000
2200
0000
3300
0000
2200
0000
3300
0000
2200
0000
3300
0000
2200
0000
3300
0000
,
2200
3300
0220
0330
0220
0330
0220
0330
0220
0330
0022
0033
,
0022
0033
0022
0033
0022
0033
0220
0330
0220
0330
0220
0330
,
0220
0330
0000
2000
0000
3002
0000
0203
0000
0000
0000
0000
,
0320
0000
2030
3002
0000
0000
0000
0000
0203
0000
0320
0000
,
2030
0000
0000
0000
3002
0000
0203
0000
0320
0000
0000
0000
,
0000
0032
2003
0000
3020
0000
0000
0000
0000
0032
0000
0203
,
0000
0320
0000
0002
0033
0022
0033
0022
0033
0022
0033
0022
,
0033
0022
0033
0022
0033
0022
0000
0000
0000
0000
0000
0000
,
0000
0000
0000
0000
0000
0000
0000
0000
0033
0000
0020
0000
,
0000
2030
0000
0000
3002
0000
0000
0203
0000
0000
0320
0000
,
0000
0030
0020
0000
0030
0020
0000
0030
0020
0000
0000
0000
,
2030
0000
0000
0000
0000
0000
0000
0000
0000
0000
0000
0000
0000
0000
0000
0000
3000
0000
0000
0000
0000
0000
0000
0000
0000
0000
0000
0000
0000
0000
0000
0000
2000
0000
0000
0000
0000
0000
0000
0000
0000
0000
0000
0000
0000
0000
0000
0000
3200
0000
0000
0000
0000
0000
0000
0000
0000
0300
0000
0000
0000
0000
0000
0000
2000
0000
0000
0000
0000
0000
0000
0000
0000
0000
0000
0000
0000
0000
0000
0000
0000
0000
0000
0000
0000
0000
0000
0000
0000
0000
0000
0000
0000
0000
0000
0000
0000
0000
0000
0000
0000
0000
0000
0000
0000
0000
0000
0000
0000
0000
0000
0000
0000
0000
0000
0000
0000
0000
0000
0000
0000
0000
0000
0000
0000
0000
0000
0000
0000
0000
0000
0000
0000
0000
0000
0000
0000
0000
0000
0000
0000
0000
0000
0000
0000
0000
0000
0000
0000
0000
0000
0000
0000
0000
0000
0000
0000
0000
0000
0000
0000
0000
0000
0000
0000
0000
0000
0000
0000
0000
0000
0000
0000
0000
0000
0000
3000
0000
0000
0000
0000
0000
0000
0000
0000
0000
0000
0000
0000
0000
0000
0000
,
0000
0000
1001
0000
1001
0000
1001
0000
0000
0000
1001
0000
,
1001
0000
1001
0000
0000
0000
1001
0000
1001
0000
1001
0000
,
0000
0000
1001
0000
1001
0000
1001
0000
0000
0000
2000
0000
,
0000
0000
0000
3020
0000
0000
0000
0230
0000
0000
0000
0302
,
0000
0000
0000
2003
0000
0000
0000
3020
0000
0000
0000
0000
,
0230
0000
0000
0000
0302
0000
0000
0000
0003
0000
1001
0000
,
1001
0000
1001
0000
0000
0000
1001
0000
1001
0000
1001
0000
,
0000
0000
1001
0000
1001
0000
1001
0000
0000
0000
1001
0000
,
1001
0000
1001
0000
0000
2000
0000
3200
0320
0000
0032
0003
,
0200
0302
0000
0000
0023
0000
2030
0000
3002
0000
0203
0000
,
0000
0320
0000
2030
0000
3002
0000
0203
0320
0000
0000
0000
,
0030
0000
1000
0001
1000
0001
1000
0001
,
1000
0001
1000
0001
1000
0001
1000
0001
,
1000
0000
0000
0001
0000
0000
1000
0000
0000
0001
0000
0000
1000
0000
0000
0001
0000
0000
1000
0000
0000
0000
0010
0000
,
0100
0000
0000
0000
0000
0000
1000
0000
0000
0000
0000
0000
0010
0000
0000
0000
0100
0000
0000
0000
0000
0100
0000
0000
0000
0000
0000
0000
0010
0000
0000
0000
0100
0000
0000
0000
0000
0000
0000
0010
0000
0000
0000
0000
0010
0000
0000
0000
,
0100
0000
0000
0001
0000
0000
0010
0000
0100
0000
0000
0000
0010
0000
0000
0000
0010
0000
0100
0000
0000
0100
0000
0000
,
0010
0000
0000
0000
0100
0000
0000
0000
0000
0000
0000
0000
1000
0000
0000
0000
0000
0000
0000
0000
0010
0000
0000
0000
0100
0000
0000
0000
0000
0000
0100
0000
0000
0000
0000
0000
0010
0000
0000
0000
0100
0000
0000
0000
0000
0010
0000
0000
,
0000
0000
0000
0000
0010
0000
0000
0000
0100
0000
0000
0000
0000
0000
0000
0001
0000
0000
0000
0000
0000
0000
0000
0000
0010
0000
0000
0000
0100
0000
0000
0000
0000
0000
0000
0000
0010
0000
0000
0000
0000
0000
0000
0000
0010
0000
0000
0000
,
0100
0000
0000
0100
0000
0000
0100
0000
0010
0000
0000
0000
1000
0000
0000
0000
0100
0000
0010
0000
0000
0100
0000
0000
,
0100
0000
0000
0000
0010
0000
0000
0000
0000
0010
0000
0000
0000
0000
0000
0000
0010
0000
0000
0000
0100
0000
0000
0000
0000
0000
0000
0001
0000
0000
0000
0000
0000
0000
0000
0000
0010
0000
0000
0000
0100
0000
0000
0000
0000
0000
0000
0000
,
1000
0000
0000
0000
0000
0000
0000
0000
0100
0000
0000
0000
0010
0000
0000
0000
0000
0000
0000
0000
0000
0001
0000
0000
0000
0000
0000
0000
0010
0000
0000
0000
0000
0000
0000
0000
0100
0000
0000
0000
0000
0000
0000
0000
0000
1000
0000
0000
,
0000
0000
0000
0000
0100
0000
0000
0000
0000
0000
0000
0000
0010
0000
0000
0000
0000
0000
0000
0000
0000
0001
0000
0000
0000
0000
0000
0000
0010
0000
0000
0000
0000
0000
0000
0000
0100
0000
0000
0000
0000
0000
0000
0000
0000
1000
0000
0000
,
0000
0000
0000
0000
0100
0000
0000
0000
0000
0000
0000
0000
0010
0000
0000
0000
0000
0000
0000
0000
0000
0001
0000
0000
0000
0000
0000
0000
0010
0000
0000
0000
0000
0000
0000
0000
0100
0000
0000
0000
0000
0000
0000
0000
0000
1000
0000
0000
,
0000
0000
0000
0000
0100
0000
0000
0000
0000
0000
0000
0000
0010
0000
0000
0000
0000
0000
0000
0000
0000
0001
0000
0000
0000
0000
0000
0000
0010
0000
0000
0000
0000
0000
0000
0000
0100
0000
0000
0000
0000
0000
0000
0000
0000
1000
0000
0000
,
0000
0000
0000
0000
0100
0000
0000
0000
0000
0000
0000
0000
0010
0000
0000
0000
0000
0000
0000
0000
0000
0001
0000
0000
0000
0000
0000
0000
0010
0000
0000
0000
0000
0000
0000
0000
0100
0000
0000
0000
0000
0000
0000
0000
0000
1000
0000
0000
,
0000
0000
0000
0000
0100
0000
0000
0000
0000
0000
0000
0000
0010
0000
0000
0000
0000
0000
0000
0000
0000
0001
0000
0000
0000
0000
0000
0000
0000
0000
0001
0000
0000
0000
0000
0000
1000
0000
0000
0000
0000
0000
0001
0000
0000
0000
0000
0000
,
1000
0001
1000
0001
1000
0001
1000
0001
,
1000
0001
1000
0001
1000
0001
1000
0001
,
1000
0000
0000
0000
2000
0000
3020
0000
0000
0000
0230
0000
,
0000
0000
0302
0000
0000
0000
2003
0000
3020
0000
0230
0000
,
0000
0300
0002
0000
0000
0003
2000
0000
3020
0030
0020
0000
,
0000
0000
0030
0020
0000
2030
0000
3002
0000
0000
0000
0023
,
0030
0020
0030
0020
0000
0000
0000
2030
0000
0000
3002
0000
,
0000
2003
0000
0000
0000
3002
0000
0203
0000
0302
0000
0000
,
0000
2003
0000
3020
0000
2030
0000
0000
0000
3002
0000
0000
,
0203
0000
0000
0320
2030
0000
0000
0000
3002
0000
0000
0000
,
0203
0000
0320
0000
2030
0000
0000
0000
3002
0000
0203
0000
,
0000
0320
0000
0000
2030
0000
0000
0000
0000
3002
0000
0203
,
0000
0000
0000
0320
0000
2030
0000
3002
0000
0000
0000
0203
,
0000
0320
0000
2030
0000
0000
3002
0000
0000
0203
0320
0000
,
0000
0000
0000
0032
0000
2003
0000
0000
3020
0000
0000
0000
,
0230
0000
2300
0000
0000
3002
0000
0000
0000
0203
0000
0320
,
2030
0000
0000
0000
3002
0000
0203
0000
0320
0000
0000
0000
,
2030
0000
3002
0000
0203
0000
0000
0000
0000
0320
0000
0000
,
2030
0000
3002
0000
0000
0000
0203
0000
2300
0000
3020
0230
,
0000
0000
0000
0302
0000
2003
0000
3020
0000
0000
0000
0230
,
0000
0000
0000
0302
0000
2003
0000
3020
0000
0000
0000
0230
,
0000
0000
0000
0000
0302
0003
0002
0000
0000
0023
0000
0000
,
0000
0000
2030
0000
3002
0000
0203
0000
0000
0000
0320
0000
,
2030
0000
3002
0000
0000
0000
0203
0000
0000
2300
0000
3002
,
0000
0000
0000
0203
0320
0000
0000
2030
0000
0000
0000
3002
,
0000
0203
0000
0320
0000
0000
0000
2030
0000
3002
0000
0000
,
0203
0000
0000
0000
0320
0000
2030
0000
3002
0000
0000
0000
,
0000
0000
0203
0000
0000
0000
0320
0000
0000
0000
2030
0000
0000
0000
0000
0000
3000
0000
1000
0000
0000
0001
0000
0000
,
1000
0001
1000
1001
1000
0001
1000
0001
,
1001
1000
0001
1000
0001
1001
0001
1000
,
0001
1000
0001
1001
1000
0001
1000
0001
,
1000
0001
1001
1000
0001
1000
0001
1000
,
0001
1000
0001
1000
0001
1000
0001
1000
,
0001
1000
0001
1000
0001
1000
0001
1000
,
0001
1000
0001
1000
0001
1001
1001
1001
,
1000
0001
1000
0001
1000
0001
0000
0000
;
