#TITLE:Epic Manner;
#SUBTITLE:;
#ARTIST:X Kirby;
#TITLETRANSLIT:;
#SUBTITLETRANSLIT:;
#ARTISTTRANSLIT:;
#CREDIT:Zaia;
#BANNER:../Banner.png;
#BACKGROUND:../bg.png;
#LYRICSPATH:;
#CDTITLE:;
#MUSIC:Epic Manner.ogg;
#OFFSET:0.012;
#SAMPLESTART:56.300;
#SAMPLELENGTH:22.780;
#SELECTABLE:YES;
#BPMS:0.000=170.000;
#STOPS:;
#BGCHANGES:;
// cache tags:
#FIRSTBEAT:32.000;
#LASTBEAT:447.750;
#SONGFILENAME:Songs/Tachyon Epsilon/Epic Manner - [Zaia]/Epic Manner.sm;
#HASMUSIC:1;
#HASBANNER:1;
#MUSICLENGTH:158.111;
// end cache tags

//---------------dance-single - Zaia----------------
#NOTES:
     dance-single:
     Zaia:
     Challenge:
     24:
     1.000,1.000,0.000,0.196,1.000,2174.000,0.000,31.000,0.000,0.000:
















0000
0000
0000
0000
,
0000
0000
0000
0000
,
0000
0000
0000
0000
,
0000
0000
0000
0000
,
0000
0000
0000
0000
,
0000
0000
0000
0000
,
0000
0000
0000
0000
,
0000
0000
0000
0000
,
1000
0001
0010
0100
1000
0001
0100
0001
0010
0001
1000
0100
1000
0001
0010
0100
1000
0001
1000
0010
0100
0001
1000
0001
,
0010
0100
1000
0001
1000
0010
0100
0001
0010
0100
1000
0001
0010
0001
1000
0010
1000
0100
1000
0001
0010
0001
1000
0010
,
1000
0100
0010
0100
1000
0001
0010
0001
1000
0010
0100
0001
1000
0001
0010
0100
1000
0001
0010
0001
0100
0010
0100
0001
,
1000
0100
0010
0001
1000
0001
0100
0010
1000
0001
0100
0001
1000
0100
1000
0010
0100
0001
1000
0100
0010
0001
1000
0001
,
0100
0010
1000
0001
1000
0100
0010
0001
0100
0001
1000
0001
0010
0100
1000
0010
1000
0001
0100
0001
1000
0001
1000
0100
,
1000
0010
0100
0001
1000
0001
0010
0100
1000
0001
0100
0001
0010
0100
1000
0001
0100
0010
1000
0001
1000
0001
0010
0001
,
1000
0010
1000
0100
1000
0001
0100
0010
1000
0001
0100
0001
0010
0001
1000
0100
1000
0010
0100
0001
1000
0001
1000
0010
,
1000
0100
0010
0001
1000
0001
0100
0010
1000
0001
0100
0001
0010
0001
1000
0010
0100
0010
1000
0001
1000
0001
0100
0001
,
0010
0100
0010
0100
1000
0100
1000
0100
0010
0001
1000
0001
0100
0010
0100
0001
,
0010
0100
0010
0100
0010
0001
0010
0001
1000
0010
1000
0001
1000
0100
0010
0100
,
1000
0010
0100
0001
1000
0100
0010
0001
1000
0010
0100
0010
1000
0001
0010
0100
,
0010
0000
0000
0001
0000
0000
1000
0000
0000
0001
0000
0000
0100
0000
0000
0010
0000
0000
1000
0000
0000
0001
0000
0000
1000
0000
0000
0100
0000
0000
0010
0000
0000
0100
0000
0000
1000
0000
0001
0000
0100
0000
0010
0000
1000
0000
0001
0000
,
0010
0100
1000
0001
0100
0010
1000
0001
0010
0100
1000
0001
0100
0010
1000
0001
,
0010
0100
1000
0001
1000
0010
0100
0001
1000
0001
1000
0100
0010
0001
1000
0001
1000
0010
0100
0001
1000
0100
0010
0001
,
1000
0010
1000
0001
1000
0100
1000
0001
0010
0001
1000
0001
0100
0010
1000
0001
1000
0100
1000
0001
0100
0001
1000
0001
,
0010
0100
1000
0001
1000
0010
0100
0001
0100
0010
1000
0001
0200
0000
0000
0302
0000
0000
2003
0000
0000
3000
0000
0000
,
0002
0000
0203
0320
0000
0000
2030
0000
,
3002
0000
0000
0000
0023
0000
0430
0000
0300
0000
2000
3000
0002
0003
0200
0300
,
0020
0000
2030
3002
0000
0000
0023
0000
,
0230
0300
2000
3000
0020
0030
0200
0000
0000
0000
0000
0000
0302
0000
0003
0000
,
1000
0100
0010
0001
0100
0010
1000
0000
0200
0300
0020
0030
0002
0003
2000
3000
,
0010
0000
0100
0000
0001
0000
1000
0000
0100
0000
1000
0000
0001
0000
0100
0000
0001
0000
1000
0000
0000
0000
0000
0000
0200
0000
0000
0300
0000
0000
0020
0000
0000
0030
0000
0000
0002
0000
0000
0003
0000
0000
2000
0000
0000
3000
0000
0000
,
0040
0030
0000
0000
0400
0300
0000
0000
0004
0003
0000
0000
4000
3000
0000
0000
,
0200
0000
0000
0000
2300
0000
0000
3000
,
0001
1000
0010
0100
0001
1000
0100
1000
0010
1000
0001
0100
0001
1000
0010
0100
0001
1000
0001
0010
0100
1000
0001
1000
,
0010
0100
0001
1000
0001
0010
0100
1000
0010
0100
0001
1000
0010
1000
0001
0010
0001
0100
0001
1000
0010
1000
0001
0010
,
0001
0100
0010
0100
0001
1000
0010
1000
0001
0010
0100
1000
0001
1000
0010
0100
0001
1000
0010
1000
0100
0010
0100
1000
,
0001
0100
0010
1000
0001
1000
0100
0010
0001
1000
0100
1000
0001
0100
0001
0010
0100
1000
0001
0100
0010
1000
0001
1000
,
0100
0010
0001
1000
0001
0100
0010
1000
0100
1000
0001
1000
0010
0100
0001
0010
0001
1000
0100
1000
0001
1000
0001
0100
,
0001
0010
0100
1000
0001
1000
0010
0100
0001
1000
0100
1000
0010
0100
0001
1000
0100
0010
0001
1000
0001
1000
0010
1000
,
0001
0010
0001
0100
0001
1000
0100
0010
0001
1000
0100
1000
0010
1000
0001
0100
0001
0010
0100
1000
0001
1000
0001
0010
,
0001
0100
0010
1000
0001
1000
0100
0010
0001
1000
0100
1000
0010
1000
0001
0010
0100
0010
0001
1000
0001
1000
0010
0100
,
0001
1000
0100
0010
0001
1000
0010
1000
0100
1000
0001
0010
0001
1000
0100
0010
0001
1000
0001
0100
0010
1000
0001
1000
,
0100
0010
0001
1000
0001
0100
0010
1000
0100
0010
0001
1000
0100
1000
0001
0100
0001
0010
0001
1000
0100
1000
0001
0100
,
0001
0010
0100
0010
0001
1000
0100
1000
0001
0100
0010
1000
0001
1000
0100
0010
0001
1000
0100
1000
0010
0100
0010
1000
,
0001
0010
0100
1000
0001
1000
0010
0100
0001
1000
0010
1000
0001
0010
0001
0100
0010
1000
0001
0010
0100
1000
0001
1000
,
0010
0100
0001
1000
0001
0010
0100
1000
0010
1000
0001
1000
0100
0010
0001
0100
0001
1000
0010
1000
0001
1000
0001
0010
,
0001
0100
0010
1000
0001
1000
0100
0010
0001
1000
0010
1000
0100
0010
0001
1000
0010
0100
0001
1000
0001
1000
0100
1000
,
0001
0100
0001
0010
0001
1000
0010
0100
0001
1000
0010
1000
0100
1000
0001
0010
0001
0100
0010
1000
0001
1000
0001
0100
,
0001
0010
0100
1000
0001
1000
0010
0100
0001
1000
0010
1000
0100
1000
0001
0100
0010
0100
0001
1000
0001
1000
0100
0010
,
0001
1000
0100
1000
0001
0010
0001
1000
0010
0100
0001
1000
0100
1000
0001
0010
0001
1000
0010
0100
0001
0010
0100
1000
,
0001
0100
0001
1000
0010
1000
0001
0010
0100
1000
0001
1000
0010
0100
0001
1000
0001
0010
0100
1000
0001
0100
0001
1000
,
0010
1000
0001
0100
0010
1000
0001
0100
0001
1000
0100
0010
0001
1000
0001
0010
0100
1000
0001
0100
0010
1000
0001
0010
,
0001
0100
0001
1000
0100
1000
0001
0010
0001
1000
0010
0100
0010
1000
0001
0100
0001
1000
0010
0100
0001
1000
0010
1000
,
0100
1000
0001
0010
0001
1000
0010
0100
0001
0100
0010
1000
0001
1000
0100
0010
0001
1000
0001
0100
0001
1000
0100
1000
,
0001
0100
0001
0010
0001
1000
0010
0100
0010
1000
0001
1000
0100
0010
0001
1000
0100
1000
0001
0100
0010
1000
0001
0100
,
0001
0010
0001
1000
0100
1000
0001
0100
0001
1000
0100
0010
0001
1000
0100
0010
0100
1000
0001
0100
0001
1000
0010
1000
,
0100
1000
0001
0010
0100
1000
0001
0100
0001
1000
0100
0010
0001
1000
0001
0100
0010
1000
0001
0010
0100
1000
0001
1000
,
0010
0100
0001
1000
0001
0010
0001
1000
0010
0100
0001
1000
0100
1000
0001
0010
0001
1000
0010
0100
0001
0010
0100
1000
,
0001
0100
0001
1000
0010
1000
0001
0010
0100
1000
0001
1000
0010
0100
0001
1000
0001
0010
0100
1000
0001
0100
0001
1000
,
0010
1000
0001
0100
0010
1000
0001
0100
0001
1000
0100
0010
0001
1000
0001
0010
0100
1000
0001
0100
0010
1000
0001
0010
,
0001
0100
0001
1000
0100
1000
0001
0010
0001
1000
0010
0100
0010
1000
0001
0100
0001
1000
0010
0100
0001
1000
0010
1000
,
0100
1000
0001
0010
0001
1000
0010
0100
0001
0100
0010
1000
0001
1000
0100
0010
0001
1000
0001
0100
0001
1000
0100
1000
,
0001
0100
0001
0010
0001
1000
0010
0100
0010
1000
0001
1000
0100
0010
0001
1000
0100
1000
0001
0100
0010
1000
0001
0100
,
0001
0010
0001
1000
0100
1000
0001
0100
0001
1000
0100
0010
0001
1000
0100
0010
0100
1000
0001
0100
0001
1000
0010
1000
,
0100
1000
0001
0010
0100
1000
0001
0100
0001
1000
0100
0010
0001
1000
0001
0100
0010
1000
0001
0010
0100
1000
0001
1000
,
0010
0100
0001
1000
0010
1000
0100
1000
0001
0010
0100
1000
0001
0010
0001
0100
0001
1000
0010
0100
0001
1000
0100
0010
,
0001
0100
0010
1000
0001
0100
0001
0010
0001
1000
0100
0010
0001
1000
0100
1000
0010
1000
0001
0100
0010
1000
0001
0010
,
0100
1000
0001
0010
0001
0100
0001
1000
0010
0100
0001
1000
0010
1000
0100
1000
0001
0010
0100
1000
0001
0100
0010
1000
,
0100
0010
0001
1000
0100
1000
0010
1000
0001
0100
0010
1000
0001
0100
0001
0010
0001
1000
0100
0010
0001
1000
0010
1000
,
0100
0010
0001
1000
0100
1000
0010
1000
0001
0100
0010
1000
0001
0100
0001
0010
0001
1000
0100
0010
0001
1000
0010
0100
,
0001
0010
0100
1000
0001
0010
0001
0100
0001
1000
0010
0100
0001
1000
0010
1000
0100
1000
0001
0010
0100
1000
0001
0100
,
0010
1000
0001
0100
0001
0010
0001
1000
0100
0010
0001
1000
0100
1000
0010
1000
0001
0100
0010
1000
0001
0010
0100
1000
,
0010
0100
0001
1000
0010
1000
0100
1000
0001
0010
0100
1000
0001
0010
0001
0100
0001
1000
0010
0100
0001
1000
0100
1000
,
0010
0100
0001
1000
0010
1000
0100
1000
0001
0010
0100
1000
0001
0010
0001
0100
0001
1000
0010
0100
0001
1000
0100
0010
,
0001
0100
0010
1000
0001
0100
0001
0010
0001
1000
0100
0010
0001
1000
0100
1000
0010
1000
0001
0100
0010
1000
0001
0010
,
0100
1000
0001
0010
0001
0100
0001
1000
0010
0100
0001
1000
0010
1000
0100
1000
0001
0010
0100
1000
0001
0100
0010
1000
,
0100
0010
0001
1000
0100
1000
0010
1000
0001
0100
0010
1000
0001
0100
0001
0010
0001
1000
0100
0010
0001
1000
0010
1000
,
0100
0010
0001
1000
0100
1000
0010
1000
0001
0100
0010
1000
0001
0100
0001
0010
0001
1000
0100
0010
0001
1000
0010
0100
,
0001
0010
0100
1000
0001
0010
0001
0100
0001
1000
0010
0100
0001
1000
0010
1000
0100
1000
0001
0010
0100
1000
0001
0100
,
0010
1000
0001
0100
0001
0010
0001
1000
0100
0010
0001
1000
0100
1000
0010
1000
0001
0100
0010
1000
0001
0010
0100
1000
,
0010
0100
0001
1000
0010
1000
0100
1000
0001
0010
0100
1000
0001
0010
0001
0100
0001
1000
0010
0100
0001
1000
0100
1000
,
0001
0100
0001
1000
0001
0010
0100
1000
0001
1000
0001
0100
0010
1000
0100
1000
0001
0100
0010
1000
0100
1000
0010
1000
,
0001
0010
0001
1000
0001
0100
0010
1000
0001
1000
0001
0010
0100
1000
0010
1000
0001
0010
0100
1000
0010
1000
0001
0100
,
0001
1000
0010
1000
0001
1000
0100
0010
0001
1000
0001
1000
0010
0100
0001
0010
0001
1000
0010
0100
0001
0010
0001
0100
,
0001
1000
0100
1000
0001
1000
0010
0100
0001
1000
0001
1000
0100
0010
0001
0100
0010
1000
0001
0010
0100
1000
0010
1000
,
0001
0010
0001
1000
0100
0010
0001
1000
0001
1000
0010
0100
0001
0010
0001
1000
0010
0100
0001
0010
0001
0100
0001
1000
,
0100
1000
0001
1000
0010
0100
0001
1000
0001
1000
0100
0010
0001
0100
0001
1000
0100
0010
0001
0100
0001
1000
0010
1000
,
0001
0100
0001
1000
0100
0010
0001
0100
0010
1000
0001
0010
0100
1000
0010
1000
0001
0100
0010
1000
0100
1000
0001
0010
,
0001
0100
0010
1000
0001
1000
0100
1000
0010
0100
0001
1000
0010
1000
0100
1000
0001
0010
0100
1000
0001
0010
0001
0100
,
0001
1000
0100
1000
0001
0100
0010
1000
0001
0010
0100
1000
0010
1000
0100
0010
0001
0100
0001
0010
0100
1000
0001
1000
,
0100
1000
0010
1000
0001
0010
0100
1000
0001
0100
0001
1000
0010
1000
0100
0010
0001
0100
0001
0010
0100
1000
0001
1000
,
0010
0100
0001
1000
0001
0010
0100
1000
0001
0100
0010
1000
0100
1000
0010
0100
0001
0010
0001
0100
0010
1000
0001
1000
,
0100
0010
0001
1000
0001
0010
0100
1000
0001
0100
0010
1000
0001
0100
0001
1000
0100
1000
0001
0010
0100
1000
0001
1000
,
0001
0100
0010
1000
0001
0010
0001
1000
0100
0010
0001
0100
0010
1000
0001
0100
0001
0010
0100
1000
0001
0010
0001
0100
,
0010
1000
0001
0100
0001
0010
0100
1000
0001
0010
0001
0100
0010
1000
0001
0100
0001
0010
0100
1000
0001
0010
0001
0100
,
0010
1000
0001
0010
0100
1000
0010
0100
0001
1000
0001
0010
0001
1000
0100
0010
0001
1000
0001
0100
0010
1000
0001
0100
,
0001
1000
0100
1000
0010
1000
0001
0100
0001
0010
0001
1000
0010
1000
0001
0010
0001
0100
0010
1000
0001
0100
0001
1000
,
0100
1000
0001
1000
0010
0100
0001
0100
0010
1000
0001
1000
0100
0010
0001
1000
,
0010
1000
0001
1000
0100
0010
0001
0010
0100
1000
0001
1000
0010
0100
0001
1000
,
0100
0010
0100
1000
0001
0100
0010
1000
0100
0010
0001
0100
0010
0100
0001
1000
,
0010
0100
0010
1000
0001
0010
0100
1000
0010
0100
0001
0010
0100
0010
0001
1000
,
0001
0100
0010
1000
0100
1000
0010
0100
0001
1000
0100
1000
0001
1000
0010
0100
,
0001
0010
0100
1000
0010
1000
0100
0010
0001
1000
0010
1000
0001
1000
0100
0010
,
0001
1000
0100
1000
0001
1000
0010
0100
0001
0010
0100
1000
0010
1000
0100
0010
,
0001
1000
0010
1000
0001
1000
0100
0010
0001
0100
0010
1000
0100
1000
0010
0100
,
0001
1000
0001
1000
0010
0100
0001
0100
0010
1000
0001
1000
0100
0010
0001
1000
,
0010
1000
0001
1000
0100
0010
0001
0010
0100
1000
0001
1000
0010
0100
0001
1000
,
0100
0010
0100
1000
0001
0100
0010
1000
0100
0010
0001
0100
0010
0100
0001
1000
,
0010
0100
0010
1000
0001
0010
0100
1000
0010
0100
0001
0010
0100
0010
0001
1000
,
0100
1000
0010
0100
0001
0010
0001
0100
0010
1000
0001
0010
0001
1000
0001
0100
,
0010
1000
0100
0010
0001
0100
0001
0010
0100
1000
0001
0100
0001
1000
0001
0010
,
0100
1000
0001
0010
0001
1000
0001
0100
0010
1000
0100
0010
0001
0100
0001
0010
,
0100
1000
0001
0100
0001
1000
0001
0010
0100
1000
0010
0100
0001
0010
0001
1000
;

//---------------dance-single - Zaia----------------
#NOTES:
     dance-single:
     Zaia:
     Medium:
     21:
     1.000,1.000,0.000,0.424,1.000,1767.000,0.000,67.000,0.000,0.000:








0000
0000
0000
0000
,
0000
0000
0000
0000
,
0000
0000
0000
0000
,
0000
0000
0000
0000
,
0000
0000
0000
0000
,
0000
0000
0000
0000
,
0000
0000
0000
0000
,
0000
0000
0000
0000
,
1000
0001
0010
0100
1000
0001
0100
0001
0010
0001
1000
0100
1000
0001
0010
0100
1000
0001
1000
0010
0100
0001
1000
0001
,
0010
0100
1000
0001
1000
0010
0100
0001
0010
0100
1000
0001
0010
0001
1000
0010
1000
0100
1000
0001
0010
0001
1000
0010
,
1000
0100
0010
0100
1000
0001
0010
0001
1000
0010
0100
0001
1000
0001
0010
0100
1000
0001
0010
0001
0100
0010
0100
0001
,
1000
0100
0010
0001
1000
0001
0100
0010
1000
0001
0100
0001
1000
0100
1000
0010
0100
0001
1000
0100
0010
0001
1000
0001
,
0100
0010
1000
0001
1000
0100
0010
0001
0100
0001
1000
0001
0010
0100
1000
0010
1000
0001
0100
0001
1000
0001
1000
0100
,
1000
0010
0100
0001
1000
0001
0010
0100
1000
0001
0100
0001
0010
0100
1000
0001
0100
0010
1000
0001
1000
0001
0010
0001
,
1000
0010
1000
0100
1000
0001
0100
0010
1000
0001
0100
0001
0010
0001
1000
0100
1000
0010
0100
0001
1000
0001
1000
0010
,
1000
0100
0010
0001
1000
0001
0100
0010
1000
0001
0100
0001
0010
0001
1000
0010
0100
0010
1000
0001
1000
0001
0100
0001
,
0010
0100
0010
0100
1000
0100
1000
0100
0010
0001
1000
0001
0100
0010
0100
0001
,
0010
0100
0010
0100
0010
0001
0010
0001
1000
0010
1000
0001
1000
0100
0010
0100
,
1000
0010
0100
0001
1000
0100
0010
0001
1000
0010
0100
0010
1000
0001
0010
0100
,
0010
0000
0000
0001
0000
0000
1000
0000
0000
0001
0000
0000
0100
0000
0000
0010
0000
0000
1000
0000
0000
0001
0000
0000
1000
0000
0000
0100
0000
0000
0010
0000
0000
0100
0000
0000
1000
0000
0001
0000
0100
0000
0010
0000
1000
0000
0001
0000
,
0010
0100
1000
0001
0100
0010
1000
0001
0010
0100
1000
0001
0100
0010
1000
0001
,
0010
0100
1000
0001
1000
0010
0100
0001
1000
0001
1000
0100
0010
0001
1000
0001
1000
0010
0100
0001
1000
0100
0010
0001
,
1000
0010
1000
0001
1000
0100
1000
0001
0010
0001
1000
0001
0100
0010
1000
0001
1000
0100
1000
0001
0100
0001
1000
0001
,
0010
0100
1000
0001
1000
0010
0100
0001
0100
0010
1000
0001
0200
0000
0000
0302
0000
0000
2003
0000
0000
3000
0000
0000
,
0002
0000
0203
0320
0000
0000
2030
0000
,
3002
0000
0000
0000
0023
0000
0430
0000
0300
0000
2000
3000
0002
0003
0200
0300
,
0020
0000
2030
3002
0000
0000
0023
0000
,
0230
0300
2000
3000
0020
0030
0200
0000
0000
0000
0000
0000
0302
0000
0003
0000
,
1000
0100
0010
0001
0100
0010
1000
0000
0200
0300
0020
0030
0002
0003
2000
3000
,
0010
0000
0100
0000
0001
0000
1000
0000
0100
0000
1000
0000
0001
0000
0100
0000
0001
0000
1000
0000
0000
0000
0000
0000
0200
0000
0000
0300
0000
0000
0020
0000
0000
0030
0000
0000
0002
0000
0000
0003
0000
0000
2000
0000
0000
3000
0000
0000
,
0040
0030
0000
0000
0400
0300
0000
0000
0004
0003
0000
0000
4000
3000
0000
0000
,
0200
0000
0000
0000
2300
0000
0000
3000
,
0001
1000
0010
0100
0001
1000
0100
1000
0010
1000
0001
0100
0001
1000
0010
0100
0001
1000
0001
0010
0100
1000
0001
1000
,
0010
0100
0001
1000
0001
0010
0100
1000
0010
0100
0001
1000
0010
1000
0001
0010
0001
0100
0001
1000
0010
1000
0001
0010
,
0001
0100
0010
0100
0001
1000
0010
1000
0001
0010
0100
1000
0001
1000
0010
0100
0001
1000
0010
1000
0100
0010
0100
1000
,
0001
0100
0010
1000
0001
1000
0100
0010
0001
1000
0100
1000
0001
0100
0001
0010
0100
1000
0001
0100
0010
1000
0001
1000
,
0100
0010
0001
1000
0001
0100
0010
1000
0100
1000
0001
1000
0010
0100
0001
0010
0001
1000
0100
1000
0001
1000
0001
0100
,
0001
0010
0100
1000
0001
1000
0010
0100
0001
1000
0100
1000
0010
0100
0001
1000
0100
0010
0001
1000
0001
1000
0010
1000
,
0001
0010
0001
0100
0001
1000
0100
0010
0001
1000
0100
1000
0010
1000
0001
0100
0001
0010
0100
1000
0001
1000
0001
0010
,
0001
0100
0010
1000
0001
1000
0100
0010
0001
1000
0100
1000
0010
1000
0001
0010
0100
0010
0001
1000
0001
1000
0010
0100
,
0001
1000
0100
0010
0001
1000
0010
1000
0100
1000
0001
0010
0001
1000
0100
0010
0001
1000
0001
0100
0010
1000
0001
1000
,
0100
0010
0001
1000
0001
0100
0010
1000
0100
0010
0001
1000
0100
1000
0001
0100
0001
0010
0001
1000
0100
1000
0001
0100
,
0001
0010
0100
0010
0001
1000
0100
1000
0001
0100
0010
1000
0001
1000
0100
0010
0001
1000
0100
1000
0010
0100
0010
1000
,
0001
0010
0100
1000
0001
1000
0010
0100
0001
1000
0010
1000
0001
0010
0001
0100
0010
1000
0001
0010
0100
1000
0001
1000
,
0010
0100
0001
1000
0001
0010
0100
1000
0010
1000
0001
1000
0100
0010
0001
0100
0001
1000
0010
1000
0001
1000
0001
0010
,
0001
0100
0010
1000
0001
1000
0100
0010
0001
1000
0010
1000
0100
0010
0001
1000
0010
0100
0001
1000
0001
1000
0100
1000
,
0001
0100
0001
0010
0001
1000
0010
0100
0001
1000
0010
1000
0100
1000
0001
0010
0001
0100
0010
1000
0001
1000
0001
0100
,
0001
0010
0100
1000
0001
1000
0010
0100
0001
1000
0010
1000
0100
1000
0001
0100
0010
0100
0001
1000
0001
1000
0100
0010
,
0002
0000
0023
0000
0032
0000
2003
3020
,
0000
0230
0302
0023
,
0032
0000
0000
0203
0000
0000
0320
0000
,
2030
0000
0000
3200
0000
0000
0300
0000
,
0020
0000
0032
0000
2003
0000
3020
0230
,
0000
0302
0023
0230
,
2300
0000
3020
0230
0000
0000
0302
0000
,
2003
0000
3200
0320
0000
0032
2003
0000
,
3001
0000
0000
0000
0100
0000
0010
1000
0000
0010
1000
0000
0001
0000
0010
0000
,
0100
0000
1000
0000
0001
0000
0100
0010
0000
0100
0001
0000
1000
0000
0001
0000
,
0010
0000
0100
0000
1000
0000
0010
1000
0000
0001
1000
0000
0100
0000
0010
0000
,
0001
0000
0100
0000
0001
0000
0010
0100
0000
0010
0100
0000
1000
0000
0001
0000
,
1000
0000
1000
0000
0100
0000
0010
0001
0000
0010
0001
0000
1000
0000
0010
0000
,
0100
0000
0001
0000
1000
0000
0100
0010
0000
0100
1000
0000
0001
0000
1000
0000
,
0010
0000
0100
0000
0001
0000
0010
0001
0000
1000
0001
0000
0100
0000
0010
0000
,
1000
0000
0100
0000
1000
0000
0010
0100
0000
0010
0100
0000
0001
0000
1000
0000
,
0010
0100
0001
1000
0010
1000
0100
1000
0001
0010
0100
1000
0001
0010
0001
0100
0001
1000
0010
0100
0001
1000
0100
0010
,
0001
0100
0010
1000
0001
0100
0001
0010
0001
1000
0100
0010
0001
1000
0100
1000
0010
1000
0001
0100
0010
1000
0001
0010
,
0100
1000
0001
0010
0001
0100
0001
1000
0010
0100
0001
1000
0010
1000
0100
1000
0001
0010
0100
1000
0001
0100
0010
1000
,
0100
0010
0001
1000
0100
1000
0010
1000
0001
0100
0010
1000
0001
0100
0001
0010
0001
1000
0100
0010
0001
1000
0010
1000
,
0100
0010
0001
1000
0100
1000
0010
1000
0001
0100
0010
1000
0001
0100
0001
0010
0001
1000
0100
0010
0001
1000
0010
0100
,
0001
0010
0100
1000
0001
0010
0001
0100
0001
1000
0010
0100
0001
1000
0010
1000
0100
1000
0001
0010
0100
1000
0001
0100
,
0010
1000
0001
0100
0001
0010
0001
1000
0100
0010
0001
1000
0100
1000
0010
1000
0001
0100
0010
1000
0001
0010
0100
1000
,
0010
0100
0001
1000
0010
1000
0100
1000
0001
0010
0100
1000
0001
0010
0001
0100
0001
1000
0010
0100
0001
1000
0100
1000
,
0010
0100
0001
1000
0010
1000
0100
1000
0001
0010
0100
1000
0001
0010
0001
0100
0001
1000
0010
0100
0001
1000
0100
0010
,
0001
0100
0010
1000
0001
0100
0001
0010
0001
1000
0100
0010
0001
1000
0100
1000
0010
1000
0001
0100
0010
1000
0001
0010
,
0100
1000
0001
0010
0001
0100
0001
1000
0010
0100
0001
1000
0010
1000
0100
1000
0001
0010
0100
1000
0001
0100
0010
1000
,
0100
0010
0001
1000
0100
1000
0010
1000
0001
0100
0010
1000
0001
0100
0001
0010
0001
1000
0100
0010
0001
1000
0010
1000
,
0100
0010
0001
1000
0100
1000
0010
1000
0001
0100
0010
1000
0001
0100
0001
0010
0001
1000
0100
0010
0001
1000
0010
0100
,
0001
0010
0100
1000
0001
0010
0001
0100
0001
1000
0010
0100
0001
1000
0010
1000
0100
1000
0001
0010
0100
1000
0001
0100
,
0010
1000
0001
0100
0001
0010
0001
1000
0100
0010
0001
1000
0100
1000
0010
1000
0001
0100
0010
1000
0001
0010
0100
1000
,
0010
0100
0001
1000
0010
1000
0100
1000
0001
0010
0100
1000
0001
0010
0001
0100
0001
1000
0010
0100
0001
1000
0100
1000
,
0001
0010
0100
0010
0001
0010
0100
1000
0010
1000
0001
0010
0001
0100
0001
1000
,
0010
0100
0010
0100
0001
0100
0010
1000
0100
1000
0001
0100
0001
0010
0001
1000
,
0100
0010
0100
0010
0001
0010
0100
1000
0010
1000
0001
0010
0001
0100
0001
1000
,
0010
0100
0010
0100
0001
0100
0010
1000
0100
0010
0100
0010
0001
0100
0001
1000
,
0010
1000
0001
1000
0100
0010
0100
1000
0010
0100
0001
0010
0001
1000
0100
0010
,
0100
1000
0001
1000
0010
0100
0010
1000
0100
0010
0001
0100
0001
1000
0010
0100
,
0010
1000
0001
0100
0001
0010
0100
1000
0001
0100
0010
1000
0001
0010
0100
1000
,
0001
0100
0001
1000
0001
0100
0001
1000
0010
1000
0001
1000
0010
1000
0001
1000
,
0100
0000
0000
0010
0000
0000
0002
0000
0000
0000
0000
0000
1003
0000
0000
0000
0000
0000
0010
0000
0100
0000
0001
0000
0010
0000
0001
0000
0100
0000
0010
0000
1000
0000
0100
0000
1000
0000
0010
0000
0100
0000
0001
0000
1000
0000
0001
0000
,
0100
0000
0000
0010
0000
0000
2000
0000
0000
0000
0000
0000
3001
0000
0000
0000
0000
0000
0010
0000
0100
0000
1000
0000
0010
0000
1000
0000
0100
0000
0010
0000
0001
0000
0100
0000
0001
0000
0010
0000
0100
0000
1000
0000
0001
0000
1000
0000
,
0100
0000
0000
0010
0000
0000
0002
0000
0000
0000
0000
0000
1003
0000
0000
0000
0000
0000
0100
0000
0010
0000
0001
0000
0100
0000
0001
0000
0010
0000
0100
0000
1000
0000
0010
0000
1000
0000
0100
0000
0010
0000
0001
0000
1000
0000
0001
0000
,
0010
0100
2000
0000
3001
0000
0200
0000
0000
0000
0310
0000
2000
0000
0000
0000
,
3001
0010
0100
1000
0001
0010
0100
1000
0001
0010
0100
1000
0001
0010
0100
1000
,
0001
0100
0010
1000
0001
0100
0010
1000
0001
0100
0010
1000
0001
0100
0010
1000
,
0001
0000
0010
0000
0001
0000
1000
0000
0000
0010
0000
0000
0100
0000
0000
0001
0000
0000
0000
0000
0000
1000
0000
0000
0010
0000
0000
0000
0000
0000
0100
0000
0000
0000
0000
0000
0001
0000
0000
0000
0000
0000
1000
0000
0000
0000
0000
0000
,
0001
1000
0100
1000
0010
1000
0001
0100
0001
0010
0001
1000
0010
1000
0001
0010
0001
0100
0010
1000
0001
0100
0001
1000
,
0100
1000
0001
1000
0010
0100
0001
0100
0010
1000
0001
1000
0100
0010
0001
1000
,
0010
1000
0001
1000
0100
0010
0001
0010
0100
1000
0001
1000
0010
0100
0001
1000
,
0100
0010
0100
1000
0001
0100
0010
1000
0100
0010
0001
0100
0010
0100
0001
1000
,
0010
0100
0010
1000
0001
0010
0100
1000
0010
0100
0001
0010
0100
0010
0001
1000
,
0001
0100
0010
1000
0100
1000
0010
0100
0001
1000
0100
1000
0001
1000
0010
0100
,
0001
0010
0100
1000
0010
1000
0100
0010
0001
1000
0010
1000
0001
1000
0100
0010
,
0001
1000
0100
1000
0001
1000
0010
0100
0001
0010
0100
1000
0010
1000
0100
0010
,
0001
1000
0010
1000
0001
1000
0100
0010
0001
0100
0010
1000
0100
1000
0010
0100
,
0001
1000
0001
1000
0010
0100
0001
0100
0010
1000
0001
1000
0100
0010
0001
1000
,
0010
1000
0001
1000
0100
0010
0001
0010
0100
1000
0001
1000
0010
0100
0001
1000
,
0100
0010
0100
1000
0001
0100
0010
1000
0100
0010
0001
0100
0010
0100
0001
1000
,
0010
0100
0010
1000
0001
0010
0100
1000
0010
0100
0001
0010
0100
0010
0001
1000
,
0100
1000
0010
0100
0001
0010
0001
0100
0010
1000
0001
0010
0001
1000
0001
0100
,
0010
1000
0100
0010
0001
0100
0001
0010
0100
1000
0001
0100
0001
1000
0001
0010
,
0100
1000
0001
0010
0001
1000
0001
0100
0010
1000
0100
0010
0001
0100
0001
0010
,
0100
1000
0001
0100
0001
1000
0001
0010
0100
1000
0010
0100
0001
0010
0001
1000
;

//---------------dance-single - Mad Matt----------------
#NOTES:
     dance-single:
     Mad Matt:
     Hard:
     23:
     1.000,1.000,0.006,0.196,1.000,1938.000,1.000,31.000,0.000,0.000:

0000
0000
0000
0000
,
0000
0000
0000
0000
,
0000
0000
0000
0000
,
0000
0000
0000
0000
,
0000
0000
0000
0000
,
0000
0000
0000
0000
,
0000
0000
0000
0000
,
0000
0000
0000
0000
,
1000
0001
0010
0100
1000
0001
0100
0001
0010
0001
1000
0100
1000
0001
0010
0100
1000
0001
1000
0010
0100
0001
1000
0001
,
0010
0100
1000
0001
1000
0010
0100
0001
0010
0100
1000
0001
0010
0001
1000
0010
1000
0100
1000
0001
0010
0001
1000
0010
,
1000
0100
0010
0100
1000
0001
0010
0001
1000
0010
0100
0001
1000
0001
0010
0100
1000
0001
0010
0001
0100
0010
0100
0001
,
1000
0100
0010
0001
1000
0001
0100
0010
1000
0001
0100
0001
1000
0100
1000
0010
0100
0001
1000
0100
0010
0001
1000
0001
,
0100
0010
1000
0001
1000
0100
0010
0001
0100
0001
1000
0001
0010
0100
1000
0010
1000
0001
0100
0001
1000
0001
1000
0100
,
1000
0010
0100
0001
1000
0001
0010
0100
1000
0001
0100
0001
0010
0100
1000
0001
0100
0010
1000
0001
1000
0001
0010
0001
,
1000
0010
1000
0100
1000
0001
0100
0010
1000
0001
0100
0001
0010
0001
1000
0100
1000
0010
0100
0001
1000
0001
1000
0010
,
1000
0100
0010
0001
1000
0001
0100
0010
1000
0001
0100
0001
0010
0001
1000
0010
0100
0010
1000
0001
1000
0001
0100
0001
,
0010
0100
0010
0100
1000
0100
1000
0100
0010
0001
1000
0001
0100
0010
0100
0001
,
0010
0100
0010
0100
0010
0001
0010
0001
1000
0010
1000
0001
1000
0100
0010
0100
,
1000
0010
0100
0001
1000
0100
0010
0001
1000
0010
0100
0010
1000
0001
0010
0100
,
0010
0000
0000
0001
0000
0000
1000
0000
0000
0001
0000
0000
0100
0000
0000
0010
0000
0000
1000
0000
0000
0001
0000
0000
1000
0000
0000
0100
0000
0000
0010
0000
0000
0100
0000
0000
1000
0000
0001
0000
0100
0000
0010
0000
1000
0000
0001
0000
,
0010
0100
1000
0001
0100
0010
1000
0001
0010
0100
1000
0001
0100
0010
1000
0001
,
0010
0100
1000
0001
1000
0010
0100
0001
1000
0001
1000
0100
0010
0001
1000
0001
1000
0010
0100
0001
1000
0100
0010
0001
,
1000
0010
1000
0001
1000
0100
1000
0001
0010
0001
1000
0001
0100
0010
1000
0001
1000
0100
1000
0001
0100
0001
1000
0001
,
0010
0100
1000
0001
1000
0010
0100
0001
0100
0010
1000
0001
0200
0000
0000
0302
0000
0000
2003
0000
0000
3000
0000
0000
,
0002
0000
0203
0320
0000
0000
2030
0000
,
3002
0000
0000
0000
0023
0000
0430
0000
0300
0000
2000
3000
0002
0003
0200
0300
,
0020
0000
2030
3002
0000
0000
0023
0000
,
0230
0300
2000
3000
0020
0030
0200
0000
0000
0000
0000
0000
0302
0000
0003
0000
,
1000
0100
0010
0001
0100
0010
1000
0000
0200
0300
0020
0030
0002
0003
2000
3000
,
0010
0000
0100
0000
0001
0000
1000
0000
0100
0000
1000
0000
0001
0000
0100
0000
0001
0000
1000
0000
0000
0000
0000
0000
0200
0000
0000
0300
0000
0000
0020
0000
0000
0030
0000
0000
0002
0000
0000
0003
0000
0000
2000
0000
0000
3000
0000
0000
,
0040
0030
0000
0000
0400
0300
0000
0000
0004
0003
0000
0000
4000
3000
0000
0000
,
0200
0000
0000
0000
2300
0000
0000
3000
,
0001
1000
0010
0100
0001
1000
0100
1000
0010
1000
0001
0100
0001
1000
0010
0100
0001
1000
0001
0010
0100
1000
0001
1000
,
0010
0100
0001
1000
0001
0010
0100
1000
0010
0100
0001
1000
0010
1000
0001
0010
0001
0100
0001
1000
0010
1000
0001
0010
,
0001
0100
0010
0100
0001
1000
0010
1000
0001
0010
0100
1000
0001
1000
0010
0100
0001
1000
0010
1000
0100
0010
0100
1000
,
0001
0100
0010
1000
0001
1000
0100
0010
0001
1000
0100
1000
0001
0100
0001
0010
0100
1000
0001
0100
0010
1000
0001
1000
,
0100
0010
0001
1000
0001
0100
0010
1000
0100
1000
0001
1000
0010
0100
0001
0010
0001
1000
0100
1000
0001
1000
0001
0100
,
0001
0010
0100
1000
0001
1000
0010
0100
0001
1000
0100
1000
0010
0100
0001
1000
0100
0010
0001
1000
0001
1000
0010
1000
,
0001
0010
0001
0100
0001
1000
0100
0010
0001
1000
0100
1000
0010
1000
0001
0100
0001
0010
0100
1000
0001
1000
0001
0010
,
0001
0100
0010
1000
0001
1000
0100
0010
0001
1000
0100
1000
0010
1000
0001
0010
0100
0010
0001
1000
0001
1000
0010
0100
,
0001
1000
0100
0010
0001
1000
0010
1000
0100
1000
0001
0010
0001
1000
0100
0010
0001
1000
0001
0100
0010
1000
0001
1000
,
0100
0010
0001
1000
0001
0100
0010
1000
0100
0010
0001
1000
0100
1000
0001
0100
0001
0010
0001
1000
0100
1000
0001
0100
,
0001
0010
0100
0010
0001
1000
0100
1000
0001
0100
0010
1000
0001
1000
0100
0010
0001
1000
0100
1000
0010
0100
0010
1000
,
0001
0010
0100
1000
0001
1000
0010
0100
0001
1000
0010
1000
0001
0010
0001
0100
0010
1000
0001
0010
0100
1000
0001
1000
,
0010
0100
0001
1000
0001
0010
0100
1000
0010
1000
0001
1000
0100
0010
0001
0100
0001
1000
0010
1000
0001
1000
0001
0010
,
0001
0100
0010
1000
0001
1000
0100
0010
0001
1000
0010
1000
0100
0010
0001
1000
0010
0100
0001
1000
0001
1000
0100
1000
,
0001
0100
0001
0010
0001
1000
0010
0100
0001
1000
0010
1000
0100
1000
0001
0010
0001
0100
0010
1000
0001
1000
0001
0100
,
0001
0010
0100
1000
0001
1000
0010
0100
0001
1000
0010
1000
0100
1000
0001
0100
0010
0100
0001
1000
0001
1000
0100
0010
,
0001
1000
0100
1000
0001
0010
0001
1000
0010
0100
0001
1000
0100
1000
0001
0010
0001
1000
0010
0100
0001
0010
0100
1000
,
0001
0100
0001
1000
0010
1000
0001
0010
0100
1000
0001
1000
0010
0100
0001
1000
0001
0010
0100
1000
0001
0100
0001
1000
,
0010
1000
0001
0100
0010
1000
0001
0100
0001
1000
0100
0010
0001
1000
0001
0010
0100
1000
0001
0100
0010
1000
0001
0010
,
0001
0100
0001
1000
0100
1000
0001
0010
0001
1000
0010
0100
0010
1000
0001
0100
0001
1000
0010
0100
0001
1000
0010
1000
,
0100
1000
0001
0010
0001
1000
0010
0100
0001
0100
0010
1000
0001
1000
0100
0010
0001
1000
0001
0100
0001
1000
0100
1000
,
0001
0100
0001
0010
0001
1000
0010
0100
0010
1000
0001
1000
0100
0010
0001
1000
0100
1000
0001
0100
0010
1000
0001
0100
,
0001
0010
0001
1000
0100
1000
0001
0100
0001
1000
0100
0010
0001
1000
0100
0010
0100
1000
0001
0100
0001
1000
0010
1000
,
0100
1000
0001
0010
0100
1000
0001
0100
0001
1000
0100
0010
0001
1000
0001
0100
0010
1000
0001
0010
0100
1000
0001
1000
,
0010
0100
0001
1000
0001
0010
0001
1000
0010
0100
0001
1000
0100
1000
0001
0010
0001
1000
0010
0100
0001
0010
0100
1000
,
0001
0100
0001
1000
0010
1000
0001
0010
0100
1000
0001
1000
0010
0100
0001
1000
0001
0010
0100
1000
0001
0100
0001
1000
,
0010
1000
0001
0100
0010
1000
0001
0100
0001
1000
0100
0010
0001
1000
0001
0010
0100
1000
0001
0100
0010
1000
0001
0010
,
0001
0100
0001
1000
0100
1000
0001
0010
0001
1000
0010
0100
0010
1000
0001
0100
0001
1000
0010
0100
0001
1000
0010
1000
,
0100
1000
0001
0010
0001
1000
0010
0100
0001
0100
0010
1000
0001
1000
0100
0010
0001
1000
0001
0100
0001
1000
0100
1000
,
0001
0100
0001
0010
0001
1000
0010
0100
0010
1000
0001
1000
0100
0010
0001
1000
0100
1000
0001
0100
0010
1000
0001
0100
,
0001
0010
0001
1000
0100
1000
0001
0100
0001
1000
0100
0010
0001
1000
0100
0010
0100
1000
0001
0100
0001
1000
0010
1000
,
0100
1000
0001
0010
0100
1000
0001
0100
0001
1000
0100
0010
0001
1000
0001
0100
0010
1000
0001
0010
0100
1000
0001
1000
,
0000
0000
0000
0000
0010
0000
0100
0001
0000
0100
0001
0000
1000
0000
0010
0000
,
1000
0100
1000
0000
0001
0000
1000
0010
0000
1000
0010
0000
0100
0000
0001
0000
,
1000
0100
1000
0000
0001
0000
0010
0100
0000
0010
0100
0000
1000
0000
0001
0000
,
0100
0010
0100
0000
0001
0000
1000
0010
0000
1000
0010
0000
0100
0000
0001
0000
,
0000
0000
0000
0000
1000
0000
0100
0010
0000
0100
0010
0000
0001
0000
1000
0000
,
0010
0100
0010
0000
1000
0000
0001
0010
0000
0001
0010
0000
0100
0000
1000
0000
,
0001
0100
0001
0000
1000
0000
0010
0100
0000
0010
0100
0000
0001
0000
1000
0000
,
0100
0010
0100
0000
1000
0000
0010
0100
0000
0010
0100
0000
0001
0000
1000
0000
,
0000
0000
0000
0000
0100
0000
0010
0001
0000
0010
0001
0000
1000
0000
0100
0000
,
1000
0010
1000
0000
0001
0000
1000
0100
0000
1000
0100
0000
0010
0000
0001
0000
,
1000
0010
1000
0000
0001
0000
0100
0010
0000
0100
0010
0000
1000
0000
0001
0000
,
0010
0100
0010
0000
0001
0000
1000
0100
0000
1000
0100
0000
0010
0000
0001
0000
,
0000
0000
0000
0000
1000
0000
0010
0100
0000
0010
0100
0000
0001
0000
1000
0000
,
0100
0010
0100
0000
1000
0000
0001
0100
0000
0001
0100
0000
0010
0000
1000
0000
,
0001
0010
0001
0000
1000
0000
0100
0010
0000
0100
0010
0000
0001
0000
1000
0000
,
0010
0100
0010
0000
1000
0000
0100
0010
0000
0100
0010
0000
0001
0000
1000
0000
,
0103
0010
1000
0001
1000
0100
0010
0001
1000
0001
1000
0010
0100
0001
0010
0001
1000
0010
0100
0001
0010
0001
0100
0001
,
1000
0100
1000
0001
1000
0010
0100
0001
1000
0001
1000
0100
0010
0001
0100
0001
1000
0100
0010
0001
0100
0001
1000
0010
,
1000
0001
0100
0001
1000
0001
0010
0100
1000
0001
1000
0001
0100
0010
1000
0100
1000
0001
0100
0010
1000
0100
1000
0010
,
1000
0001
0010
0001
1000
0001
0100
0010
1000
0001
1000
0001
0010
0100
1000
0010
0100
0001
1000
0100
0010
0001
0100
0001
,
1000
0100
1000
0001
0010
0100
1000
0001
1000
0001
0100
0010
1000
0100
1000
0001
0100
0010
1000
0100
1000
0010
1000
0001
,
0010
0001
1000
0001
0100
0010
1000
0001
1000
0001
0010
0100
1000
0010
1000
0001
0010
0100
1000
0010
1000
0001
0100
0001
,
1000
0010
1000
0001
0010
0100
1000
0010
0100
0001
1000
0100
0010
0001
0100
0001
1000
0010
0100
0001
0010
0001
1000
0100
,
1000
0010
0100
0001
1000
0001
0010
0001
0100
0010
1000
0001
0100
0001
0010
0001
1000
0100
0010
0001
1000
0100
1000
0010
,
1000
0001
0010
0001
1000
0010
0100
0001
1000
0100
0010
0001
0100
0001
0010
0100
1000
0010
1000
0100
0010
0001
1000
0001
,
0010
0001
0100
0001
1000
0100
0010
0001
1000
0010
1000
0001
0100
0001
0010
0100
1000
0010
1000
0100
0010
0001
1000
0001
,
0100
0010
1000
0001
1000
0100
0010
0001
1000
0010
0100
0001
0010
0001
0100
0010
1000
0100
1000
0010
0100
0001
1000
0001
,
0010
0100
1000
0001
1000
0100
0010
0001
1000
0010
0100
0001
1000
0010
1000
0001
0010
0001
1000
0100
0010
0001
1000
0001
,
1000
0010
0100
0001
1000
0100
1000
0001
0010
0100
1000
0010
0100
0001
1000
0010
1000
0100
0010
0001
1000
0100
1000
0010
,
0100
0001
1000
0010
1000
0100
0010
0001
1000
0100
1000
0010
0100
0001
1000
0010
1000
0100
0010
0001
1000
0100
1000
0010
,
0100
0001
1000
0100
0010
0001
0100
0010
1000
0001
1000
0100
1000
0001
0010
0100
1000
0001
1000
0010
0100
0001
1000
0010
,
1000
0001
0010
0001
0100
0001
1000
0010
1000
0100
1000
0001
0100
0001
1000
0100
1000
0010
0100
0001
1000
0010
1000
0001
,
0010
0001
1000
0001
0100
0010
1000
0010
0100
0001
1000
0001
0010
0100
1000
0001
,
0100
0001
1000
0001
0010
0100
1000
0100
0010
0001
1000
0001
0100
0010
1000
0001
,
0010
0100
0010
0001
1000
0010
0100
0001
0010
0100
1000
0010
0100
0010
1000
0001
,
0100
0010
0100
0001
1000
0100
0010
0001
0100
0010
1000
0100
0010
0100
1000
0001
,
1000
0010
0100
0001
0010
0001
0100
0010
1000
0001
0010
0001
1000
0001
0100
0010
,
1000
0100
0010
0001
0100
0001
0010
0100
1000
0001
0100
0001
1000
0001
0010
0100
,
1000
0001
0010
0001
1000
0001
0100
0010
1000
0100
0010
0001
0100
0001
0010
0100
,
1000
0001
0100
0001
1000
0001
0010
0100
1000
0010
0100
0001
0010
0001
0100
0010
,
1000
0001
1000
0001
0100
0010
1000
0010
0100
0001
1000
0001
0010
0100
1000
0001
,
0100
0001
1000
0001
0010
0100
1000
0100
0010
0001
1000
0001
0100
0010
1000
0001
,
0010
0100
0010
0001
1000
0010
0100
0001
0010
0100
1000
0010
0100
0010
1000
0001
,
0100
0010
0100
0001
1000
0100
0010
0001
0100
0010
1000
0100
0010
0100
1000
0001
,
0010
0001
0100
0010
1000
0100
1000
0010
0100
0001
1000
0100
1000
0001
1000
0010
,
0100
0001
0010
0100
1000
0010
1000
0100
0010
0001
1000
0010
1000
0001
1000
0100
,
0010
0001
1000
0100
1000
0001
1000
0010
0100
0001
0010
0100
1000
0010
1000
0100
,
0010
0001
1000
0010
1000
0001
1000
0100
0010
0001
0100
0010
1000
0100
1000
0001
;

//---------------dance-single - Mad Matt----------------
#NOTES:
     dance-single:
     Mad Matt:
     Easy:
     19:
     1.000,1.000,0.000,0.424,1.000,1531.000,0.000,67.000,0.000,0.000:



0000
0000
0000
0000
,
0000
0000
0000
0000
,
0000
0000
0000
0000
,
0000
0000
0000
0000
,
0000
0000
0000
0000
,
0000
0000
0000
0000
,
0000
0000
0000
0000
,
0000
0000
0000
0000
,
1000
0001
0010
0100
1000
0001
0100
0001
0010
0001
1000
0100
1000
0001
0010
0100
1000
0001
1000
0010
0100
0001
1000
0001
,
0010
0100
1000
0001
1000
0010
0100
0001
0010
0100
1000
0001
0010
0001
1000
0010
1000
0100
1000
0001
0010
0001
1000
0010
,
1000
0100
0010
0100
1000
0001
0010
0001
1000
0010
0100
0001
1000
0001
0010
0100
1000
0001
0010
0001
0100
0010
0100
0001
,
1000
0100
0010
0001
1000
0001
0100
0010
1000
0001
0100
0001
1000
0100
1000
0010
0100
0001
1000
0100
0010
0001
1000
0001
,
0100
0010
1000
0001
1000
0100
0010
0001
0100
0001
1000
0001
0010
0100
1000
0010
1000
0001
0100
0001
1000
0001
1000
0100
,
1000
0010
0100
0001
1000
0001
0010
0100
1000
0001
0100
0001
0010
0100
1000
0001
0100
0010
1000
0001
1000
0001
0010
0001
,
1000
0010
1000
0100
1000
0001
0100
0010
1000
0001
0100
0001
0010
0001
1000
0100
1000
0010
0100
0001
1000
0001
1000
0010
,
1000
0100
0010
0001
1000
0001
0100
0010
1000
0001
0100
0001
0010
0001
1000
0010
0100
0010
1000
0001
1000
0001
0100
0001
,
0010
0100
0010
0100
1000
0100
1000
0100
0010
0001
1000
0001
0100
0010
0100
0001
,
0010
0100
0010
0100
0010
0001
0010
0001
1000
0010
1000
0001
1000
0100
0010
0100
,
1000
0010
0100
0001
1000
0100
0010
0001
1000
0010
0100
0010
1000
0001
0010
0100
,
0010
0000
0000
0001
0000
0000
1000
0000
0000
0001
0000
0000
0100
0000
0000
0010
0000
0000
1000
0000
0000
0001
0000
0000
1000
0000
0000
0100
0000
0000
0010
0000
0000
0100
0000
0000
1000
0000
0001
0000
0100
0000
0010
0000
1000
0000
0001
0000
,
0010
0100
1000
0001
0100
0010
1000
0001
0010
0100
1000
0001
0100
0010
1000
0001
,
0010
0100
1000
0001
1000
0010
0100
0001
1000
0001
1000
0100
0010
0001
1000
0001
1000
0010
0100
0001
1000
0100
0010
0001
,
1000
0010
1000
0001
1000
0100
1000
0001
0010
0001
1000
0001
0100
0010
1000
0001
1000
0100
1000
0001
0100
0001
1000
0001
,
0010
0100
1000
0001
1000
0010
0100
0001
0100
0010
1000
0001
0200
0000
0000
0302
0000
0000
2003
0000
0000
3000
0000
0000
,
0002
0000
0203
0320
0000
0000
2030
0000
,
3002
0000
0000
0000
0023
0000
0430
0000
0300
0000
2000
3000
0002
0003
0200
0300
,
0020
0000
2030
3002
0000
0000
0023
0000
,
0230
0300
2000
3000
0020
0030
0200
0000
0000
0000
0000
0000
0302
0000
0003
0000
,
1000
0100
0010
0001
0100
0010
1000
0000
0200
0300
0020
0030
0002
0003
2000
3000
,
0010
0000
0100
0000
0001
0000
1000
0000
0100
0000
1000
0000
0001
0000
0100
0000
0001
0000
1000
0000
0000
0000
0000
0000
0200
0000
0000
0300
0000
0000
0020
0000
0000
0030
0000
0000
0002
0000
0000
0003
0000
0000
2000
0000
0000
3000
0000
0000
,
0040
0030
0000
0000
0400
0300
0000
0000
0004
0003
0000
0000
4000
3000
0000
0000
,
0200
0000
0000
0000
2300
0000
0000
3000
,
0001
1000
0010
0100
0001
1000
0100
1000
0010
1000
0001
0100
0001
1000
0010
0100
0001
1000
0001
0010
0100
1000
0001
1000
,
0010
0100
0001
1000
0001
0010
0100
1000
0010
0100
0001
1000
0010
1000
0001
0010
0001
0100
0001
1000
0010
1000
0001
0010
,
0001
0100
0010
0100
0001
1000
0010
1000
0001
0010
0100
1000
0001
1000
0010
0100
0001
1000
0010
1000
0100
0010
0100
1000
,
0001
0100
0010
1000
0001
1000
0100
0010
0001
1000
0100
1000
0001
0100
0001
0010
0100
1000
0001
0100
0010
1000
0001
1000
,
0100
0010
0001
1000
0001
0100
0010
1000
0100
1000
0001
1000
0010
0100
0001
0010
0001
1000
0100
1000
0001
1000
0001
0100
,
0001
0010
0100
1000
0001
1000
0010
0100
0001
1000
0100
1000
0010
0100
0001
1000
0100
0010
0001
1000
0001
1000
0010
1000
,
0001
0010
0001
0100
0001
1000
0100
0010
0001
1000
0100
1000
0010
1000
0001
0100
0001
0010
0100
1000
0001
1000
0001
0010
,
0001
0100
0010
1000
0001
1000
0100
0010
0001
1000
0100
1000
0010
1000
0001
0010
0100
0010
0001
1000
0001
1000
0010
0100
,
0001
1000
0100
0010
0001
1000
0010
1000
0100
1000
0001
0010
0001
1000
0100
0010
0001
1000
0001
0100
0010
1000
0001
1000
,
0100
0010
0001
1000
0001
0100
0010
1000
0100
0010
0001
1000
0100
1000
0001
0100
0001
0010
0001
1000
0100
1000
0001
0100
,
0001
0010
0100
0010
0001
1000
0100
1000
0001
0100
0010
1000
0001
1000
0100
0010
0001
1000
0100
1000
0010
0100
0010
1000
,
0001
0010
0100
1000
0001
1000
0010
0100
0001
1000
0010
1000
0001
0010
0001
0100
0010
1000
0001
0010
0100
1000
0001
1000
,
0010
0100
0001
1000
0001
0010
0100
1000
0010
1000
0001
1000
0100
0010
0001
0100
0001
1000
0010
1000
0001
1000
0001
0010
,
0001
0100
0010
1000
0001
1000
0100
0010
0001
1000
0010
1000
0100
0010
0001
1000
0010
0100
0001
1000
0001
1000
0100
1000
,
0001
0100
0001
0010
0001
1000
0010
0100
0001
1000
0010
1000
0100
1000
0001
0010
0001
0100
0010
1000
0001
1000
0001
0100
,
0001
0010
0100
1000
0001
1000
0010
0100
0001
1000
0010
1000
0100
1000
0001
0100
0010
0100
0001
1000
0001
1000
0100
0010
,
0002
0000
0023
0000
0032
0000
2003
3020
,
0000
0230
0302
0023
,
0032
0000
0000
0203
0000
0000
0320
0000
,
2030
0000
0000
3200
0000
0000
0300
0000
,
0020
0000
0032
0000
2003
0000
3020
0230
,
0000
0302
0023
0230
,
2300
0000
3020
0230
0000
0000
0302
0000
,
2003
0000
3200
0320
0000
0032
2003
0000
,
3001
0000
0000
0000
0100
0000
0010
1000
0000
0010
1000
0000
0001
0000
0010
0000
,
0100
0000
1000
0000
0001
0000
0100
0010
0000
0100
0001
0000
1000
0000
0001
0000
,
0010
0000
0100
0000
1000
0000
0010
1000
0000
0001
1000
0000
0100
0000
0010
0000
,
0001
0000
0100
0000
0001
0000
0010
0100
0000
0010
0100
0000
1000
0000
0001
0000
,
1000
0000
1000
0000
0100
0000
0010
0001
0000
0010
0001
0000
1000
0000
0010
0000
,
0100
0000
0001
0000
1000
0000
0100
0010
0000
0100
1000
0000
0001
0000
1000
0000
,
0010
0000
0100
0000
0001
0000
0010
0001
0000
1000
0001
0000
0100
0000
0010
0000
,
1000
0000
0100
0000
1000
0000
0010
0100
0000
0010
0100
0000
0001
0000
1000
0000
,
0000
0000
0000
0000
0010
0000
0100
0001
0000
0100
0001
0000
1000
0000
0010
0000
,
1000
0100
1000
0000
0001
0000
1000
0010
0000
1000
0010
0000
0100
0000
0001
0000
,
1000
0100
1000
0000
0001
0000
0010
0100
0000
0010
0100
0000
1000
0000
0001
0000
,
0100
0010
0100
0000
0001
0000
1000
0010
0000
1000
0010
0000
0100
0000
0001
0000
,
0000
0000
0000
0000
1000
0000
0100
0010
0000
0100
0010
0000
0001
0000
1000
0000
,
0010
0100
0010
0000
1000
0000
0001
0010
0000
0001
0010
0000
0100
0000
1000
0000
,
0001
0100
0001
0000
1000
0000
0010
0100
0000
0010
0100
0000
0001
0000
1000
0000
,
0100
0010
0100
0000
1000
0000
0010
0100
0000
0010
0100
0000
0001
0000
1000
0000
,
0000
0000
0000
0000
0100
0000
0010
0001
0000
0010
0001
0000
1000
0000
0100
0000
,
1000
0010
1000
0000
0001
0000
1000
0100
0000
1000
0100
0000
0010
0000
0001
0000
,
1000
0010
1000
0000
0001
0000
0100
0010
0000
0100
0010
0000
1000
0000
0001
0000
,
0010
0100
0010
0000
0001
0000
1000
0100
0000
1000
0100
0000
0010
0000
0001
0000
,
0000
0000
0000
0000
1000
0000
0010
0100
0000
0010
0100
0000
0001
0000
1000
0000
,
0100
0010
0100
0000
1000
0000
0001
0100
0000
0001
0100
0000
0010
0000
1000
0000
,
0001
0010
0001
0000
1000
0000
0100
0010
0000
0100
0010
0000
0001
0000
1000
0000
,
0010
0100
0010
0000
1000
0000
0100
0010
0000
0100
0010
0000
0001
0000
1000
0000
,
0001
0010
0100
0010
0001
0010
0100
1000
0010
1000
0001
0010
0001
0100
0001
1000
,
0010
0100
0010
0100
0001
0100
0010
1000
0100
1000
0001
0100
0001
0010
0001
1000
,
0100
0010
0100
0010
0001
0010
0100
1000
0010
1000
0001
0010
0001
0100
0001
1000
,
0010
0100
0010
0100
0001
0100
0010
1000
0100
0010
0100
0010
0001
0100
0001
1000
,
0010
1000
0001
1000
0100
0010
0100
1000
0010
0100
0001
0010
0001
1000
0100
0010
,
0100
1000
0001
1000
0010
0100
0010
1000
0100
0010
0001
0100
0001
1000
0010
0100
,
0010
1000
0001
0100
0001
0010
0100
1000
0001
0100
0010
1000
0001
0010
0100
1000
,
0001
0100
0001
1000
0001
0100
0001
1000
0010
1000
0001
1000
0010
1000
0001
1000
,
0100
0000
0000
0010
0000
0000
0002
0000
0000
0000
0000
0000
1003
0000
0000
0000
0000
0000
0010
0000
0100
0000
0001
0000
0010
0000
0001
0000
0100
0000
0010
0000
1000
0000
0100
0000
1000
0000
0010
0000
0100
0000
0001
0000
1000
0000
0001
0000
,
0100
0000
0000
0010
0000
0000
2000
0000
0000
0000
0000
0000
3001
0000
0000
0000
0000
0000
0010
0000
0100
0000
1000
0000
0010
0000
1000
0000
0100
0000
0010
0000
0001
0000
0100
0000
0001
0000
0010
0000
0100
0000
1000
0000
0001
0000
1000
0000
,
0100
0000
0000
0010
0000
0000
0002
0000
0000
0000
0000
0000
1003
0000
0000
0000
0000
0000
0100
0000
0010
0000
0001
0000
0100
0000
0001
0000
0010
0000
0100
0000
1000
0000
0010
0000
1000
0000
0100
0000
0010
0000
0001
0000
1000
0000
0001
0000
,
0010
0100
2000
0000
3001
0000
0200
0000
0000
0000
0310
0000
2000
0000
0000
0000
,
3001
0010
0100
1000
0001
0010
0100
1000
0001
0010
0100
1000
0001
0010
0100
1000
,
0001
0100
0010
1000
0001
0100
0010
1000
0001
0100
0010
1000
0001
0100
0010
1000
,
0001
0000
0010
0000
0001
0000
1000
0000
0000
0010
0000
0000
0100
0000
0000
0001
0000
0000
0000
0000
0000
1000
0000
0000
0010
0000
0000
0000
0000
0000
0100
0000
0000
0000
0000
0000
0001
0000
0000
0000
0000
0000
1000
0000
0000
0000
0000
0000
,
0001
1000
0100
1000
0010
1000
0001
0100
0001
0010
0001
1000
0010
1000
0001
0010
0001
0100
0010
1000
0001
0100
0001
1000
,
0100
1000
0001
1000
0010
0100
0001
0100
0010
1000
0001
1000
0100
0010
0001
1000
,
0010
1000
0001
1000
0100
0010
0001
0010
0100
1000
0001
1000
0010
0100
0001
1000
,
0100
0010
0100
1000
0001
0100
0010
1000
0100
0010
0001
0100
0010
0100
0001
1000
,
0010
0100
0010
1000
0001
0010
0100
1000
0010
0100
0001
0010
0100
0010
0001
1000
,
0001
0100
0010
1000
0100
1000
0010
0100
0001
1000
0100
1000
0001
1000
0010
0100
,
0001
0010
0100
1000
0010
1000
0100
0010
0001
1000
0010
1000
0001
1000
0100
0010
,
0001
1000
0100
1000
0001
1000
0010
0100
0001
0010
0100
1000
0010
1000
0100
0010
,
0001
1000
0010
1000
0001
1000
0100
0010
0001
0100
0010
1000
0100
1000
0010
0100
,
0001
1000
0001
1000
0010
0100
0001
0100
0010
1000
0001
1000
0100
0010
0001
1000
,
0010
1000
0001
1000
0100
0010
0001
0010
0100
1000
0001
1000
0010
0100
0001
1000
,
0100
0010
0100
1000
0001
0100
0010
1000
0100
0010
0001
0100
0010
0100
0001
1000
,
0010
0100
0010
1000
0001
0010
0100
1000
0010
0100
0001
0010
0100
0010
0001
1000
,
0100
1000
0010
0100
0001
0010
0001
0100
0010
1000
0001
0010
0001
1000
0001
0100
,
0010
1000
0100
0010
0001
0100
0001
0010
0100
1000
0001
0100
0001
1000
0001
0010
,
0100
1000
0001
0010
0001
1000
0001
0100
0010
1000
0100
0010
0001
0100
0001
0010
,
0100
1000
0001
0100
0001
1000
0001
0010
0100
1000
0010
0100
0001
0010
0001
1000
;

//---------------dance-single - Mad Matt----------------
#NOTES:
     dance-single:
     Mad Matt:
     Beginner:
     19:
     1.000,1.000,0.000,0.588,1.000,1360.000,0.000,93.000,0.000,0.000:



0000
0000
0000
0000
,
0000
0000
0000
0000
,
0000
0000
0000
0000
,
0000
0000
0000
0000
,
0000
0000
0000
0000
,
0000
0000
0000
0000
,
0000
0000
0000
0000
,
0000
0000
0000
0000
,
0001
0000
0000
0000
0100
0000
0010
1000
0000
0010
1000
0000
0001
0000
0010
0000
,
0100
0000
1000
0000
0001
0000
0100
0010
0000
0100
0001
0000
1000
0000
0001
0000
,
0010
0000
0100
0000
1000
0000
0010
1000
0000
0001
1000
0000
0100
0000
0010
0000
,
0001
0000
0100
0000
0001
0000
0010
0100
0000
0010
0100
0000
1000
0000
0001
0000
,
1000
0000
1000
0000
0100
0000
0010
0001
0000
0010
0001
0000
1000
0000
0010
0000
,
0100
0000
0001
0000
1000
0000
0100
0010
0000
0100
1000
0000
0001
0000
1000
0000
,
0010
0000
0100
0000
0001
0000
0010
0001
0000
1000
0001
0000
0100
0000
0010
0000
,
1000
0000
0100
0000
1000
0000
0010
0100
0000
0010
0100
0000
0001
0000
1000
0000
,
0100
0010
0100
0010
0001
0010
0001
0010
0100
1000
0001
1000
0010
0100
0010
1000
,
0100
0010
0100
0010
0100
1000
0100
1000
0001
0100
0001
1000
0001
0010
0100
0010
,
0001
0100
0010
1000
0001
0010
0100
1000
0001
0100
0010
0100
0001
1000
0100
0010
,
0100
0000
0000
1000
0000
0000
0001
0000
0000
1000
0000
0000
0010
0000
0000
0100
0000
0000
0001
0000
0000
1000
0000
0000
0001
0000
0000
0010
0000
0000
0100
0000
0000
0010
0000
0000
0001
0000
1000
0000
0010
0000
0100
0000
0001
0000
1000
0000
,
0100
0010
0001
1000
0010
0100
0001
1000
0100
0010
0001
1000
0010
0100
0001
1000
,
0100
0010
0001
1000
0001
0100
0010
1000
0001
1000
0001
0010
0100
1000
0001
1000
0001
0100
0010
1000
0001
0010
0100
1000
,
0001
0100
0001
1000
0001
0010
0001
1000
0100
1000
0001
1000
0010
0100
0001
1000
0001
0010
0001
1000
0010
1000
0001
1000
,
0100
0010
0001
1000
0001
0100
0010
1000
0010
0100
0001
1000
0020
0000
0000
2030
0000
0000
3002
0000
0000
0003
0000
0000
,
2000
0000
3020
0230
0000
0000
0302
0000
,
2003
0000
0000
0000
3200
0000
0340
0000
0030
0000
0002
0003
2000
3000
0020
0030
,
0200
0000
0302
2003
0000
0000
3200
0000
,
0320
0030
0002
0003
0200
0300
0020
0000
0000
0000
0000
0000
2030
0000
3000
0000
,
0001
0010
0100
1000
0010
0100
0001
0000
0020
0030
0200
0300
2000
3000
0002
0003
,
0100
0000
0010
0000
1000
0000
0001
0000
0010
0000
0001
0000
1000
0000
0010
0000
1000
0000
0001
0000
0000
0000
0000
0000
0020
0000
0000
0030
0000
0000
0200
0000
0000
0300
0000
0000
2000
0000
0000
3000
0000
0000
0002
0000
0000
0003
0000
0000
,
0400
0300
0000
0000
0040
0030
0000
0000
4000
3000
0000
0000
0004
0003
0000
0000
,
0020
0000
0000
0000
0032
0000
0000
0003
,
0200
0000
0320
2030
0000
0000
3002
0000
,
0023
0032
2003
3000
0020
0000
0000
0030
,
0200
0000
0302
2003
0000
0000
3200
0000
,
0320
0230
2300
0000
3002
0000
0000
0003
,
0200
0000
0320
0000
,
2030
0000
3002
0000
,
0023
0000
0230
0000
,
2300
0000
3001
0200
0000
0300
0020
0000
2030
0000
0000
0000
3000
0000
0000
0000
,
0001
0000
0000
0000
0100
0000
0010
1000
0000
0010
1000
0000
0001
0000
0010
0000
,
0100
0000
1000
0000
0001
0000
0100
0010
0000
0100
0001
0000
1000
0000
0001
0000
,
0010
0000
0100
0000
1000
0000
0010
1000
0000
0001
1000
0000
0100
0000
0010
0000
,
0001
0000
0100
0000
0001
0000
0010
0100
0000
0010
0100
0000
1000
0000
0001
0000
,
1000
0000
1000
0000
0100
0000
0010
0001
0000
0010
0001
0000
1000
0000
0010
0000
,
0100
0000
0001
0000
1000
0000
0100
0010
0000
0100
1000
0000
0001
0000
1000
0000
,
0010
0000
0100
0000
0001
0000
0010
0001
0000
1000
0001
0000
0100
0000
0010
0000
,
1000
0000
0100
0000
1000
0000
0010
0100
0000
0010
0100
0000
0001
0000
1000
0000
,
0002
0000
0023
0000
0032
0000
2003
3020
,
0000
0230
0302
0023
,
0032
0000
0000
0203
0000
0000
0320
0000
,
2030
0000
0000
3200
0000
0000
0300
0000
,
0020
0000
0032
0000
2003
0000
3020
0230
,
0000
0302
0023
0230
,
2300
0000
3020
0230
0000
0000
0302
0000
,
2003
0000
3200
0320
0000
0032
2003
0000
,
3001
0000
0000
0000
0100
0000
0010
1000
0000
0010
1000
0000
0001
0000
0010
0000
,
0100
0000
1000
0000
0001
0000
0100
0010
0000
0100
0001
0000
1000
0000
0001
0000
,
0010
0000
0100
0000
1000
0000
0010
1000
0000
0001
1000
0000
0100
0000
0010
0000
,
0001
0000
0100
0000
0001
0000
0010
0100
0000
0010
0100
0000
1000
0000
0001
0000
,
1000
0000
1000
0000
0100
0000
0010
0001
0000
0010
0001
0000
1000
0000
0010
0000
,
0100
0000
0001
0000
1000
0000
0100
0010
0000
0100
1000
0000
0001
0000
1000
0000
,
0010
0000
0100
0000
0001
0000
0010
0001
0000
1000
0001
0000
0100
0000
0010
0000
,
1000
0000
0100
0000
1000
0000
0010
0100
0000
0010
0100
0000
0001
0000
1000
0000
,
0010
0100
0001
1000
0010
1000
0100
1000
0001
0010
0100
1000
0001
0010
0001
0100
0001
1000
0010
0100
0001
1000
0100
0010
,
0001
0100
0010
1000
0001
0100
0001
0010
0001
1000
0100
0010
0001
1000
0100
1000
0010
1000
0001
0100
0010
1000
0001
0010
,
0100
1000
0001
0010
0001
0100
0001
1000
0010
0100
0001
1000
0010
1000
0100
1000
0001
0010
0100
1000
0001
0100
0010
1000
,
0100
0010
0001
1000
0100
1000
0010
1000
0001
0100
0010
1000
0001
0100
0001
0010
0001
1000
0100
0010
0001
1000
0010
1000
,
0100
0010
0001
1000
0100
1000
0010
1000
0001
0100
0010
1000
0001
0100
0001
0010
0001
1000
0100
0010
0001
1000
0010
0100
,
0001
0010
0100
1000
0001
0010
0001
0100
0001
1000
0010
0100
0001
1000
0010
1000
0100
1000
0001
0010
0100
1000
0001
0100
,
0010
1000
0001
0100
0001
0010
0001
1000
0100
0010
0001
1000
0100
1000
0010
1000
0001
0100
0010
1000
0001
0010
0100
1000
,
0010
0100
0001
1000
0010
1000
0100
1000
0001
0010
0100
1000
0001
0010
0001
0100
0001
1000
0010
0100
0001
1000
0100
1000
,
0010
0100
0001
1000
0010
1000
0100
1000
0001
0010
0100
1000
0001
0010
0001
0100
0001
1000
0010
0100
0001
1000
0100
0010
,
0001
0100
0010
1000
0001
0100
0001
0010
0001
1000
0100
0010
0001
1000
0100
1000
0010
1000
0001
0100
0010
1000
0001
0010
,
0100
1000
0001
0010
0001
0100
0001
1000
0010
0100
0001
1000
0010
1000
0100
1000
0001
0010
0100
1000
0001
0100
0010
1000
,
0100
0010
0001
1000
0100
1000
0010
1000
0001
0100
0010
1000
0001
0100
0001
0010
0001
1000
0100
0010
0001
1000
0010
1000
,
0100
0010
0001
1000
0100
1000
0010
1000
0001
0100
0010
1000
0001
0100
0001
0010
0001
1000
0100
0010
0001
1000
0010
0100
,
0001
0010
0100
1000
0001
0010
0001
0100
0001
1000
0010
0100
0001
1000
0010
1000
0100
1000
0001
0010
0100
1000
0001
0100
,
0010
1000
0001
0100
0001
0010
0001
1000
0100
0010
0001
1000
0100
1000
0010
1000
0001
0100
0010
1000
0001
0010
0100
1000
,
0010
0100
0001
1000
0010
1000
0100
1000
0001
0010
0100
1000
0001
0010
0001
0100
0001
1000
0010
0100
0001
1000
0100
1000
,
0001
0010
0100
0010
0001
0010
0100
1000
0010
1000
0001
0010
0001
0100
0001
1000
,
0010
0100
0010
0100
0001
0100
0010
1000
0100
1000
0001
0100
0001
0010
0001
1000
,
0100
0010
0100
0010
0001
0010
0100
1000
0010
1000
0001
0010
0001
0100
0001
1000
,
0010
0100
0010
0100
0001
0100
0010
1000
0100
0010
0100
0010
0001
0100
0001
1000
,
0010
1000
0001
1000
0100
0010
0100
1000
0010
0100
0001
0010
0001
1000
0100
0010
,
0100
1000
0001
1000
0010
0100
0010
1000
0100
0010
0001
0100
0001
1000
0010
0100
,
0010
1000
0001
0100
0001
0010
0100
1000
0001
0100
0010
1000
0001
0010
0100
1000
,
0001
0100
0001
1000
0001
0100
0001
1000
0010
1000
0001
1000
0010
1000
0001
1000
,
0100
0000
0000
0010
0000
0000
0002
0000
0000
0000
0000
0000
1003
0000
0000
0000
0000
0000
0010
0000
0100
0000
0001
0000
0010
0000
0001
0000
0100
0000
0010
0000
1000
0000
0100
0000
1000
0000
0010
0000
0100
0000
0001
0000
1000
0000
0001
0000
,
0100
0000
0000
0010
0000
0000
2000
0000
0000
0000
0000
0000
3001
0000
0000
0000
0000
0000
0010
0000
0100
0000
1000
0000
0010
0000
1000
0000
0100
0000
0010
0000
0001
0000
0100
0000
0001
0000
0010
0000
0100
0000
1000
0000
0001
0000
1000
0000
,
0100
0000
0000
0010
0000
0000
0002
0000
0000
0000
0000
0000
1003
0000
0000
0000
0000
0000
0100
0000
0010
0000
0001
0000
0100
0000
0001
0000
0010
0000
0100
0000
1000
0000
0010
0000
1000
0000
0100
0000
0010
0000
0001
0000
1000
0000
0001
0000
,
0010
0100
2000
0000
3001
0000
0200
0000
0000
0000
0310
0000
2000
0000
0000
0000
,
3001
0010
0100
1000
0001
0010
0100
1000
0001
0010
0100
1000
0001
0010
0100
1000
,
0001
0100
0010
1000
0001
0100
0010
1000
0001
0100
0010
1000
0001
0100
0010
1000
,
0001
0000
0010
0000
0001
0000
1000
0000
0000
0010
0000
0000
0100
0000
0000
0001
0000
0000
0000
0000
0000
1000
0000
0000
0010
0000
0000
0000
0000
0000
0100
0000
0000
0000
0000
0000
0001
0000
0000
0000
0000
0000
1000
0000
0000
0000
0000
0000
,
0001
1000
0100
1000
0010
1000
0001
0100
0001
0010
0001
1000
0010
1000
0001
0010
0001
0100
0010
1000
0001
0100
0001
1000
,
0100
1000
0001
1000
0010
0100
0001
0100
0010
1000
0001
1000
0100
0010
0001
1000
,
0010
1000
0001
1000
0100
0010
0001
0010
0100
1000
0001
1000
0010
0100
0001
1000
,
0100
0010
0100
1000
0001
0100
0010
1000
0100
0010
0001
0100
0010
0100
0001
1000
,
0010
0100
0010
1000
0001
0010
0100
1000
0010
0100
0001
0010
0100
0010
0001
1000
,
0001
0100
0010
1000
0100
1000
0010
0100
0001
1000
0100
1000
0001
1000
0010
0100
,
0001
0010
0100
1000
0010
1000
0100
0010
0001
1000
0010
1000
0001
1000
0100
0010
,
0001
1000
0100
1000
0001
1000
0010
0100
0001
0010
0100
1000
0010
1000
0100
0010
,
0001
1000
0010
1000
0001
1000
0100
0010
0001
0100
0010
1000
0100
1000
0010
0100
,
0001
1000
0001
1000
0010
0100
0001
0100
0010
1000
0001
1000
0100
0010
0001
1000
,
0010
1000
0001
1000
0100
0010
0001
0010
0100
1000
0001
1000
0010
0100
0001
1000
,
0100
0010
0100
1000
0001
0100
0010
1000
0100
0010
0001
0100
0010
0100
0001
1000
,
0010
0100
0010
1000
0001
0010
0100
1000
0010
0100
0001
0010
0100
0010
0001
1000
,
0100
1000
0010
0100
0001
0010
0001
0100
0010
1000
0001
0010
0001
1000
0001
0100
,
0010
1000
0100
0010
0001
0100
0001
0010
0100
1000
0001
0100
0001
1000
0001
0010
,
0100
1000
0001
0010
0001
1000
0001
0100
0010
1000
0100
0010
0001
0100
0001
0010
,
0100
1000
0001
0100
0001
1000
0001
0010
0100
1000
0010
0100
0001
0010
0001
1000
;
