#TITLE:Superstar Friends;
#SUBTITLE:;
#ARTIST:DJKurara;
#TITLETRANSLIT:;
#SUBTITLETRANSLIT:;
#ARTISTTRANSLIT:;
#CREDIT:owenviau1;
#BANNER:../owenviau1 Simfiles 6 (Science X Owen).png;
#BACKGROUND:BG.PNG;
#LYRICSPATH:;
#CDTITLE:;
#MUSIC:DJKurara - Superstar Friends.mp3;
#OFFSET:-0.029;
#SAMPLESTART:67.484;
#SAMPLELENGTH:20.925;
#SELECTABLE:YES;
#DISPLAYBPM:367.000;
#BPMS:0.000=183.500,16.000=366.960;
#STOPS:;
#BGCHANGES:;
// cache tags:
#FIRSTBEAT:16.000;
#LASTBEAT:944.000;
#SONGFILENAME:Songs/owenviau1 Simfiles 6/Superstar Friends - [owenviau1] v1.1.0/Superstar Friends.sm;
#HASMUSIC:1;
#HASBANNER:1;
#MUSICLENGTH:157.074;
// end cache tags

//---------------dance-single - 18 (owenviau1)----------------
#NOTES:
     dance-single:
     18 (owenviau1):
     Hard:
     18:
     1.000,1.000,0.019,0.248,0.618,1594.000,3.000,39.000,0.000,0.000:
0000
0000
0000
0000
,
0000
0000
0000
0000
,
0000
0000
0000
0000
,
0000
0000
0000
0000
,
1000
0100
0010
0000
,
0001
0000
0100
0010
,
0000
1000
0000
0001
,
0100
0000
0010
0000
1000
0100
1000
0000
,
0001
0100
0001
0000
,
1000
0000
0010
0100
,
0000
0001
0000
0100
,
0010
0000
0000
1000
0000
0000
0001
0000
0010
0000
0100
0000
1000
0000
0000
0010
0000
0000
0100
0000
0001
0000
1000
0000
,
0010
1000
0001
0000
,
0100
0000
0010
1000
,
0000
0010
0000
0100
,
0001
0000
0100
0010
0000
0010
1000
0000
,
0100
0010
0001
0000
,
0100
0000
0010
1000
,
0100
0010
0001
0000
0100
0010
1000
0000
,
0001
0000
0000
0100
0000
0000
0010
0000
0000
1000
0000
0000
0001
0000
0010
0000
0100
0000
1000
0000
0000
0001
0000
0000
,
0100
0010
1000
0100
1000
0001
0100
0010
,
1000
0100
0010
0001
0100
0010
1000
0001
,
0020
0031
1000
0100
0010
0001
1000
0100
,
1000
0010
0100
0010
1000
0001
0200
0301
,
2000
3010
1000
0001
0010
0100
1000
0001
,
1000
0100
0010
0001
0100
0010
1000
0010
,
0200
0301
1000
0100
0010
0001
0100
0010
,
0100
0001
2000
3100
0010
0001
0100
0010
,
0100
0001
1000
0010
0100
0010
1000
0100
,
0020
0031
0100
0020
1030
0001
0020
0031
,
2000
3100
1000
0001
0010
0100
1000
0100
,
0020
0031
0100
0020
1030
0001
0200
0301
,
2000
3010
1000
0001
0010
0001
0200
0310
,
2000
3100
0010
0001
0100
0010
1000
0000
,
0001
0000
0100
0000
,
0001
0010
0100
1000
0010
0100
0001
0000
0000
0000
0000
0000
,
1000
0100
0010
0001
0100
0010
1000
0001
,
0010
0001
1000
0100
0010
0001
0100
0010
,
1000
0001
0100
0001
1000
0010
1000
0001
,
0010
0000
0000
0100
0000
0000
1000
0000
0000
0100
0000
0000
0010
0000
0000
0001
0000
0000
1000
0000
0100
0000
0010
0000
,
0001
0100
0001
1000
0100
1000
0010
0100
,
0010
1000
0001
0100
0001
1000
0100
0010
,
0001
0100
0010
1000
0001
0010
0001
0100
,
0010
1000
0100
0010
0001
1000
0010
0100
0001
1000
0010
1000
,
0001
0100
0001
1000
0100
0010
0001
1000
,
0100
1000
0001
0100
0010
1000
0001
0100
,
0001
1000
0100
0010
0001
0100
0010
1000
,
0001
0000
0000
0100
0000
0000
0010
0000
0000
1000
0000
0000
0001
0000
0010
0000
0100
0000
1000
0000
0000
0000
0000
0000
,
0010
0100
0001
1000
0100
1000
0010
0100
,
0001
0000
0000
1000
0000
0000
0100
0000
0000
0010
0000
0000
0001
0000
0100
0000
0010
0000
1000
0000
0100
0000
1000
0000
,
0001
0100
0010
1000
0100
0010
0001
0100
0010
1000
0001
0010
,
0100
1000
0001
0100
0010
1000
0002
0000
0000
0003
0000
0000
,
1000
0100
0010
0001
0100
0010
1000
0001
,
0010
0100
1000
0010
0100
0010
1000
0100
,
0010
0001
0100
0010
0100
0001
1000
0010
,
1000
0000
0000
0001
0000
0000
1000
0100
0010
0001
0100
0001
,
1000
0010
0100
0010
1000
0001
0100
0001
,
1000
0100
0010
0001
0100
0010
0100
0001
,
1000
0001
0100
0010
1000
0100
0010
0001
,
1000
0100
0010
0001
0100
0010
1000
0010
0100
0001
1000
0010
,
0100
0001
1000
0100
0010
0001
0100
0010
,
0100
0001
1000
0100
1000
0001
0100
0010
,
1000
0000
0000
0000
0001
0100
0010
0000
,
0000
0000
0000
0000
0000
0000
1000
0000
0000
0100
0000
0000
0010
0000
0001
0000
1000
0000
0010
0000
0000
0000
0000
0000
,
1000
0100
0010
0001
0100
0010
1000
0001
0100
0001
1000
0100
,
0010
0001
0100
0010
1000
0001
0010
0001
1000
0100
0010
0001
,
1000
0000
2000
0000
,
0000
0000
3001
0000
,
0100
0010
1000
0100
0010
0001
1000
0100
,
1000
0010
0100
0001
1000
0010
0100
0001
,
1000
0100
0010
0001
0010
0100
1000
0001
,
0010
0001
0100
0010
1000
0100
0010
0001
,
1000
0100
1000
0010
0100
0010
1000
0001
,
0100
0001
1000
0010
1000
0001
0010
0100
,
1000
0001
0010
0001
1000
0100
0010
0001
,
0100
0010
1000
0001
1000
0000
0000
0000
,
0001
0100
0010
1000
0001
0010
0001
1000
,
0100
0010
0001
0100
0010
0100
0001
1000
,
0100
1000
0010
0100
0001
0100
0010
1000
,
0100
0000
0000
0010
0000
0000
0001
0000
0000
0100
0000
0000
0010
0000
0000
1000
0000
0000
0001
0000
0010
0000
0100
0000
,
1000
0010
0100
0001
1000
0100
1000
0010
,
0100
0000
0000
0001
0000
0000
1000
0000
0000
0010
0000
0000
0100
0000
0001
0000
1000
0000
0001
0000
0000
0100
0000
0000
,
0010
1000
0001
0010
0200
0000
0300
0000
,
2002
0000
0000
3003
0000
0000
0100
0000
0000
0010
1000
0001
,
0100
0001
0010
0100
1000
0010
0100
0010
,
1000
0001
0100
0001
1000
0010
1000
0001
,
0010
0001
1000
0100
0010
0001
0100
0010
,
1000
0001
0010
0001
1000
0100
1000
0010
,
0100
0010
1000
0001
0010
0001
1000
0100
,
0010
0001
0010
0100
1000
0010
0100
0010
,
1000
0001
0100
0001
1000
0010
1000
0001
,
0100
0010
1000
0001
0010
0001
1000
0100
0010
0001
0100
0010
,
1000
0001
0100
0001
1000
0000
0000
0000
,
1000
0100
0010
0001
1000
0000
0000
0000
,
0010
0100
0001
1000
0010
0000
0000
0000
,
0100
0000
0000
0010
0000
0000
1000
0000
0100
0000
0010
0000
0001
0000
0000
0100
0000
0000
0010
0000
1000
0000
0001
0000
,
0100
0000
0000
0001
0000
0000
1000
0000
0000
0100
0000
0000
0010
0000
0001
0000
1000
0000
0100
0000
1000
0000
0010
0000
,
0100
0001
1000
0100
0010
0001
0100
0010
1000
0001
0010
0001
,
1000
0100
0010
0001
0100
0010
2000
0000
0000
0000
0000
0000
,
3002
0103
0010
1000
,
0100
1000
0001
0100
,
0010
1000
0001
0100
0010
1000
0100
0010
,
0001
0100
0010
1000
,
0100
1000
0001
0100
,
0001
1000
0010
0100
,
0001
0010
0100
1000
0010
0100
0010
1000
,
0001
0100
0010
1000
,
0100
0010
0001
1000
,
0001
0100
0010
1000
,
0001
0010
0100
1000
0100
0010
0001
1000
,
0010
0100
0001
0010
,
0001
1000
0100
1000
,
0100
0001
1000
0010
,
1000
0100
0010
0001
0100
0010
1000
0001
,
0010
0100
1000
0001
0100
0001
1000
0010
,
0200
0301
1000
0100
1000
0010
0100
0001
,
1000
0100
0010
0001
0100
0010
1000
0001
,
0010
0001
1000
0100
0010
0001
0100
0010
,
1000
0001
0100
0001
1000
0010
1000
0001
,
0010
0100
1000
0100
0010
0001
1000
0010
,
1000
0001
0100
0010
1000
0001
0010
0001
,
1000
0100
0010
0001
0100
0010
1000
0001
,
0100
0001
1000
0010
0100
0001
1000
0100
,
0020
0031
1000
0100
1000
0010
0100
0010
,
1000
0001
0100
0001
1000
0100
0010
0001
,
0200
0310
1000
0001
0010
0001
1000
0100
,
0010
0001
0100
0010
1000
0001
0100
0001
,
2000
3100
1000
0010
0200
0301
1000
0100
,
0020
0031
0100
0010
2000
3001
0010
0001
,
2000
3100
0010
0001
0100
0010
1000
0001
,
0010
0001
1000
0100
1000
0010
0100
0001
,
1000
0100
0010
0001
0100
0010
1000
0001
,
0010
0001
1000
0100
0010
0001
0100
0010
,
1000
0001
0100
0001
1000
0010
1000
0001
,
0010
0000
0000
0100
0000
0000
1000
0000
0000
0100
0000
0000
0010
0000
0000
0001
0000
0000
1000
0000
0100
0000
0010
0000
,
0001
0100
0001
1000
0100
1000
0010
0100
,
0010
1000
0001
0100
0001
1000
0100
0010
,
0001
0100
0010
1000
0001
0010
0001
0100
,
0010
1000
0100
0010
0001
1000
0010
0100
0001
1000
0010
1000
,
0001
0100
0001
1000
0100
0010
0001
1000
,
0100
1000
0001
0100
0010
1000
0001
0100
,
0001
1000
0100
0010
0001
0100
0010
1000
,
0001
0000
0000
0100
0000
0000
0010
0000
0000
1000
0000
0000
0001
0000
0010
0000
0100
0000
1000
0000
0000
0000
0000
0000
,
0010
0100
0001
1000
0100
1000
0010
0100
,
0001
0000
0000
1000
0000
0000
0100
0000
0000
0010
0000
0000
0001
0000
0100
0000
0010
0000
1000
0000
0100
0000
1000
0000
,
0001
0100
0010
1000
0100
0010
0001
0100
0010
1000
0001
0010
,
0100
1000
0001
0100
0010
1000
0002
0000
0000
0003
0000
0000
,
1000
0100
0010
0001
0100
0010
1000
0001
,
0010
0100
1000
0010
0100
0010
1000
0100
,
0010
0001
0100
0010
0100
0001
1000
0010
,
1000
0000
0000
0001
0000
0000
1000
0100
0010
0001
0100
0001
,
1000
0010
0100
0010
1000
0001
0100
0001
,
1000
0100
0010
0001
0100
0010
0100
0001
,
1000
0001
0100
0010
1000
0100
0010
0001
,
1000
0100
0010
0001
0100
0010
1000
0010
0100
0001
1000
0010
,
0100
0001
1000
0100
0010
0001
0100
0010
,
0100
0001
1000
0100
1000
0001
0100
0010
,
1000
0000
0000
0000
0001
0100
0010
0000
,
0000
0000
0000
0000
0000
0000
1000
0000
0000
0100
0000
0000
0010
0000
0001
0000
1000
0000
0010
0000
0000
0000
0000
0000
,
1000
0100
0010
0001
0100
0010
1000
0001
0100
0001
1000
0100
,
0010
0001
0100
0010
1000
0001
0010
0001
1000
0100
0010
0001
,
1000
0000
2000
0000
,
0000
0000
3001
0000
,
0100
0001
1000
0100
0010
0001
1000
0100
,
1000
0010
0100
0001
1000
0010
0100
0001
,
1000
0100
0010
0001
0010
0100
1000
0001
,
0010
0001
0100
0010
1000
0100
0010
0001
,
1000
0100
1000
0010
0100
0010
1000
0001
,
0100
0001
1000
0010
1000
0001
0010
0100
,
1000
0001
0010
0001
1000
0100
0010
0001
,
0100
0010
1000
0001
1000
0000
0000
0000
,
0001
0100
0010
1000
0001
0010
0001
1000
,
0100
0010
0001
0100
0010
0100
0001
1000
,
0100
1000
0010
0100
0001
0100
0010
1000
,
0100
0000
0000
0010
0000
0000
0001
0000
0000
0100
0000
0000
0010
0000
0000
1000
0000
0000
0001
0000
0010
0000
0100
0000
,
1000
0010
0100
0001
1000
0100
1000
0010
,
0100
0000
0000
0001
0000
0000
1000
0000
0000
0010
0000
0000
0100
0000
0001
0000
1000
0000
0001
0000
0000
0100
0000
0000
,
0010
1000
0001
0010
0200
0000
0300
0000
,
2002
0000
0000
3003
0000
0000
0100
0000
0000
0010
1000
0001
,
0100
0001
0010
0100
1000
0010
0100
0010
,
1000
0001
0100
0001
1000
0010
1000
0001
,
0010
0001
1000
0100
0010
0001
0100
0010
,
1000
0001
0010
0001
1000
0100
1000
0010
,
0100
0010
1000
0001
0010
0001
1000
0100
,
0010
0001
0010
0100
1000
0010
0100
0010
,
1000
0001
0100
0001
1000
0010
1000
0001
,
0100
0010
1000
0001
0010
0001
1000
0100
0010
0001
0100
0010
,
1000
0001
0100
0001
1000
0000
0000
0000
,
1000
0100
0010
0001
1000
0000
0000
0000
,
0010
0100
0001
1000
0010
0000
0000
0000
,
0100
0000
0000
0010
0000
0000
1000
0000
0100
0000
0010
0000
0001
0000
0000
0100
0000
0000
0010
0000
1000
0000
0001
0000
,
0100
0000
0000
0001
0000
0000
1000
0000
0000
0100
0000
0000
0010
0000
0001
0000
1000
0000
0100
0000
1000
0000
0010
0000
,
0100
0001
1000
0100
0010
0001
0100
0010
1000
0001
0010
0001
,
1000
0100
0010
0001
0100
0010
2000
0000
0000
0000
0000
0000
,
3001
0100
0010
1000
0001
1000
0100
0010
,
0001
0100
0010
1000
0001
0100
0001
1000
,
0010
0100
0010
1000
0001
0010
0001
1000
,
0100
0010
0001
0100
0010
1000
0001
0100
,
0001
1000
0010
1000
0001
0010
0001
1000
,
0100
0010
0001
0100
0010
1000
0001
0010
,
0001
1000
0100
1000
0010
0100
0010
1000
,
0001
0100
0001
1000
0010
1000
0001
0010
,
0001
1000
0100
0010
0001
0100
0010
1000
,
0001
0100
0010
1000
0001
0010
0001
1000
,
0100
0010
0001
0100
0010
1000
0001
0010
,
0100
1000
0100
0010
0001
1000
0100
1000
,
0010
0100
0010
1000
0001
0100
0001
1000
,
0100
0010
0001
0100
0010
1000
0001
0010
,
0001
1000
0100
1000
0010
0100
0010
1000
,
0001
0100
0001
1000
0100
0010
0001
0100
,
0020
1030
0100
0010
,
0001
0100
0010
0100
,
0010
1000
0001
1000
,
0100
0010
0001
0100
,
0010
1000
0001
0010
,
0001
0100
0010
1000
,
0001
0010
0001
1000
,
0100
1000
0010
0100
,
0010
1000
0001
0100
,
0001
1000
0100
0010
,
0001
0100
0010
1000
,
0001
0010
0001
1000
,
0100
1000
0010
0100
,
0010
1000
0001
0010
,
0001
1000
0100
0010
,
0001
0100
0010
1000
,
2002
0000
0000
0000
,
0000
0000
0000
0000
,
0000
0000
0000
0000
,
0000
0000
0000
0000
,
0000
0000
0000
0000
,
0000
0000
0000
0000
,
0000
0000
0000
0000
,
0000
0000
0000
0000
,
0000
0000
0000
0000
,
0000
0000
0000
0000
,
3003
0000
0000
0000
;

//---------------dance-single - 25 (owenviau1)----------------
#NOTES:
     dance-single:
     25 (owenviau1):
     Challenge:
     25:
     1.000,1.000,0.019,0.248,0.605,1688.000,3.000,39.000,0.000,0.000:
0000
0000
0000
0000
,
0000
0000
0000
0000
,
0000
0000
0000
0000
,
0000
0000
0000
0000
,
1000
0100
0010
0000
,
0001
0000
0100
0010
,
0000
1000
0000
0001
,
0100
0000
0010
0000
1000
0100
1000
0000
,
0001
0100
0001
0000
,
1000
0000
0010
0100
,
0000
0001
0000
0100
,
0010
0000
1000
0000
0001
0010
0100
1000
0001
0000
0100
0000
0010
1000
0001
0100
,
0010
1000
0001
0000
,
0100
0000
0010
1000
,
0000
0001
0000
0010
,
0100
0000
1000
0001
0000
1000
0010
0000
,
0100
0001
1000
0000
,
0010
0000
0100
0001
,
1000
0010
0100
0000
0001
1000
0010
0000
,
0100
0000
0001
0000
0010
0000
0001
0000
1000
0010
0100
0001
1000
0000
0001
0000
,
0100
0010
1000
0100
1000
0001
0100
0010
,
1000
0100
0010
0001
0100
0010
1000
0001
,
0020
0031
1000
0100
0010
0001
1000
0100
,
1000
0010
0100
0010
1000
0001
0200
0301
,
2000
3010
1000
0001
0010
0100
1000
0001
,
1000
0100
0010
0001
0100
0010
1000
0010
,
0200
0301
1000
0100
0010
0001
0100
0010
,
0100
0001
2000
3100
0010
0001
0100
0010
,
0100
0001
1000
0010
0100
0010
1000
0100
,
0020
0031
0100
0020
1030
0001
0020
0031
,
2000
3100
1000
0001
0010
0100
1000
0100
,
0020
0031
0100
0020
1030
0001
0200
0301
,
2000
3010
1000
0001
0010
0001
0200
0310
,
2000
3100
0010
0001
0100
0010
1000
0000
,
0001
0000
0100
0000
,
0001
0010
0100
1000
0010
0100
0010
1000
0001
0000
0000
0000
0000
0000
0000
0000
,
1000
0100
0010
0001
0100
0010
1000
0001
,
0010
0001
1000
0100
0010
0001
0100
0010
,
1000
0001
0100
0001
1000
0010
1000
0001
,
0010
0000
0100
0000
1000
0000
0100
0000
0010
0000
0001
0000
1000
0010
0100
0001
,
1000
0010
0100
0001
1000
0100
1000
0010
,
0100
0010
1000
0001
0100
0001
1000
0100
,
0010
0001
0100
0010
1000
0001
0010
0001
,
1000
0100
0010
0001
0100
0010
1000
0001
0100
0010
1000
0000
0001
0100
0010
0000
,
1000
0001
0100
0010
1000
0001
0010
0001
,
1000
0100
1000
0010
0100
0010
1000
0001
,
0100
0001
1000
0100
0010
0001
0100
0010
,
1000
0000
0001
0000
0010
0000
0100
0000
1000
0010
0100
0001
1000
0000
0000
0000
,
0010
0100
0001
1000
0100
1000
0010
0100
,
0001
0000
1000
0000
0100
0000
0010
0000
0001
0100
0010
1000
0100
0010
0001
1000
,
0100
1000
0001
0010
0100
1000
0001
0100
0010
1000
0001
0100
0001
1000
0100
0010
,
0001
1000
0100
1000
0010
0100
0001
1000
0020
0000
0000
0000
0030
0000
0000
0000
,
1000
0100
0010
0001
0100
0010
1000
0001
,
0010
0100
1000
0010
0100
0010
1000
0100
,
0010
0001
0100
0010
0100
0001
1000
0010
,
1000
0000
0000
0000
0001
0000
0000
0000
1000
0100
0010
0001
0100
0010
1000
0001
,
0100
0010
1000
0100
1000
0001
0010
0001
,
1000
0100
0010
0001
0100
0010
0100
0001
,
1000
0001
0100
0010
1000
0100
0010
0001
,
1000
0100
0010
0001
0100
0010
1000
0001
0010
0100
1000
0010
0100
0001
1000
0010
,
0100
0001
1000
0100
0010
0001
0100
0010
,
0100
0001
1000
0100
1000
0001
0100
0010
,
1000
0000
0000
0000
0001
0100
0010
0000
,
0000
0000
0000
0000
1000
0000
0100
0000
0010
0001
1000
0010
0100
0000
0000
0000
,
0001
0010
0100
1000
0010
0100
0001
1000
0100
0010
0001
0100
0010
1000
0001
0010
,
0100
1000
0010
0100
0001
1000
0100
0010
0001
0100
0010
1000
0001
0010
0100
1000
,
0001
0000
2000
0000
,
0000
0000
3001
0000
,
0100
0010
1000
0100
0010
0001
1000
0100
,
1000
0010
0100
0001
1000
0010
0100
0001
,
1000
0100
0010
0001
0010
0100
1000
0001
,
0010
0001
0100
0010
1000
0100
0010
0001
,
1000
0100
1000
0010
0100
0010
1000
0001
,
0100
0001
1000
0010
1000
0001
0010
0100
,
1000
0001
0010
0001
1000
0100
0010
0001
,
0100
0010
1000
0001
1000
0000
0000
0000
,
0001
0100
0010
1000
0001
0010
0001
1000
,
0100
0010
0001
0100
0010
0100
0001
1000
,
0100
1000
0010
0100
0001
0100
0010
1000
,
0100
0000
0010
0000
0001
0000
0100
0000
0010
0000
1000
0000
0001
0010
0100
1000
,
0001
0100
0010
1000
0100
1000
0001
0100
,
0010
0000
1000
0000
0010
0000
0100
0000
0001
0010
0100
1000
0001
0000
0100
0000
,
0010
1000
0001
0010
0200
0000
0300
0000
,
2002
0000
0000
0000
3003
0000
0000
0000
0100
0000
0000
0000
0010
1000
0001
0100
,
0010
1000
0001
0010
0100
1000
0010
0100
,
0010
1000
0001
0100
0001
1000
0010
1000
,
0001
0010
0001
1000
0100
0010
0001
0100
,
0010
1000
0001
0010
0001
1000
0100
1000
,
0010
0100
0010
1000
0001
0010
0001
1000
,
0100
0010
0001
0010
0100
1000
0010
0100
,
0010
1000
0001
0100
0001
1000
0010
1000
,
0001
0100
0010
1000
0100
0010
0001
0100
0010
1000
0001
0010
0100
1000
0010
0100
,
0001
0010
0100
1000
0001
0000
0000
0000
,
1000
0100
0010
0001
1000
0000
0000
0000
,
0010
0100
0001
1000
0010
0000
0000
0000
,
0100
0000
0010
0000
1000
0100
0010
0001
1000
0000
0010
0000
0100
0001
1000
0010
,
0100
0000
0001
0000
1000
0000
0100
0000
0010
0001
1000
0010
0100
0001
1000
0100
,
1000
0010
0100
0001
1000
0100
0010
0001
0100
0010
1000
0001
0010
0100
1000
0100
,
0010
0001
0100
0010
1000
0001
0100
0010
2000
0000
0000
0000
0000
0000
0000
0000
,
3002
0103
0010
1000
,
0100
1000
0001
0100
,
0010
1000
0001
0100
0010
1000
0100
0010
,
0001
0100
0010
1000
,
0100
1000
0001
0100
,
0001
1000
0010
0100
,
0001
0010
0100
1000
0010
0100
0010
1000
,
0001
0100
0010
1000
,
0100
0010
0001
1000
,
0001
0100
0010
1000
,
0001
0010
0100
1000
0100
0010
0001
1000
,
0010
0100
0001
0010
,
0001
1000
0100
1000
,
0100
0001
1000
0010
,
1000
0100
0010
0001
0100
0010
1000
0001
,
0010
0100
1000
0001
0100
0001
1000
0010
,
0200
0301
1000
0100
1000
0010
0100
0001
,
1000
0100
0010
0001
0100
0010
1000
0001
,
0010
0001
1000
0100
0010
0001
0100
0010
,
1000
0001
0100
0001
1000
0010
1000
0001
,
0010
0100
1000
0100
0010
0001
1000
0010
,
1000
0001
0100
0010
1000
0001
0010
0001
,
1000
0100
0010
0001
0100
0010
1000
0001
,
0100
0001
1000
0010
0100
0001
1000
0100
,
0020
0031
1000
0100
1000
0010
0100
0010
,
1000
0001
0100
0001
1000
0100
0010
0001
,
0200
0310
1000
0001
0010
0001
1000
0100
,
0010
0001
0100
0010
1000
0001
0100
0001
,
2000
3100
1000
0010
0200
0301
1000
0100
,
0020
0031
0100
0010
2000
3001
0010
0001
,
2000
3100
0010
0001
0100
0010
1000
0001
,
0010
0001
1000
0100
1000
0010
0100
0001
,
1000
0100
0010
0001
0100
0010
1000
0001
,
0010
0001
1000
0100
0010
0001
0100
0010
,
1000
0001
0100
0001
1000
0010
1000
0001
,
0010
0000
0100
0000
1000
0000
0100
0000
0010
0000
0001
0000
1000
0010
0100
0001
,
1000
0010
0100
0001
1000
0100
1000
0010
,
0100
0010
1000
0001
0100
0001
1000
0100
,
0010
0001
0100
0010
1000
0001
0010
0001
,
1000
0100
0010
0001
0100
0010
1000
0001
0100
0010
1000
0000
0001
0100
0010
0000
,
1000
0001
0100
0010
1000
0001
0010
0001
,
1000
0100
1000
0010
0100
0010
1000
0001
,
0100
0001
1000
0100
0010
0001
0100
0010
,
1000
0000
0001
0000
0010
0000
0100
0000
1000
0010
0100
0001
1000
0000
0000
0000
,
0010
0100
0001
1000
0100
1000
0010
0100
,
0001
0000
1000
0000
0100
0000
0010
0000
0001
0100
0010
1000
0100
0010
0001
0100
,
0010
0100
0001
1000
0100
0010
0001
0100
0010
1000
0001
0010
0001
1000
0100
0010
,
0001
0100
0010
1000
0001
0100
0001
1000
0020
0000
0000
0000
0030
0000
0000
0000
,
1000
0100
0010
0001
0100
0010
1000
0001
,
0010
0100
1000
0010
0100
0010
1000
0100
,
0010
0001
0100
0010
0100
0001
1000
0010
,
1000
0000
0000
0000
0001
0000
0000
0000
1000
0100
0010
0001
0100
0010
1000
0001
,
0100
0010
1000
0100
1000
0001
0010
0001
,
1000
0100
0010
0001
0100
0010
0100
0001
,
1000
0001
0100
0010
1000
0100
0010
0001
,
1000
0100
0010
0001
0100
0010
1000
0001
0010
0100
1000
0010
0100
0001
1000
0010
,
0100
0001
1000
0100
0010
0001
0100
0010
,
0100
0001
1000
0100
1000
0001
0100
0010
,
1000
0000
0000
0000
0001
0100
0010
0000
,
0000
0000
0000
0000
1000
0000
0100
0000
0010
0001
1000
0010
0100
0000
0000
0000
,
0001
0010
0100
1000
0010
0100
0001
1000
0100
0010
0001
0100
0010
1000
0001
0010
,
0100
1000
0010
0100
0001
1000
0100
0010
0001
0100
0010
1000
0001
0010
0100
1000
,
0001
0000
2000
0000
,
0000
0000
3001
0000
,
1000
0010
0100
0001
1000
0001
0010
0100
,
1000
0010
0100
0001
1000
0010
0100
0001
,
1000
0100
0010
0001
0010
0100
1000
0001
,
0010
0001
0100
0010
1000
0100
0010
0001
,
1000
0100
1000
0010
0100
0010
1000
0001
,
0100
0001
1000
0010
1000
0001
0010
0100
,
1000
0001
0010
0001
1000
0100
0010
0001
,
0100
0010
1000
0001
1000
0000
0000
0000
,
0001
0100
0010
1000
0001
0010
0001
1000
,
0100
0010
0001
0100
0010
0100
0001
1000
,
0100
1000
0010
0100
0001
0100
0010
1000
,
0100
0000
0010
0000
0001
0000
0100
0000
0010
0000
1000
0000
0001
0010
0100
1000
,
0001
0100
0010
1000
0100
1000
0001
0100
,
0010
0000
1000
0000
0010
0000
0100
0000
0001
0010
0100
1000
0001
0000
0100
0000
,
0010
1000
0001
0010
0200
0000
0300
0000
,
2002
0000
0000
0000
3003
0000
0000
0000
0100
0000
0000
0000
0010
1000
0001
0100
,
0010
1000
0001
0010
0100
1000
0010
0100
,
0010
1000
0001
0100
0001
1000
0010
1000
,
0001
0010
0001
1000
0100
0010
0001
0100
,
0010
1000
0001
0010
0001
1000
0100
1000
,
0010
0100
0010
1000
0001
0010
0001
1000
,
0100
0010
0001
0010
0100
1000
0010
0100
,
0010
1000
0001
0100
0001
1000
0010
1000
,
0001
0100
0010
1000
0100
0010
0001
0100
0010
1000
0001
0010
0100
1000
0010
0100
,
0001
0010
0100
1000
0001
0000
0000
0000
,
1000
0100
0010
0001
1000
0000
0000
0000
,
0010
0100
0001
1000
0010
0000
0000
0000
,
0100
0000
0010
0000
1000
0100
0010
0001
1000
0000
0010
0000
0100
0001
1000
0010
,
0100
0000
0001
0000
1000
0000
0010
0000
0100
0001
1000
0100
0010
0001
0100
0010
,
1000
0001
0010
0001
1000
0100
0010
0001
0100
0010
1000
0001
0010
0100
1000
0100
,
0010
0001
0100
0010
1000
0001
0100
0001
2000
0000
0000
0000
0000
0000
3001
0000
,
0100
0010
1000
0001
0010
0001
1000
0100
,
0010
0001
0100
0010
1000
0001
0100
0001
,
1000
0010
0100
0010
1000
0001
0010
0001
,
1000
0100
0010
0001
0100
0010
1000
0001
,
0100
0001
1000
0010
1000
0001
0010
0001
,
1000
0100
0010
0001
0100
0010
1000
0001
,
0010
0001
1000
0100
1000
0010
0100
0010
,
1000
0001
0100
0001
1000
0010
1000
0001
,
0010
0001
1000
0100
0010
0001
0100
0010
,
1000
0001
0100
0010
1000
0001
0010
0001
,
1000
0100
0010
0001
0100
0010
1000
0001
,
0010
0100
1000
0100
0010
0001
1000
0100
,
1000
0010
0100
0010
1000
0001
0100
0001
,
1000
0100
0010
0001
0100
0010
1000
0001
,
0010
0001
1000
0100
1000
0010
0100
0010
,
1000
0001
0100
0001
1000
0100
0010
0001
,
2000
3010
0100
0001
,
1000
0010
0100
0001
,
0100
0010
1000
0001
,
1000
0100
0010
0001
,
0100
0010
1000
0001
,
0010
0001
0100
0010
,
1000
0001
0010
0001
,
1000
0100
1000
0010
,
0100
0010
1000
0001
,
0100
0001
1000
0100
,
0010
0001
0100
0010
,
1000
0001
0010
0001
,
1000
0100
1000
0010
,
0100
0010
1000
0001
,
0010
0001
1000
0010
,
0100
0010
1000
0001
,
2002
0000
0000
0000
,
0000
0000
0000
0000
,
0000
0000
0000
0000
,
0000
0000
0000
0000
,
0000
0000
0000
0000
,
0000
0000
0000
0000
,
0000
0000
0000
0000
,
0000
0000
0000
0000
,
0000
0000
0000
0000
,
0000
0000
0000
0000
,
3003
0000
0000
0000
;
