#TITLE:Mindblowin';
#SUBTITLE:;
#ARTIST:Brisk & Fade;
#TITLETRANSLIT:;
#SUBTITLETRANSLIT:;
#ARTISTTRANSLIT:;
#CREDIT:;
#BANNER:Mindblowin' - banner.png;
#BACKGROUND:Mindblowin' - bg.png;
#LYRICSPATH:;
#CDTITLE:pfx - icon.png;
#MUSIC:18-brisk.&.fade-mindblowin'.mp3;
#OFFSET:-0.112;
#SAMPLESTART:84.524;
#SAMPLELENGTH:12.000;
#SELECTABLE:YES;
#BPMS:0.000=181.750,192.000=90.875,224.000=181.750;
#STOPS:;
#BGCHANGES:;
// cache tags:
#FIRSTBEAT:0.000;
#LASTBEAT:352.000;
#SONGFILENAME:Songs/Keyboard Collaboration II/Pfx - Mindblowin'/Mindblowin'.sm;
#HASMUSIC:1;
#HASBANNER:1;
#MUSICLENGTH:147.913;
// end cache tags

//---------------dance-single - ----------------
#NOTES:
     dance-single:
     :
     Hard:
     11:
     1.000,1.000,0.690,0.088,1.000,1072.000,102.000,13.000,0.000,1.000:  // measure 1
1001
0100
0010
0100
1000
0010
0100
0001
,  // measure 2
0110
1000
0100
0010
0001
1000
0011
0011
,  // measure 3
0101
1000
0010
0100
0010
1000
0100
0010
,  // measure 4
0011
1000
0010
0100
0101
1010
0011
0011
,  // measure 5
1001
1000
0010
0100
0001
1000
0001
0010
,  // measure 6
1100
0010
1000
0001
0100
0001
1100
1100
,  // measure 7
1010
0001
1000
0010
1001
1000
0100
0010
,  // measure 8
0101
1000
0110
0001
1100
0010
0101
1000
,  // measure 9
0110
0001
1000
0000
1010
0100
0001
0000
0011
0100
1000
0000
0000
0000
1100
0000
,  // measure 10
1100
0010
0001
0000
0110
1000
0001
0000
1100
0010
0001
0000
0000
0000
1001
0000
,  // measure 11
1001
0100
0010
0000
0011
0100
1000
0000
1100
0001
0010
0000
0000
0000
0110
0000
,  // measure 12
0110
0001
1000
0000
1010
0100
0001
0000
1001
0100
0010
0000
0000
0000
1100
0000
,  // measure 13
1100
0010
0001
0000
0011
0100
1000
0000
1001
0100
0010
0000
0000
0000
0011
0000
,  // measure 14
0011
0100
1000
0000
1001
0100
0010
0000
0110
0001
1000
0000
0000
0000
1010
0000
,  // measure 15
1010
0001
0010
0000
1100
0010
0001
0000
0101
0010
1000
0000
0000
0000
1001
0000
,  // measure 16
1001
0100
0010
0000
0011
0100
1000
0000
1010
0001
0100
0010
1000
0100
0010
0001
,  // measure 17
1001
0100
0010
0000
0001
0010
0100
0000
1000
0010
0100
0000
0001
0000
1000
0000
,  // measure 18
0100
0010
0001
0000
0001
1000
0100
0000
0010
0001
1000
0000
0100
0000
0010
0000
,  // measure 19
0001
1000
0001
0000
0010
0100
1000
0000
1000
0010
0100
0000
0001
0000
0010
0000
,  // measure 20
0100
1000
0001
0000
0001
0100
1000
0000
1000
0100
0001
0000
0001
0000
0100
0000
,  // measure 21
0010
1000
0100
0000
0100
0010
0001
0000
0001
1000
0010
0000
0001
0100
0010
1000
,  // measure 22
0100
0010
0001
0000
0001
0010
0100
0000
0100
1000
0010
0000
0101
0000
0000
0000
,  // measure 23
0001
1000
0001
0000
0001
0010
0100
0000
0100
0010
0001
0000
0001
1000
0010
0100
,  // measure 24
0001
0010
0100
0000
0100
1000
0010
0000
0010
0100
0001
0000
0101
0000
0000
0000
,  // measure 25
1001
0100
0010
0100
1000
0010
0100
0001
1000
0001
0100
0000
0001
0000
0010
0000
,  // measure 26
0101
1000
0010
1000
0100
0010
0001
0010
0100
1000
0010
0000
0101
0000
0000
0000
,  // measure 27
0011
0100
1000
0010
0100
0001
1000
0001
0100
0010
1000
0000
0001
0000
1000
0000
,  // measure 28
0110
0001
1000
0100
0010
0100
1000
0001
0010
0001
1000
0000
0110
0000
0000
0000
,  // measure 29
1100
0010
0001
1000
0001
1000
0010
0100
0001
1000
0100
0000
0010
0000
0001
0000
,  // measure 30
1100
0010
0001
1000
0010
0100
0001
1000
0010
1000
0100
0000
1100
0000
0000
0000
,  // measure 31
1001
0100
0010
0001
1000
0010
0100
0001
1000
0010
1000
0000
0100
0000
0010
0000
,  // measure 32
0011
0100
1000
0010
0100
0001
1000
0100
0010
0001
1000
0100
1000
0100
1000
0100
,  // measure 33
0011
1000
0100
0010
0001
0010
0100
0000
1000
0001
0100
0000
0010
0000
0100
0000
,  // measure 34
0001
0100
0010
0000
1000
0010
0100
0000
0001
1000
0100
0000
0010
0000
0001
0000
,  // measure 35
1000
0100
1000
0010
0100
0001
0010
0000
0100
1000
0010
0000
0100
0000
0001
0000
,  // measure 36
1000
0100
0010
0000
0001
0010
0100
0000
1000
0001
0010
0000
0100
0000
1000
0000
,  // measure 37
0110
0001
1000
0010
0100
0001
1000
0000
0100
0010
0001
0000
1000
0000
0001
0000
,  // measure 38
1000
0001
0100
0000
0001
0010
0100
0000
1000
0010
0100
0000
0001
0000
1000
0000
,  // measure 39
0110
0001
1000
0100
0010
0001
0100
0000
0010
1000
0100
0000
0010
0000
0001
0000
,  // measure 40
1001
0000
0000
0000
0000
0000
1100
0000
0011
0000
0001
0010
1100
0000
0000
0000
,  // measure 41
2010
0100
0001
3010
0102
0010
1000
0103
,  // measure 42
0210
1000
0010
0301
1002
0100
0010
1003
,  // measure 43
2100
0001
0010
3100
0210
1000
0010
1300
,  // measure 44
0102
0010
1000
0103
2001
0010
0010
3000
,  // measure 45
2100
0001
0100
0010
,  // measure 46
0100
0000
0001
0000
0010
0000
0100
0100
,  // measure 47
0010
0000
0001
0001
0100
0000
0001
0001
,  // measure 48
0010
0000
0100
0000
0001
0000
0100
0000
0010
0000
0100
0000
0001
0100
0001
0000
,  // measure 49
3002
0000
0000
0000
0000
0000
1000
0000
0000
0010
0000
0000
1000
0000
0000
0010
0000
0000
0100
0000
0100
0000
0000
1000
,  // measure 50
0000
0000
0000
0000
0000
0000
0000
0000
0000
0000
0000
0000
1000
0000
0000
0000
0000
0000
0010
0000
0000
0000
0000
0000
0100
0000
0000
0100
0000
0000
0010
0000
0000
0000
0000
0000
1000
0000
0000
0000
0010
0000
0000
0000
0000
0000
0100
0000
,  // measure 51
2003
0000
0000
0000
0000
0000
0000
0000
0000
0000
0000
0000
0100
0000
0000
0010
0000
0000
0001
0000
0000
0010
0000
0000
0000
0000
0000
0001
0000
0000
0000
0000
0100
0000
0000
0000
0001
0000
0000
0000
0100
0000
0000
0000
0000
0000
0000
0000
,  // measure 52
3020
0000
1000
1000
0100
0001
0000
0001
0000
0000
0100
0000
,  // measure 53
1030
0100
0011
0100
1000
0100
0011
0100
1000
0100
0011
0100
1000
0100
0011
0100
,  // measure 54
0001
0010
1100
0010
0001
0010
1100
0010
0001
0010
1100
0010
0001
0010
1100
0010
,  // measure 55
0001
0100
0001
0100
0010
0100
0001
0100
0001
0100
0001
0100
0010
0100
0001
0100
0001
0100
0001
0100
0010
0100
0001
0100
0001
0100
0001
0100
0010
0100
0001
0100
,  // measure 56
0010
1000
0010
1000
0100
1000
0010
1000
0010
1000
0010
1000
0100
1000
0010
1000
0110
0000
0000
0000
0000
0000
0000
0000
1001
0000
0000
0000
1001
0000
0000
0000
,  // measure 57
1001
0100
0010
0100
1000
0001
0100
0001
1000
0010
0100
0001
1000
0010
0100
0010
,  // measure 58
1000
0100
0010
0001
0010
0100
1000
0010
0100
0001
0010
0100
1000
0001
0010
0001
,  // measure 59
1000
0100
0010
0100
1000
0001
0010
0100
0010
0001
1000
0010
1000
0010
0100
0001
,  // measure 60
0010
0100
1000
0001
0010
0001
0100
0010
1000
0100
0010
0001
1000
0010
0100
0010
,  // measure 61
1000
0100
0010
0100
1000
0001
0100
0010
0100
0001
1000
0100
0010
0100
1000
0010
,  // measure 62
0100
0001
0010
0100
1000
0010
0100
0001
0100
0010
1000
0001
1000
0100
1000
0010
,  // measure 63
0100
0001
1000
0100
1000
0001
0010
0100
1000
0010
0100
0001
1000
0010
0100
0010
,  // measure 64
1000
0100
0010
0001
0010
0001
1000
0001
0100
0010
1000
0100
0010
0001
1000
0100
,  // measure 65
0011
0000
1000
0010
1000
0000
0001
1000
0001
0000
1000
0100
1000
0000
0010
0100
,  // measure 66
0010
0000
1000
0001
1000
0000
0001
0010
0001
0000
0100
0010
0100
0000
0001
0100
,  // measure 67
0001
0000
1000
0001
1000
0000
0010
0100
0010
0000
1000
0100
1000
0000
0001
1000
,  // measure 68
0001
0000
1000
0010
1000
0000
0100
0010
0100
0000
1000
0001
1000
0010
0100
0001
,  // measure 69
1000
0000
0100
0010
0001
0000
0001
1000
0100
0000
0010
0001
1000
0010
0100
0001
,  // measure 70
1000
0000
0010
1000
0100
0000
0010
0001
1000
0000
0010
1000
0100
1000
0010
0100
,  // measure 71
0001
0000
1000
0010
0100
0000
0001
1000
0100
0000
0010
0001
1000
0010
0100
0001
,  // measure 72
1000
0000
0100
0010
0001
0000
0001
1000
0010
0000
0100
0010
1000
0001
1000
0001
,  // measure 73
1100
0010
0001
1000
0010
0100
0001
0010
0001
1000
0010
0100
0010
1000
0100
0010
,  // measure 74
0001
0010
0100
0010
0001
1000
0010
1000
0010
0100
0001
1000
0100
1000
0010
1000
,  // measure 75
0100
0010
0001
0100
0001
0010
0001
1000
0010
0100
0001
0100
0010
1000
0100
0010
,  // measure 76
0001
0010
0100
1000
0010
0100
0001
0010
0001
0010
0100
1000
0100
0010
0001
1000
,  // measure 77
0110
0001
0010
0100
1000
0100
0010
0100
1000
0001
0010
0100
0010
0001
0010
0100
,  // measure 78
1000
0100
1000
0010
0100
0001
0100
0010
1000
0100
1000
0100
0010
0100
1000
0100
,  // measure 79
0011
1000
0100
0010
0001
1000
0010
0100
0001
1000
0100
0010
0001
0010
0100
1000
,  // measure 80
0001
0000
0100
0000
0010
0000
1000
0000
0100
0000
1000
0000
0100
0000
0010
0000
0001
0000
1000
0000
0001
1000
0100
0010
0001
0000
0000
0000
0000
0000
0000
0000
,  // measure 81
1100
0010
0001
1000
0100
0010
0001
0010
0100
1000
0010
0100
0010
1000
0001
0100
,  // measure 82
0001
0010
0100
1000
0100
0010
0100
0010
0001
1000
0010
0100
0001
1000
0100
0010
,  // measure 83
1001
0100
0010
0001
0010
0100
1000
0010
0100
0001
1000
0010
0100
0001
1000
0010
,  // measure 84
1000
0100
0010
0001
1000
0001
0010
0100
1000
0010
0100
0001
0100
0010
1000
0100
,  // measure 85
0011
0100
1000
0010
0100
0001
0010
0100
1000
0100
0010
0001
1000
0001
0100
0010
,  // measure 86
1000
0100
0010
0100
1000
0001
0010
0100
0010
0001
1000
0100
1000
0010
0100
0010
,  // measure 87
1001
0000
0100
0000
0010
0000
0100
0000
1000
0000
0001
0000
1000
0000
0010
0000
0100
0000
0001
0000
0010
0000
0100
0000
1000
0000
0100
0000
1000
0100
0010
0001
,  // measure 88
2000
0000
0000
0001
,  // measure 89
3101
0000
0000
0000
;
