#TITLE:Nintendo Crescendo;
#SUBTITLE:Simfile by Applesauce5000;
#ARTIST:Jimboner;
#TITLETRANSLIT:;
#SUBTITLETRANSLIT:;
#ARTISTTRANSLIT:;
#CREDIT:;
#BANNER:;
#BACKGROUND:;
#LYRICSPATH:;
#CDTITLE:!asTitle.png;
#MUSIC:Nintendo Crescendo.mp3;
#OFFSET:0.000;
#SAMPLESTART:37.720;
#SAMPLELENGTH:13.000;
#SELECTABLE:YES;
#BPMS:0.000=140.000;
#STOPS:;
#BGCHANGES:;
// cache tags:
#FIRSTBEAT:0.000;
#LASTBEAT:234.000;
#SONGFILENAME:Songs/mike songs/Nintendo Crescendo/Nintendo Crescendo.sm;
#HASMUSIC:1;
#HASBANNER:0;
#MUSICLENGTH:110.262;
// end cache tags

//---------------dance-single - ----------------
#NOTES:
     dance-single:
     :
     Hard:
     12:
     1.000,1.000,1.000,0.290,1.000,656.000,262.000,32.000,0.000,3.000:
2100
0000
0010
0000
0100
0000
0010
3000
,
0120
2030
3200
0302
,
1003
0010
1000
0010
1000
0100
0010
0101
,
0011
0000
0101
0000
2001
0000
0001
0000
0001
0000
0001
0000
3201
0010
0001
0010
,
0302
0000
0010
0000
0100
0000
1003
0000
0010
0001
0010
0100
1010
0001
0001
0001
,
1010
0000
0110
0000
0101
0000
1001
0000
1000
0100
1000
0100
0021
0000
0000
0030
,
1001
0000
0011
0000
0110
0000
1100
0000
0101
0110
1100
0110
1002
0000
0100
0000
,
0013
0000
1100
0000
0001
0000
0010
0000
1100
0010
0001
0010
1002
0000
0000
0000
,
1003
0000
0110
0000
1100
0000
1000
0000
0001
0010
0100
0010
2100
0000
0000
0000
,
3100
0000
0011
0000
0110
0000
1100
0000
0010
0100
0010
0100
2010
0000
0000
0000
,
3100
0010
0001
0010
0001
0010
0100
1000
0010
0100
1000
0100
0010
0100
0011
0100
,
2001
0010
0001
0010
3001
0010
1100
0010
0101
1000
0011
0100
1010
0001
0010
0100
,
1001
0001
0011
0010
0110
0100
1100
1000
1001
0001
0011
0010
0110
0100
1100
1000
,
1001
0000
0011
0000
0110
0000
1100
0000
1000
0010
1000
1000
1000
0100
0011
0000
,
1001
0001
0011
0010
0110
0100
1100
1000
1001
0001
0011
0010
0110
0100
1100
1000
,
1001
0000
0011
0000
0110
0000
1100
0000
1000
0010
1000
1000
1000
0100
0011
0000
,
1001
1000
1100
0100
0110
0010
0011
0001
1001
1000
1100
0100
0110
0010
0011
0001
,
1001
0000
1100
0000
0110
0000
0011
0000
0001
0100
0001
0001
0001
0010
1100
0000
,
1001
1000
1100
0100
0110
0010
0011
0001
1001
1000
1100
0100
0110
0010
0011
0001
,
1001
0000
1100
0000
0110
0000
0011
0000
0001
0100
0001
0001
0001
0010
2100
0000
,
0000
0000
0000
0000
,
0000
0000
0000
0000
0001
0000
0010
0000
0001
0010
0001
0010
0001
0000
0000
0000
,
3100
0000
0001
0000
0110
0000
1000
0100
0010
0001
0110
1100
0101
0000
0110
0000
,
1001
0000
0110
2100
0000
0000
0000
0000
0000
0000
0000
0000
0001
0000
0010
0000
,
3100
0000
0001
0000
0110
0000
1000
0100
0010
0001
0110
1100
0101
0000
0110
0000
,
1001
0000
0110
2100
0000
0000
0000
0000
0000
0000
0000
0000
0001
0000
0010
0000
,
3100
0000
0001
0000
0110
0000
1000
0100
0010
0001
0110
1100
0101
0000
0110
0000
,
1001
0000
0110
2100
0000
0000
0000
0000
0000
0000
0000
0000
0001
0000
0010
0000
,
3100
0010
0101
0010
1100
0010
0101
0010
1100
0010
0001
0010
1100
0010
0001
0010
,
1001
0100
0012
0000
0100
0000
0010
0000
0100
0010
0100
0010
0100
0010
0100
0010
,
1003
0001
0011
0010
0110
0100
1100
1000
1001
0001
0011
0010
0110
0100
1100
1000
,
1001
0000
0011
0000
0110
0000
1100
0000
1000
0010
1000
1000
1000
0100
0011
0000
,
1001
0001
0011
0010
0110
0100
1100
1000
1001
0001
0011
0010
0110
0100
1100
1000
,
1001
0000
0011
0000
0110
0000
1100
0000
1000
0010
1000
1000
1000
0100
0011
0000
,
1001
1000
1100
0100
0110
0010
0011
0001
1001
1000
1100
0100
0110
0010
0011
0001
,
1001
0000
1100
0000
0110
0000
0011
0000
0001
0100
0001
0001
0001
0010
1100
0000
,
1001
1000
1100
0100
0110
0010
0011
0001
1001
1000
1100
0100
0110
0010
0011
0001
,
1001
0000
1100
0000
0110
0000
0011
0000
0001
0100
0001
0001
0001
0010
0100
0000
,
1000
0010
1000
0010
1000
0100
0010
0101
,
0011
0000
0101
0000
2001
0000
0001
0000
0001
0000
0001
0000
3201
0010
0001
0010
,
1300
0001
0011
0010
0110
0100
1100
1000
1001
0001
0011
0010
0110
0100
1100
1000
,
1001
0000
0011
0000
0110
0000
1100
0000
1000
0010
1000
1000
1000
0100
0011
0000
,
1001
0001
0011
0010
0110
0100
1100
1000
1001
0001
0011
0010
0110
0100
1100
1000
,
1001
0000
0011
0000
0110
0000
1100
0000
1000
0010
1000
1000
1000
0100
0011
0000
,
0100
0010
0101
0010
1100
0010
0101
0010
1100
0010
0001
0010
1100
0010
0001
0010
,
1001
0100
0012
0000
0100
0000
0010
0000
0100
0010
0100
0010
0100
0010
0100
0010
,
1003
0001
0011
0010
0110
0100
1100
1000
1001
0001
0011
0010
0110
0100
1100
1000
,
1001
0000
0011
0000
0110
0000
1100
0000
1000
0010
1000
1000
1000
0100
0011
0000
,
1001
0001
0011
0010
0110
0100
1100
1000
1001
0001
0011
0010
0110
0100
1100
1000
,
1001
0000
0011
0000
0110
0000
1100
0000
1000
0010
1000
1000
1000
0100
0011
0000
,
1002
0000
0010
0000
0100
0000
1003
0000
0010
0001
0010
0100
1010
0001
0001
0001
,
1010
0000
0110
0000
0101
0000
1001
0000
1000
0100
1000
0100
0021
0000
0000
0030
,
1002
0000
0010
0000
0100
0000
1003
0000
0010
0001
0010
0100
1010
0001
0001
0001
,
1010
0000
0110
0000
0101
0000
1001
0000
1000
0100
1000
0100
0021
0000
0000
0030
,
1002
0000
0010
0000
0100
0000
1003
0000
0010
0001
0010
0100
1010
0001
0001
0001
,
1010
0000
0110
0000
0101
0000
1001
0000
1000
0100
1000
0100
0021
0000
0000
0030
,
1002
0000
0010
0000
0100
0000
1003
0000
0010
0001
0010
0100
1010
0001
0001
0001
,
1010
0000
0110
0000
0101
0000
1001
0000
1000
0100
1000
0100
0021
0000
0000
0000
,
2032
0000
3003
0000
;
