#TITLE:Speakerboxxx Intro;
#SUBTITLE:;
#ARTIST:Outkast;
#TITLETRANSLIT:;
#SUBTITLETRANSLIT:;
#ARTISTTRANSLIT:;
#CREDIT:;
#BANNER:BN.png;
#BACKGROUND:BG.png;
#LYRICSPATH:;
#CDTITLE:moonlightx.png;
#MUSIC:INTRO.mp3;
#OFFSET:-4.333;
#SAMPLESTART:41.326;
#SAMPLELENGTH:15.300;
#SELECTABLE:YES;
#BPMS:0.000=73.960,25.000=147.920;
#STOPS:;
#BGCHANGES:;
// cache tags:
#FIRSTBEAT:6.500;
#LASTBEAT:156.000;
#SONGFILENAME:Songs/toune/Speakerboxxx Intro/intro.sm;
#HASMUSIC:1;
#HASBANNER:1;
#MUSICLENGTH:80.439;
// end cache tags

//---------------dance-single - ----------------
#NOTES:
     dance-single:
     :
     Hard:
     11:
     0.728,1.000,0.982,0.870,0.622,261.000,79.000,70.000,0.000,0.000:  // measure 1
0000
0000
0000
0000
,  // measure 2
0000
0000
0000
0000
0000
2002
0000
0000
,  // measure 3
0000
0000
0000
0000
,  // measure 4
0000
0000
3003
0000
,  // measure 5
0000
0000
0000
0000
0000
0000
0000
0000
0010
0000
0100
0000
0010
0010
0000
1000
0000
0010
0010
0000
0000
1001
0000
0010
0000
1000
1000
0000
0100
0010
0000
0100
,  // measure 6
0000
0000
0000
0000
0000
0000
0010
0000
0000
0000
0000
0000
0010
0000
0000
0000
0000
0000
0000
0000
0000
0000
0000
0000
1100
0000
0000
0000
0000
0000
0000
0000
0000
0000
0000
0000
0000
0000
0000
0000
0000
0000
0000
0000
0000
0000
0000
0000
1001
0000
0000
0000
0000
0000
0000
0000
0100
0000
0000
0000
0000
0000
0000
0000
0010
0000
0000
0000
0000
0000
0000
0000
0001
0000
0000
0000
0000
0000
0000
0000
0010
0000
0000
0000
0000
0000
0000
0000
0100
0000
0000
0000
0000
0000
0000
0000
1010
0000
0000
0000
0000
0000
0000
0000
0100
0000
0000
0000
0000
0000
0000
0000
0010
0000
0000
0000
0000
0000
0000
0000
0001
0000
0000
0000
0000
0000
0000
0000
0010
0000
0000
0000
0000
0000
0000
0000
1000
0000
0000
0000
0000
0000
0000
0000
0101
0000
0000
0000
0000
0000
0000
0000
0010
0000
0000
0000
0000
0000
0000
0000
0100
0000
0000
0000
0000
0000
0000
0000
1000
0000
0000
0000
0000
0000
0000
0000
0010
0000
0000
0000
0000
0000
0000
0000
0001
0000
0000
0000
0000
0000
0000
0000
,  // measure 7
0110
0000
0000
0000
0000
0000
0000
0000
0001
0000
0000
0000
0000
0000
0000
0000
0100
0000
0000
0000
0000
0000
0000
0000
0100
0000
0000
0010
0000
0000
0100
0000
0010
0000
0000
0000
0100
0000
0000
0000
0010
0000
0000
0000
0000
0000
0000
0000
2002
0000
0000
0000
0000
0000
0000
0000
0000
0000
0000
0000
0000
0000
0000
0000
0000
0000
0000
0000
0000
0000
0000
0000
0000
0000
0000
0000
0000
0000
0000
0000
0000
0000
0000
0000
0000
0000
0000
0000
0000
0000
0000
0000
0000
0000
0000
0000
0000
0000
0000
0000
0000
0000
0000
0000
0000
0000
0000
0000
3003
0000
0000
0000
0000
0000
0000
0000
0000
0000
0000
0000
0010
0000
0000
0000
0000
0000
0000
0000
0000
0000
0000
0000
0010
0000
0000
0000
0000
0000
0000
0000
0000
0000
0000
0000
1001
0000
0000
0000
0000
0000
0000
0000
0000
0000
0000
0000
0000
0000
0000
0000
0000
0000
0000
0000
0000
0000
0000
0000
0000
0000
0000
0000
0000
0000
0000
0000
0000
0000
0000
0000
0000
0000
0000
0000
0000
0000
0000
0000
0000
0000
0000
0000
,  // measure 8
0000
0011
1100
0011
0011
1100
0110
0110
,  // measure 9
1001
0000
0000
0000
0000
0000
0000
0000
2002
0000
0000
0000
0000
0000
0000
0000
0000
0000
0000
0000
3003
0000
0000
0000
0000
0110
0000
0000
1001
0000
0000
0000
,  // measure 10
0110
0011
1100
0011
0011
1100
1001
0000
,  // measure 11
0000
0000
0000
0000
1001
0000
0110
0000
1001
0100
0100
0100
0110
0000
0000
0000
,  // measure 12
0000
1001
0000
0110
0110
0110
1001
0110
,  // measure 13
1001
0010
2002
0000
0000
0000
3003
0000
,  // measure 14
0000
0000
1000
0000
0000
0000
1000
0000
0000
0100
0100
0000
0010
0000
0100
0000
,  // measure 15
0001
0100
2020
0000
0000
0000
0000
3030
,  // measure 16
0220
0330
0202
0000
0000
0000
0000
0303
,  // measure 17
2200
0000
0000
3300
0022
0000
0000
0000
0000
0000
0000
0000
0033
0000
1000
0100
,  // measure 18
0010
0000
0100
0010
0001
0000
0001
0010
0100
1000
0100
0010
0001
0010
0001
0010
,  // measure 19
0100
1000
0100
0010
2002
0000
0000
3003
0000
0100
0100
0100
0110
0000
0000
0000
,  // measure 20
2002
0000
0000
3003
0202
0000
0000
0000
0000
0000
0000
0000
0000
0000
0303
0000
,  // measure 21
0220
0000
0000
0330
0220
0000
0000
0000
0000
0000
0000
0000
0330
0000
0010
0100
,  // measure 22
1000
0100
0010
0001
1000
0100
0010
0001
1000
0100
0010
0001
1000
0100
0010
0001
,  // measure 23
0010
0100
1000
1000
2002
0000
0000
0000
0000
0000
0000
0000
0000
0000
3003
0000
,  // measure 24
0202
0303
0220
0000
0000
0000
0330
0000
,  // measure 25
0220
0000
0330
0000
0022
0000
0000
0000
0000
0000
0000
0000
0033
0000
1000
0100
,  // measure 26
0010
0000
0100
0010
0001
0000
0010
0100
1000
0100
0010
0100
1000
0010
0001
0010
,  // measure 27
0001
0010
0100
0100
0220
0000
0000
0330
0000
0001
0001
0001
1001
0000
0000
0000
,  // measure 28
2020
0000
3030
0000
0220
0000
0000
0000
0000
0000
0000
0000
0000
0330
0000
0000
,  // measure 29
2200
0000
3300
0000
2020
0000
0000
0000
0000
0000
3030
0000
0000
0000
0001
0010
,  // measure 30
0100
1000
0001
0010
0100
1000
0001
0010
0100
0001
0100
0001
0100
0001
0100
0001
,  // measure 31
0100
0000
0100
0000
2002
0000
0000
0000
0000
3003
0010
0010
0110
0000
0000
0000
,  // measure 32
0022
0033
2200
0000
0000
3300
0000
0000
,  // measure 33
0202
0000
0000
0303
2020
0000
0000
0000
0000
0000
0000
0000
3030
0000
0100
0100
,  // measure 34
0100
0000
0010
0010
0010
0000
0001
0001
0001
0010
0100
1000
0100
0010
0001
0010
,  // measure 35
0100
1000
0100
0010
2002
0000
0000
0000
3003
0011
0011
0011
0011
0000
0000
0000
,  // measure 36
2200
0000
0000
3300
2200
0000
0000
0000
0000
0000
3300
0000
1100
0000
0000
0000
,  // measure 37
0022
0000
0000
0033
0022
0000
0000
0000
0000
0000
0033
0000
0011
0000
0001
0010
,  // measure 38
0100
1000
0001
0010
0001
0010
0100
1000
0001
0010
0100
1000
0001
0010
0001
0010
,  // measure 39
0001
0100
2002
0000
0000
0000
0000
0000
,  // measure 40
3003
0000
0000
0000
;

//---------------dance-single - ----------------
#NOTES:
     dance-single:
     :
     Challenge:
     13:
     1.000,1.000,1.000,1.000,0.634,285.000,239.000,82.000,0.000,39.000:  // measure 1
0000
0000
0000
0000
,  // measure 2
0000
0000
0000
0000
0000
2002
0000
0000
,  // measure 3
0000
0000
0000
0000
,  // measure 4
0000
0000
3003
0000
,  // measure 5
0000
0000
0000
0000
0000
0000
0000
0000
0011
0000
1100
0000
0010
0010
0000
1000
0000
0010
0010
0000
0000
1001
0000
0010
0000
1000
1000
0000
0100
0010
0000
0100
,  // measure 6
0000
0000
0000
0000
0000
0000
0011
0000
0000
0000
0000
0000
0011
0000
0000
0000
0000
0000
0000
0000
0000
0000
0000
0000
1100
0000
0000
0000
0000
0000
0000
0000
0000
0000
0000
0000
0000
0000
0000
0000
0000
0000
0000
0000
0000
0000
0000
0000
1001
0000
0000
0000
0000
0000
0000
0000
0110
0000
0000
0000
0000
0000
0000
0000
1001
0000
0000
0000
0000
0000
0000
0000
0110
0000
0000
0000
0000
0000
0000
0000
1001
0000
0000
0000
0000
0000
0000
0000
0110
0000
0000
0000
0000
0000
0000
0000
0011
0000
0000
0000
0000
0000
0000
0000
1100
0000
0000
0000
0000
0000
0000
0000
0011
0000
0000
0000
0000
0000
0000
0000
1100
0000
0000
0000
0000
0000
0000
0000
0011
0000
0000
0000
0000
0000
0000
0000
1100
0000
0000
0000
0000
0000
0000
0000
0101
0000
0000
0000
0000
0000
0000
0000
1010
0000
0000
0000
0000
0000
0000
0000
0101
0000
0000
0000
0000
0000
0000
0000
1010
0000
0000
0000
0000
0000
0000
0000
0101
0000
0000
0000
0000
0000
0000
0000
1010
0000
0000
0000
0000
0000
0000
0000
,  // measure 7
0101
0000
0000
0000
0000
0000
0000
0000
1010
0000
0000
0000
0000
0000
0000
0000
0100
0000
0000
0000
0000
0000
0000
0000
0100
0000
0000
0010
0000
0000
0100
0000
0010
0000
0000
0000
0100
0000
0000
0000
0010
0000
0000
0000
0000
0000
0000
0000
2002
0000
0000
0000
0000
0000
0000
0000
0000
0000
0000
0000
0000
0000
0000
0000
0000
0000
0000
0000
0000
0000
0000
0000
0000
0000
0000
0000
0000
0000
0000
0000
0000
0000
0000
0000
0000
0000
0000
0000
0000
0000
0000
0000
0000
0000
0000
0000
0000
0000
0000
0000
0000
0000
0000
0000
0000
0000
0000
0000
3003
0000
0000
0000
0000
0000
0000
0000
0000
0000
0000
0000
0110
0000
0000
0000
0000
0000
0000
0000
0000
0000
0000
0000
0110
0000
0000
0000
0000
0000
0000
0000
0000
0000
0000
0000
1111
0000
0000
0000
0000
0000
0000
0000
0000
0000
0000
0000
0000
0000
0000
0000
0000
0000
0000
0000
0000
0000
0000
0000
0000
0000
0000
0000
0000
0000
0000
0000
0000
0000
0000
0000
0000
0000
0000
0000
0000
0000
0000
0000
0000
0000
0000
0000
,  // measure 8
0000
0011
1100
0011
0011
1100
0110
0110
,  // measure 9
1001
0000
0000
0000
0000
0000
0000
0000
2002
0000
0000
0000
0000
0000
0000
0000
0000
0000
0000
0000
3003
0000
0000
0000
0000
0110
0000
0000
1001
0000
0000
0000
,  // measure 10
0110
0011
1100
0011
0011
1100
1001
0000
,  // measure 11
0000
0000
0000
0000
1001
0000
0110
0000
1001
0101
0110
1100
1111
0000
0000
0000
,  // measure 12
0000
1001
0000
0110
0110
0110
1001
0110
,  // measure 13
1001
0010
2002
0000
0000
0010
3113
0000
,  // measure 14
0000
0000
1000
0000
0000
0000
1000
0000
0000
0100
0100
0000
0010
0000
0100
0000
,  // measure 15
0001
0000
0100
0000
2020
0000
0000
0000
0000
0000
0100
0100
0101
0000
3030
0000
,  // measure 16
0220
0330
0202
1000
0000
0000
1010
0303
,  // measure 17
2200
0000
0000
3300
0022
0000
0000
0000
0000
0000
0100
0000
1133
0000
1010
0101
,  // measure 18
0110
0000
1100
0110
0011
0000
0011
0011
1100
1100
0110
0110
0011
0110
1001
0110
,  // measure 19
0101
1100
0110
0110
2222
0000
0000
3333
0000
0110
1100
0101
1111
0000
0000
0000
,  // measure 20
2002
0000
0010
3003
0202
0000
1000
0000
0010
0000
0010
0000
0000
0000
0303
0000
,  // measure 21
0220
0000
0000
0330
1220
0000
1000
0000
0001
0000
0000
0000
0330
0000
0011
1100
,  // measure 22
0011
1100
0011
1100
1001
0110
1001
0011
1100
0110
0110
0011
1010
0101
0110
1001
,  // measure 23
0011
0110
1100
1100
2222
0000
0000
0000
0000
0330
0110
0110
0110
0000
3003
0000
,  // measure 24
0202
0303
1220
1000
0000
0000
1331
0000
,  // measure 25
0220
0000
0330
0000
0022
0000
0000
0000
0000
0000
0100
0000
1133
0000
1100
1100
,  // measure 26
0011
0000
0011
0011
1100
0000
1001
0110
1001
0110
0011
1100
1100
0110
0011
1010
,  // measure 27
0101
0011
0110
0110
2222
0000
0000
3333
0000
0001
0001
0001
1001
0000
0000
0000
,  // measure 28
2020
0000
3030
0000
0220
0000
0000
0000
0000
0000
0000
0000
1001
0330
0000
0000
,  // measure 29
2200
0000
3300
0000
2020
0000
0000
0000
0000
0000
3030
0000
0011
0000
0011
0011
,  // measure 30
0011
0011
0011
0011
1100
1100
1100
0011
1100
0011
1100
0011
1100
0011
1100
0011
,  // measure 31
0100
0000
0100
0000
2222
0000
0000
0000
0000
3333
0101
1010
1111
0000
0000
0000
,  // measure 32
0022
0033
2200
0000
0000
3300
0000
0000
,  // measure 33
0202
0000
0000
0303
2020
0000
0000
0000
0000
0000
0000
0000
3030
0000
0110
0110
,  // measure 34
0110
0000
0011
0011
0011
0000
1001
1001
1001
0110
0110
1001
0110
0110
1001
0110
,  // measure 35
0110
1001
0110
0110
2222
0000
0000
0000
3333
1111
1111
1111
1111
0000
0000
0000
,  // measure 36
2200
0000
0000
3300
2200
0000
0000
0000
0000
0000
3300
0000
1100
0000
0000
0000
,  // measure 37
0022
0000
0000
0033
0022
0000
0000
0000
0000
0000
0033
0000
0011
0000
0011
0011
,  // measure 38
0011
0011
0011
0011
1100
1100
1100
1100
0110
0110
0110
0110
0110
0110
0110
0110
,  // measure 39
0110
0100
2222
0000
0000
0000
0000
0000
,  // measure 40
3333
0000
0000
0000
;
