#TITLE:Jamais Deux;
#SUBTITLE:;
#ARTIST:Kkrusty;
#TITLETRANSLIT:;
#SUBTITLETRANSLIT:;
#ARTISTTRANSLIT:;
#CREDIT:;
#BANNER:../fthescorept1bn.png;
#BACKGROUND:../fthescorept1bg.png;
#LYRICSPATH:;
#CDTITLE:;
#MUSIC:Jamais Deux.ogg;
#OFFSET:-2.196;
#SAMPLESTART:4.200;
#SAMPLELENGTH:15.930;
#SELECTABLE:YES;
#BPMS:0.000=240.000,155.000=180.000;
#STOPS:;
#BGCHANGES:;
// cache tags:
#FIRSTBEAT:0.000;
#LASTBEAT:169.000;
#SONGFILENAME:Songs/Fuck The Score Part I/Jamais Deux [Dossar]/Jamais Deux.sm;
#HASMUSIC:1;
#HASBANNER:1;
#MUSICLENGTH:47.055;
// end cache tags

//---------------dance-single - ----------------
#NOTES:
     dance-single:
     :
     Challenge:
     15:
     1.000,1.000,0.043,0.085,1.000,460.000,2.000,4.000,0.000,0.000:
1000
0000
0100
0010
0100
0000
1000
0000
0001
0000
0100
0000
0010
0000
1000
0000
,
0001
0000
0100
0000
0001
0000
0100
0000
0010
1000
0010
0100
0001
0000
1000
0000
,
0001
0000
0010
0000
0100
0000
0010
0001
0010
0000
0100
1000
0100
0000
1000
0000
,
0001
0000
0100
0000
0010
1000
0001
0000
0100
0000
0010
1000
0001
0100
0001
0000
,
1000
0000
0100
0000
0010
0000
0001
0000
1000
0100
1000
0000
0001
0000
0100
0000
,
0010
0000
0100
0000
0010
0000
1000
0000
0001
0100
0010
0000
1000
0001
0100
0001
,
1000
0000
0001
0100
0010
1000
0001
1000
0010
0100
0001
1000
0100
0000
0010
0000
,
0100
0000
1000
0000
0001
0000
0100
0000
0010
0000
1000
0000
0001
0100
0010
0100
,
0001
0000
1000
0000
0100
0000
0010
0000
0100
0000
1000
0000
0001
0100
0010
0100
,
0001
0000
1000
0000
0010
0000
0100
0001
1000
0010
0100
0001
0100
0000
0001
0000
,
1000
0001
0010
0001
1000
0100
0010
0001
1000
0001
0010
0100
1000
0000
0001
0000
,
0100
0010
1000
0001
0100
0001
0100
0010
1000
0001
1000
0001
1000
0010
0100
0001
,
1000
0000
0000
0000
0000
0000
0000
0000
1001
0000
0000
0000
0000
0000
0000
0000
1001
0000
0000
0000
0000
0000
0000
0000
0001
0000
0000
0000
0000
0000
1000
0000
0000
0000
0000
0000
0100
0000
0000
0010
0000
0000
0100
0000
0000
1000
0000
0000
,
0001
1000
0100
1000
0001
0010
0100
1000
0001
0010
0001
1000
0100
0010
0100
1000
,
0001
0000
0010
0000
0100
0000
0010
0000
0001
0000
1000
0000
0010
0000
0100
0001
,
1000
0000
0010
1000
0001
0000
0100
0000
0020
0000
2030
0000
3002
0000
0203
0000
,
0310
1000
0010
1000
0001
0100
0010
1000
0001
0000
0100
0000
0010
0000
0100
0000
,
0001
0000
1000
0100
1000
0000
0001
0000
0010
0000
0001
1000
0001
0000
0010
0000
,
0100
1000
0100
0010
0001
0000
1000
0000
0100
0010
0100
0000
1000
0000
0001
0000
,
1000
0010
0100
0001
1000
0010
1000
0010
0100
0001
1000
0001
0100
0000
0000
0000
,
0001
1000
0100
1000
0001
0000
1000
0100
1000
0000
0100
0000
0010
0000
0100
0000
,
1000
0000
0001
0000
1000
0000
0001
0000
1000
0000
0001
0000
0100
0010
0100
0010
,
0100
0000
0001
0000
0010
0000
0100
0000
1000
0001
0010
0001
1000
0100
0010
0001
,
1000
0100
1000
0100
0010
0001
0010
0001
,
1000
0010
1000
0001
0100
0010
0100
0001
,
1000
0000
0100
0000
1000
0000
0001
0000
0100
0000
0010
0000
1000
0001
0000
0000
,
1000
0010
0100
0001
1000
0001
0100
0010
1000
0001
1000
0010
0100
0001
1000
0001
,
0100
0000
0001
1000
0001
0000
1000
0100
0010
0001
1000
0100
1000
0001
0010
0100
,
1000
0000
0000
1000
0000
0000
1000
0000
0001
0000
0100
0000
0010
0000
1000
0000
,
0001
0000
0000
0001
0000
0000
0001
0000
0010
0100
0000
0000
1000
0100
0010
0001
,
1000
0100
0010
0001
1000
0100
1000
0100
,
1000
0000
0100
0000
0010
0001
1000
0001
0010
0100
1000
0100
0010
0001
1000
0000
,
0001
0000
1000
0010
0100
0010
1000
0001
0100
0010
0100
0001
1000
0010
0100
0001
,
1000
0010
1000
0001
0100
0010
1000
0001
0100
0010
1000
0001
1000
0010
0100
0010
,
1000
0001
0100
0001
1000
0000
0010
0100
0001
0000
1000
0000
0100
0000
0010
0000
,
0100
1000
0001
0100
0010
0100
0001
1000
,
0010
0100
0001
0100
0010
0000
1000
0001
0100
0000
0010
0000
1000
0000
0001
0000
,
1000
0010
0100
0001
1000
0001
0100
0010
,
1000
0001
0010
0001
1000
0000
0100
0010
0001
0000
1000
0000
0100
0000
0010
0000
,
0100
1000
0001
0010
0100
0010
0001
1000
,
0010
1000
0001
1000
0010
0000
0100
0001
1000
0000
0010
0000
0100
0000
0001
0000
,
0100
0000
0010
0000
1000
0000
0001
0000
0100
0000
0001
0000
1000
0000
0001
0010
,
0001
1000
0100
0010
0001
0000
0000
0000
0000
0000
0000
0000
0000
0000
0000
0000
;
