#TITLE:Reploid Factory;
#SUBTITLE:MegaMan X2;
#ARTIST:Yuki Iwai;
#TITLETRANSLIT:;
#SUBTITLETRANSLIT:;
#ARTISTTRANSLIT:;
#CREDIT:;
#BANNER:Reploid Factory.png;
#BACKGROUND:Reploid Factory-bg.png;
#LYRICSPATH:;
#CDTITLE:Almsty.png;
#MUSIC:Reploid Factory.mp3;
#OFFSET:-0.040;
#SAMPLESTART:35.910;
#SAMPLELENGTH:12.000;
#SELECTABLE:YES;
#DISPLAYBPM:187.000;
#BPMS:0.000=187.340;
#STOPS:;
#BGCHANGES:;
// cache tags:
#FIRSTBEAT:0.000;
#LASTBEAT:240.000;
#SONGFILENAME:Songs/VGMP 2/Reploid Factory (Almsty)/Reploid Factory.sm;
#HASMUSIC:1;
#HASBANNER:1;
#MUSICLENGTH:83.539;
// end cache tags

//---------------dance-single - ----------------
#NOTES:
     dance-single:
     :
     Hard:
     11:
     1.000,1.000,1.000,1.000,0.509,550.000,171.000,92.000,0.000,8.000:

1010
0100
0001
1010
0100
0001
1100
0010
,
0110
0001
0010
1100
0010
0001
0110
0010
,
1001
0100
0010
1100
0010
0001
0101
0010
,
1001
0000
0100
0000
0001
0100
0010
1000
0100
0000
0001
0000
0100
0010
0100
0000
,
1001
0000
1000
0000
1100
0000
0010
0001
0100
0000
0110
0000
1010
0000
0101
0000
,
1001
0000
1000
0000
1100
0000
0010
0001
0100
0000
0110
0000
1010
0000
0011
0000
,
1001
0000
0100
0000
0110
0000
0001
1000
0100
0000
0011
0000
0101
0000
1010
0000
,
0110
0000
0001
0000
0010
0100
0010
0100
1000
0100
1000
0010
1000
0001
1000
0001
,
1001
0001
0001
0011
0001
0001
0101
0001
,
0101
0000
0001
0000
0001
0000
1001
0000
0001
0000
0001
0000
0001
1000
0100
0000
,
0011
0000
0000
0001
0110
0000
1000
0100
0010
0000
0001
1000
0010
0000
1000
0001
,
0110
0000
1000
0100
0010
0000
0100
0000
0010
0100
0010
0000
0010
0000
0010
0000
,
1001
0000
0000
0001
1010
0000
0100
0010
1000
0000
0001
0100
0010
0000
0100
0010
,
1001
0000
0001
0010
1000
0000
0100
0000
0010
1000
0001
0000
0010
0000
0010
0000
,
2010
0000
0100
0000
3010
0000
1100
0000
0010
0000
0200
1300
0022
0033
0200
0300
,
1020
0000
0100
0000
1030
0000
1100
0000
0001
1000
0200
0300
2020
3030
0002
0003
,
0102
0000
0010
0000
1003
0000
0110
0001
1000
0000
0100
0010
0101
0000
0010
0100
,
1001
0000
0200
0300
0010
0000
0100
0000
2000
3001
0100
0000
0200
0300
0100
0000
,
1001
1000
1000
1100
1000
1000
1010
1000
,
1010
0000
1000
0000
1000
0000
1001
0000
1000
0000
1000
0000
2200
3301
0220
0330
,
2002
3003
0100
0000
0110
0000
0001
0000
1000
0000
0022
0000
0000
0033
2200
3300
,
0220
0000
0000
0330
2002
0000
3223
0000
0000
0000
0330
0000
1000
0100
0010
0001
,
1010
0100
0100
0011
0100
0100
0110
0100
,
0110
0000
0100
0000
0100
0000
1001
0000
0100
0000
0100
0000
2002
3103
0220
0330
,
2002
3003
0100
0000
1010
0000
0100
0000
0001
0000
2020
0000
0000
3030
0202
0303
,
2200
0000
0000
3300
2002
3003
0220
0000
1330
0001
0010
0000
0010
0000
0100
0010
,
1100
0010
0010
1010
0100
0100
1100
0001
,
0101
0000
0010
0000
0010
0000
0110
0000
0001
0010
0001
0100
0010
1000
0100
1000
,
1010
0100
0001
1010
0100
0001
1100
0010
,
0110
0001
0010
1100
0010
0001
0110
0010
,
1001
0100
0010
1100
0010
0001
0101
0010
,
1001
0000
0100
0000
0001
0100
0010
1000
0100
0000
0001
0000
0100
0010
0100
0000
,
1001
0000
1000
0000
1100
0000
0010
0001
0100
0000
0110
0000
1010
0000
0101
0000
,
1001
0000
1000
0000
1100
0000
0010
0001
0100
0000
0110
0000
1010
0000
0011
0000
,
1001
0000
0100
0000
0110
0000
0001
1000
0100
0000
0011
0000
0101
0000
1010
0000
,
0110
0000
0001
0000
0010
0100
0010
0100
1000
0100
1000
0010
1000
0001
1000
0001
,
1001
1000
1000
1100
1000
1000
1010
1000
,
1010
0000
1000
0000
1000
0000
1001
0000
1000
0000
1000
0000
0001
1000
0100
0000
,
0011
0000
0000
0001
0110
0000
1000
0100
0010
0000
0001
1000
0010
0000
1000
0001
,
0110
0000
1000
0100
0010
0000
0100
0000
0010
0100
0010
0000
0010
0000
0010
0000
,
1001
0000
0000
0001
1010
0000
0100
0010
1000
0000
0001
0100
0010
0000
0100
0010
,
1001
0000
0001
0010
1000
0000
0100
0000
0010
1000
0001
0000
0010
0000
0010
0000
,
2010
0000
0100
0000
3010
0000
1100
0000
0010
0000
0200
1300
0022
0033
0200
0300
,
1020
0000
0100
0000
1030
0000
1100
0000
0001
1000
0200
0300
2020
3030
0002
0003
,
0102
0000
0010
0000
1003
0000
0110
0001
1000
0000
0100
0010
0101
0000
0010
0100
,
1001
0000
0200
0300
0010
0000
0100
0000
2000
3001
0100
0000
0200
0300
0100
0000
,
1001
1000
1000
1100
1000
1000
1010
1000
,
1010
0000
1000
0000
1000
0000
1001
0000
1000
0000
1000
0000
2200
3301
0220
0330
,
2002
3003
0100
0000
0110
0000
0001
0000
1000
0000
0022
0000
0000
0033
2200
3300
,
0220
0000
0000
0330
2002
0000
3223
0000
0000
0000
0330
0000
1000
0100
0010
0001
,
1010
0100
0100
0011
0100
0100
0110
0100
,
0110
0000
0100
0000
0100
0000
1001
0000
0100
0000
0100
0000
2002
3103
0220
0330
,
2002
3003
0100
0000
1010
0000
0100
0000
0001
0000
2020
0000
0000
3030
0202
0303
,
2200
0000
0000
3300
2002
3003
0220
0000
1330
0001
0010
0000
0010
0000
0100
0010
,
1100
0010
0010
1010
0100
0100
1100
0001
,
0101
0000
0010
0000
0010
0000
0110
0000
0001
0010
0001
0100
0010
1000
0100
1000
,
1010
0100
0001
1010
0100
0001
1100
0010
,
0110
0001
0010
1100
0010
0001
0110
0010
,
1001
0100
0010
1100
0010
0001
0101
0010
,
1001
0000
0100
0000
0001
0100
0010
1000
0100
0000
0001
0000
0100
0010
0100
0000
,
1001
0000
0000
0000
;
