#TITLE:Un Deux Trois;
#SUBTITLE:;
#ARTIST:SDMS;
#TITLETRANSLIT:;
#SUBTITLETRANSLIT:;
#ARTISTTRANSLIT:;
#CREDIT:;
#BANNER:Un Deux Trois-banner.png;
#BACKGROUND:Un Deux Trois-bg.png;
#LYRICSPATH:un deux trois.lrc;
#CDTITLE:!cdtitle.png;
#MUSIC:Un Deux Trois.mp3;
#OFFSET:3.260;
#SAMPLESTART:29.140;
#SAMPLELENGTH:12.000;
#SELECTABLE:YES;
#BPMS:0.000=69.981,20.000=139.961,52.000=69.981,60.000=139.961,84.000=69.980,92.000=139.961;
#STOPS:104.000=1.280
;
#BGCHANGES:;
// cache tags:
#FIRSTBEAT:4.000;
#LASTBEAT:186.500;
#SONGFILENAME:Songs/KBU/Un Deux Trois (Kommisar)/Un Deux Trois.sm;
#HASMUSIC:1;
#HASBANNER:1;
#MUSICLENGTH:98.481;
// end cache tags

//---------------dance-single - ----------------
#NOTES:
     dance-single:
     :
     Hard:
     12:
     1.000,1.000,1.000,0.142,1.000,529.000,143.000,14.000,0.000,46.000:
0000
0000
0000
0000
,
1001
0000
0010
0010
1100
0000
0010
0000
1001
0000
0000
0000
0011
0000
0100
0000
1001
0000
0100
0100
0011
0000
1000
0000
0110
0000
0000
0000
1001
0000
0100
0000
,
1010
0000
0001
0001
1100
0000
0010
0000
1001
0000
0000
0000
0011
0000
0100
0000
1010
0000
0001
0001
1100
0000
0010
0000
1001
0000
0000
0000
1100
0000
0010
0100
,
2002
3013
0100
1000
0011
0000
0100
0000
1001
0000
0000
0000
0101
0000
0010
0000
1100
0001
0010
0100
1001
0000
0010
0000
0101
0000
0000
0000
1010
0000
0100
0000
,
0011
0000
1000
0000
0100
0000
0010
0000
1001
0000
0000
0000
0010
0000
0000
0000
1100
0000
0000
0000
0000
0000
0000
0000
1010
0000
0000
0000
0100
0000
0000
0000
0001
0000
1000
0000
0001
0000
1000
0000
0001
0000
1000
0000
0001
0000
1000
0000
0001
0000
1000
0000
0001
0000
1000
0000
0001
0010
0100
1000
0001
0010
0100
1000
,
0011
1000
0001
1000
0111
0000
0100
0000
0011
0000
0100
0000
1011
0000
0100
0000
,
1011
0100
0010
0100
1011
0000
0100
0000
1001
0000
0010
0000
1101
0000
0010
0000
,
0101
1000
0010
1000
0111
0000
0010
0000
1001
0000
0100
0000
1011
0000
0100
0000
,
1001
0010
0100
0010
1101
0000
0010
0000
1100
0000
0010
0100
1011
0000
0010
0000
,
2102
3003
0010
0000
0001
0000
0010
0000
1101
0000
0000
0000
0010
0000
0000
0000
0011
0000
0000
0000
1000
0000
0000
0000
0111
0000
0000
0000
1000
0000
0000
0000
,
0011
0100
0010
0100
1011
0000
0100
0000
0101
0000
0010
0000
1101
0000
0001
0000
,
0110
1000
0001
1000
0111
0000
1000
0000
0011
0000
0100
0000
1011
0000
0100
0000
,
0011
0100
0001
0100
1011
0000
0100
0000
1010
0000
0100
0001
1110
0000
0001
0000
,
1100
0000
1000
1000
0000
0000
1000
0000
1000
0000
0000
0000
0100
0000
0100
0000
0001
0000
0001
0001
0000
0000
0001
0000
0001
0000
0000
0000
0010
0000
0010
0000
,
0100
0000
0100
0100
0000
0000
0100
0000
0100
0000
0000
0000
0001
0000
0001
0000
1000
0000
1000
1000
0000
0000
1000
0000
1000
0000
0000
0000
0010
0000
0010
0000
,
1001
0000
0100
0100
1001
0000
0100
0000
0101
0000
1000
0000
0110
0000
0010
0000
,
0101
0000
0001
0001
0110
0000
0001
0000
0101
0000
1000
0000
0110
0000
0010
0000
,
1100
0000
0100
0100
0011
0000
0100
0000
1010
0000
0001
0000
0110
0000
0010
0000
,
1100
0000
1000
1000
0101
0000
1000
0000
1100
0000
0010
0000
0101
0000
0010
0000
,
2112
0000
0000
0000
,
0000
0000
0000
0000
0000
0000
0000
0000
0000
0000
0000
0000
0000
0000
0000
3003
,
1000
0100
0010
0001
1000
0100
0010
0001
1000
0100
0010
0001
0000
0000
0000
0000
1000
0001
0100
0010
1000
0001
0100
0010
1000
0001
0100
0010
0000
0000
0000
0000
,
1000
0100
0001
0010
1000
0100
0001
0010
1000
0100
0001
0010
0000
0000
0000
0000
1000
0010
0100
0001
1000
0010
0100
0001
1000
0010
0100
0001
0000
0000
0000
0000
,
1011
0100
0010
0100
0010
0100
0010
0100
1001
0010
1000
0010
1000
0010
1000
0010
,
1001
0100
0001
0100
0001
0100
0001
0100
1001
0010
1000
0010
1000
0010
1000
0010
,
1001
0000
0100
0000
0010
0000
0100
0000
1001
0000
0010
0000
0100
0000
0010
0000
1001
0000
0100
0000
0010
0000
0100
0000
0001
0010
0100
1000
0001
0010
0100
1000
,
0022
0033
0000
0000
0000
0000
0000
0000
0000
0000
0000
0000
0000
0000
0000
0000
0010
0000
0000
0000
0100
0000
0000
0000
0010
0000
0000
0000
0100
0000
0000
0000
0000
0000
0000
0000
0000
0000
0000
0000
0100
0000
0000
0000
0000
0000
0000
0000
0100
0000
0000
0000
0000
0000
0000
0000
0100
0000
0000
0000
0000
0000
0000
0000
,
1000
0000
0100
0000
0010
1000
0010
1000
0000
0000
0010
0000
0010
0000
0010
0000
,
0001
0000
0010
0000
0100
0001
0100
0001
0000
0000
0100
0000
0100
0000
0100
0000
,
1000
0000
0100
0000
0100
0001
0100
0001
0000
0000
0100
0000
0100
0000
0100
0000
,
0010
0000
0010
0000
1001
0100
0010
0100
1011
0000
0100
0000
1010
0000
0001
0000
,
1110
0000
1000
0000
0011
1000
0010
1000
0111
0000
1000
0000
0101
0000
0010
0000
,
1101
0000
0010
0000
1001
0010
1000
0010
1101
0000
0010
0000
1100
0000
0100
0000
,
1101
0000
0010
0000
1100
0001
1000
0001
1110
0000
0001
0000
1100
0000
0010
0000
,
1001
0000
0000
0000
0100
0000
0000
0000
2012
3003
0000
0000
0001
0000
0001
0000
1110
0000
0000
0000
1000
0000
0000
0000
0110
0000
0000
0000
0001
0000
0000
0000
,
1110
0000
0100
0000
0011
0000
0010
0010
1101
0000
0010
0000
1001
0000
0100
0000
,
1011
0000
0100
0000
1001
0000
1000
1000
0111
0000
0001
0000
1010
0000
0100
0000
,
1011
0000
1000
0000
0110
0000
0010
0010
1101
0000
0010
0000
0101
0000
0010
0000
,
1101
0000
0000
0000
0010
0000
0000
0000
2012
3003
0000
0000
0001
0000
0001
0000
1010
0000
0000
0000
0100
0000
0000
0000
1011
0000
0000
0000
1000
0000
0000
0000
,
0011
0000
0100
0000
1010
0000
1000
1000
0111
0000
1000
0000
0101
0000
0010
0000
,
1101
0000
0010
0000
0101
0000
0100
0100
1011
0000
0100
0000
1010
0000
0001
0000
,
1110
0000
0010
0000
1001
0000
1001
0010
1101
0000
1001
0000
1001
0000
1001
0000
,
1101
0000
1001
0000
1110
0001
1000
0001
1000
0001
1000
0001
0100
0010
0100
0010
,
0100
0010
0100
0010
1000
0100
0010
0001
1000
0100
0010
0001
0010
0100
0010
0001
,
1000
0100
0010
0100
1001
0010
0100
0010
1001
0100
0010
0100
1001
0010
0100
0010
,
1000
0100
0010
0001
1000
0100
0010
0001
2200
0000
0000
0000
0000
0000
0000
0000
0000
0000
0000
0000
0000
0000
0000
0000
0000
0000
0000
0000
0000
0000
0000
0000
,
0000
0000
0000
0000
0000
0000
0000
3300
0000
0000
0000
0000
0000
0000
0000
0000
;

//---------------dance-solo - ----------------
#NOTES:
     dance-solo:
     :
     Hard:
     11:
     1.000,1.000,1.000,0.294,1.000,529.000,153.000,29.000,0.000,2.000:
000000
000000
000000
000000
,
100001
000000
001000
001000
010010
000000
001000
000000
100100
000000
000000
000000
001100
000000
000010
000000
101000
000000
000100
000100
011000
000000
000001
000000
100100
000000
000000
000000
110000
000000
000010
000000
,
010100
000000
001000
001000
100010
000000
001000
000000
000110
000000
000000
000000
001100
000000
010000
000000
001001
000000
000100
000100
110000
000000
000100
000000
100001
000000
000000
000000
010100
000000
001000
000100
,
010010
000100
001000
010000
000011
000000
001000
000000
100100
000000
000000
000000
011000
000000
000100
000000
100010
000100
010000
000100
010010
000000
001000
000000
000110
000000
000000
000000
000110
000000
010000
000000
,
001100
000000
100000
000000
000100
000000
100000
000000
000011
000000
000000
000000
000100
000000
000000
000000
110000
000000
000000
000000
000000
000000
000000
000000
110000
000000
000000
000000
001000
000000
000000
000000
000001
000000
100000
000000
000001
000000
100000
000000
000001
000000
100000
000000
000001
000000
100000
000000
000001
000000
100000
000000
000001
000000
100000
000000
000001
000010
000100
001000
010000
100000
000001
000010
,
001100
100000
000100
100000
001100
000000
100000
000000
000110
000000
001000
000000
010100
000000
001000
000000
,
100100
001000
000100
001000
010010
000000
000010
000000
010100
000000
010000
000000
102000
000000
003010
000000
,
010100
000010
001000
000010
110000
000000
000100
000000
100010
000000
001000
000000
020100
000000
030001
000000
,
011000
000001
001000
000001
110000
000000
000100
000000
011000
000000
001000
000100
021000
000000
030010
000000
,
100100
001000
000010
001000
000011
000000
001000
000000
010100
000000
100000
000000
020100
000000
031000
000000
,
101000
000100
100000
000100
100010
000000
001000
000000
010100
000000
010000
000000
102000
000000
013000
000000
,
001100
010000
000100
010000
001001
000000
010000
000000
100100
000000
000010
000000
021000
000000
130000
000000
,
001100
100000
000010
100000
010100
000000
000010
000000
010100
000000
000010
000100
201000
000000
300001
000000
,
100000
000000
100000
100000
000000
000000
100000
000000
100000
000000
000000
000000
010000
000000
010000
000000
000010
000000
000010
000010
000000
000000
000010
000000
000010
000000
000000
000000
000100
000000
000100
000000
,
010000
000000
010000
010000
000000
000000
010000
000000
010000
000000
000000
000000
000100
000000
000100
000000
000001
000000
000001
000001
000000
000000
000001
000000
000001
000000
000000
000000
000100
000000
000100
000000
,
100001
000000
100000
100000
001100
000000
100000
000000
010010
000000
000100
000000
201000
000000
300100
000000
,
011000
000000
000100
000100
110000
000000
000010
000000
010100
000000
001000
000000
120000
000000
031000
000000
,
010001
000000
001000
001000
000101
000000
010000
000000
101000
000000
000100
000000
012000
000000
103000
000000
,
011000
000000
000001
000001
011000
000000
000010
000000
100100
000000
001000
000000
010100
000000
000010
000000
,
202202
000000
000000
000000
,
000000
000000
000000
000000
000000
000000
000000
000000
000000
000000
000000
000000
000000
000000
000000
303303
,
001000
000100
010000
000010
001000
000100
010000
000010
001000
000100
010000
000010
000000
000000
000000
000000
000002
100000
000013
010000
000001
100000
000010
010000
000001
100000
000010
010000
000000
000000
000000
000000
,
002000
000100
103000
000001
001000
000100
100000
000001
001000
000100
100000
000001
000000
000000
000000
000000
020000
000010
031000
000100
100000
000001
001000
000100
010000
000010
001000
000100
000000
000000
000000
000000
,
100001
010000
000100
010000
000100
010000
000100
010000
000110
100000
000100
100000
000100
100000
000100
100000
,
000011
100000
000001
100000
000001
100000
000001
100000
000110
010000
000010
010000
000010
010000
000010
010000
,
100001
000000
001100
000000
010010
000000
001100
000000
100001
000000
001100
000000
010010
000000
001100
000000
100001
000000
001100
000000
010010
000000
001100
000000
000001
000010
000100
001000
010000
100000
000001
000010
,
002200
003300
000000
000000
000000
000000
000000
000000
000000
000000
000000
000000
000000
000000
000000
000000
001100
000000
000000
000000
100000
000000
000000
000000
000100
000000
000000
000000
100000
000000
000000
000000
000000
000000
000000
000000
000000
000000
000000
000000
010000
000000
000000
000000
000000
000000
000000
000000
010000
000000
000000
000000
000000
000000
000000
000000
010000
000000
000000
000000
000000
000000
000000
000000
,
000200
000000
010300
000000
000010
010000
000010
010000
000000
000000
000010
000000
000010
000000
000010
000000
,
000002
000000
000103
000000
001000
000010
001000
000010
000000
000000
010000
000000
010000
000000
010000
000000
,
000200
000000
010300
000000
000010
010000
000010
010000
000000
000000
001000
000000
001000
000000
001000
000000
,
200000
000000
301000
000000
010010
000100
001000
010000
100010
000000
000100
000000
110000
000000
000010
000000
,
010001
000000
000010
000000
011000
000010
010000
000010
101000
000000
000100
000000
011000
000000
000010
000000
,
210000
000000
300001
000000
100100
000001
100000
000001
001100
000000
000010
000000
110000
000000
000010
000000
,
010001
000000
001000
000000
110000
000100
100000
000100
010010
000000
001000
000000
010100
000000
001000
000000
,
000012
000000
001003
000000
010100
000000
000100
000100
011000
000000
000010
000000
100100
000000
001000
000000
,
000110
000000
010000
000000
001010
000000
001000
001000
010010
000000
001000
000000
100100
000000
000001
000000
,
001010
000000
010000
000000
100100
000000
100000
100000
000101
000000
001000
000000
100010
000000
010000
000000
,
001100
000000
000010
000000
010100
000000
000010
000010
110000
000000
001000
000000
010100
000000
000010
000000
,
100100
000000
010000
000000
000110
000000
010000
010000
000011
000000
010000
000000
001100
000000
100000
000000
,
010001
000000
000100
000000
101000
000000
000100
000100
100001
000000
001000
000000
000101
000000
001000
000000
,
010100
000000
001000
000000
100010
000000
010000
010000
001100
000000
000010
000000
110000
000000
000100
000000
,
010001
000000
001000
000000
100100
000000
100010
001100
100010
000000
100010
000000
100010
000000
100010
000000
,
100010
000000
100010
000000
011000
000100
001000
000100
001000
000100
001000
000100
010000
000010
010000
000010
,
010000
000010
010000
000010
100000
010000
001000
000100
000010
000001
000010
000100
001000
000100
000010
000001
,
100000
010000
001000
000100
100001
001000
000100
001000
100001
000100
001000
000100
100001
001000
000100
001000
,
000001
000010
000100
001000
010000
100000
000001
000010
222200
000000
000000
000000
000000
000000
000000
000000
000000
000000
000000
000000
000000
000000
000000
000000
000000
000000
000000
000000
000000
000000
000000
000000
,
000000
000000
000000
000000
000000
333300
000000
000000
;
