#TITLE:Ocean Man;
#SUBTITLE:Spongebob Squarepants Movie;
#ARTIST:Ween;
#TITLETRANSLIT:;
#SUBTITLETRANSLIT:;
#ARTISTTRANSLIT:;
#CREDIT:Braeden;
#BANNER:../Banner.png;
#BACKGROUND:../BG.PNG;
#LYRICSPATH:;
#CDTITLE:../CDTitleBRAEDEN.png;
#MUSIC:Ween - Ocean Man.ogg;
#OFFSET:-0.556;
#SAMPLESTART:1.746;
#SAMPLELENGTH:29.999;
#SELECTABLE:YES;
#DISPLAYBPM:123.000;
#BPMS:0.000=126.000,4.000=123.156,27.000=122.802,95.000=123.156,113.000=122.156,142.000=123.156,153.000=121.156,179.000=122.802,193.000=122.156,214.000=123.156,232.000=123.802,244.000=129.000;
#STOPS:;
#BGCHANGES:;
// cache tags:
#FIRSTBEAT:0.000;
#LASTBEAT:254.000;
#SONGFILENAME:Songs/Index Fusion/Ocean Man - [Braeden]/Ocean Man.sm;
#HASMUSIC:1;
#HASBANNER:1;
#MUSICLENGTH:127.503;
// end cache tags

//---------------dance-single - ----------------
#NOTES:
     dance-single:
     :
     Challenge:
     13:
     0.739,0.847,0.847,0.133,0.349,510.000,108.000,17.000,0.000,0.000:
1000
0100
0010
0001
0010
0100
1000
0001
0100
0010
1000
0100
0010
0001
0100
0010
,
1000
0010
1010
1010
0100
0001
0101
0001
,
0010
0100
1100
1100
0100
0001
0101
0001
,
1000
0010
1010
1010
1000
0001
0101
0010
,
1000
0010
1010
1010
1000
0001
0011
0020
,
0230
1300
1010
1010
1000
0001
0011
0001
,
1000
0010
1010
1010
0010
0100
0101
0200
,
0310
1000
1010
1010
0100
0001
0101
0100
,
0001
0000
0000
0000
0010
0000
0000
0000
0011
0000
0000
0000
0011
0000
0000
0000
0010
0000
0000
0000
0001
0000
0000
0000
1000
0100
0010
0001
0010
0100
1000
0001
,
0100
0010
1001
1001
0010
1000
1010
1000
,
0001
0000
0000
0000
1000
0000
0000
0000
1010
0000
0000
0000
1010
0000
0000
0000
1000
0000
0000
0000
0010
0000
0000
0000
0100
0000
0000
0000
0001
0100
0010
1000
,
0001
0000
0000
0000
0100
0000
0000
0000
0110
0000
0000
0000
0110
0000
0000
0000
0010
0000
0000
0000
1000
0000
0000
0000
1001
0000
0000
0000
0001
0100
0010
1000
,
0010
0100
0101
0101
0010
1000
1020
0230
,
0301
0000
1001
1001
0010
1000
1010
0100
,
0001
0000
0000
0000
0100
0000
0000
0000
0101
0000
0000
0000
0101
0000
0000
0000
0010
0000
0000
0000
1000
0000
0000
0000
1010
0000
0000
0000
1000
0001
0100
0010
,
1000
0010
0110
0110
0010
1000
1010
0000
,
0001
0000
0000
0000
0100
0000
0000
0000
0101
0000
0000
0000
0010
0000
0000
0000
1000
0000
0000
0000
0001
0000
0000
0000
1001
0000
0000
0000
1000
0001
0100
0010
,
1000
0010
0110
0110
0100
0001
0011
0001
,
0100
0000
0000
0000
0010
0000
0000
0000
0110
0000
0000
0000
0110
0000
0000
0000
0010
0000
0000
0000
1000
0000
0000
0000
1001
0000
0000
0000
1000
0001
0100
0010
,
1000
0001
0101
0101
0010
1000
1010
1000
,
0001
0100
0110
0110
0010
1000
1010
1000
,
1001
0000
0000
0000
0001
0000
0000
0000
0010
0000
0000
0000
0010
0000
0000
0000
0100
0000
0000
0000
1000
0000
0000
0000
1100
0000
0000
0000
0010
0001
0100
0010
,
1000
0000
0000
0000
0010
0000
0010
0000
0100
0000
0001
0000
0101
0000
0010
1000
,
0010
0000
0100
0000
0001
0000
0001
0000
0100
0000
0010
0000
1010
0000
1000
0001
,
0100
0000
0000
0000
1010
0000
1000
0000
0001
0000
0100
0000
0010
1000
0010
0100
,
0001
0000
0000
0000
0100
0000
0000
0000
0001
0010
0100
1000
0001
0000
0000
0000
1000
0100
0010
0001
0100
0010
1000
0001
0010
0100
1000
0001
0100
0000
0000
0000
,
0010
0001
0010
0100
1000
0001
0100
0010
1000
0100
0010
0001
0010
0100
1000
0001
0100
0000
0010
0000
1000
0000
0000
0000
0010
0000
0000
0000
0200
0000
0300
0000
,
0001
0000
2000
3020
0230
0302
4003
3010
,
0100
0000
0001
0000
0100
0000
0040
0000
4030
0000
3040
0000
0130
0001
0100
0000
,
0101
0000
0001
0000
2000
0000
3020
0000
0430
0000
0304
4003
3000
4000
3004
0003
,
0400
0340
0030
0040
0430
0300
0004
0003
4000
3040
0430
0000
0304
0000
0403
0000
,
0320
0000
0000
0000
2030
0000
3001
0100
0001
0000
0100
0000
0040
0000
1030
0000
,
0001
0000
0000
0000
0100
0000
0000
0000
0010
1000
0100
1000
0001
0100
0010
1000
0010
0000
0000
0000
0100
0000
0000
0000
0001
0000
0010
0000
0100
0000
1000
0000
,
0004
0000
0000
0000
0403
0000
0310
1000
0040
0000
0130
0001
0400
0000
0340
0000
,
1030
0000
0010
0000
0400
0000
0304
0000
0403
0000
0310
1000
0010
0000
0100
0000
,
0040
0000
0000
0000
1030
0000
0001
0100
0040
0000
4030
0000
3040
0000
0430
0000
,
0301
0000
0040
0000
0130
0000
4000
0000
3040
0000
0130
0001
1000
0100
0010
0001
,
1000
0010
0100
0100
0010
0001
0010
0001
,
0010
0000
0100
0000
1000
0000
1000
0000
0100
0000
0010
0000
0100
0000
0010
0001
,
0200
0320
1030
1000
0001
0100
0010
1000
,
0010
0100
0010
0010
1000
0100
0010
0004
,
0403
0310
1000
1000
0100
0010
0001
0100
,
0010
1000
0001
1000
0100
0010
0001
0100
,
0040
1030
0010
0000
0010
0000
0010
0000
,
0010
0000
0010
0000
0010
0000
1001
0001
,
0101
0100
0110
0110
0010
1000
1010
0400
,
0301
0100
0110
0110
0010
1000
1010
4000
,
3010
0100
0101
0101
0100
0010
0110
0040
,
1030
0000
0001
0000
0100
0000
0010
0000
1000
0000
0010
0000
1010
0000
0100
0001
,
0100
0000
1010
1010
1000
0001
0100
0010
,
0100
0010
1000
0010
1000
1000
0010
0400
,
0301
0000
0010
0010
0100
1000
0001
0100
,
0010
0000
1000
1000
0010
0010
0100
0001
,
1001
0000
1000
1000
0010
0100
0001
4000
,
3010
0100
0001
0100
0010
1000
1010
0400
,
0301
0010
0100
0100
1000
0001
0101
0010
,
1000
0100
0010
0010
0001
0100
0010
1000
,
1001
0000
0001
0001
0100
0010
1010
4000
,
3010
0100
0001
0001
0010
1000
1010
1000
,
1001
0001
0100
0100
0010
1000
0010
0400
,
0301
0000
0100
0000
0010
0000
0010
0000
1010
0000
0100
0010
1000
0001
0100
0001
,
0200
0000
0000
0000
,
0000
0000
0000
0000
,
0300
0000
0110
0000
;

//---------------dance-single - ----------------
#NOTES:
     dance-single:
     :
     Edit:
     24:
     1.000,1.000,0.110,0.063,1.000,1474.000,14.000,8.000,0.000,0.000:
1000
0100
0010
0001
0010
0100
1000
0001
0100
0010
1000
0100
0010
0001
0100
0010
,
1000
0100
0010
0001
0010
0100
1000
0001
0100
0010
1000
0100
0010
0001
0010
0100
1000
0001
0100
0010
0100
0001
0010
0100
1000
0001
0100
0010
1000
0100
0010
0001
,
0010
0100
1000
0001
0100
0010
1000
0001
0010
0100
1000
0001
0100
0010
1000
0100
0010
0001
0010
0100
1000
0001
0100
0010
1000
0100
0010
0001
1000
0100
0010
0100
,
1000
0001
0100
0010
1000
0100
0010
0001
0010
0100
1000
0001
0100
0010
1000
0100
0010
0001
0010
0100
1000
0001
0100
0010
1000
0001
0010
0100
1000
0001
0100
0010
,
1000
0100
0010
0100
1000
0001
0100
0010
1000
0001
0010
0100
1000
0001
0100
0010
1000
0001
0010
0100
1000
0001
0010
0100
1000
0001
0100
0010
1000
0100
0010
0001
,
0100
0010
1000
0001
0010
0100
1000
0001
0100
0010
1000
0001
0010
0100
1000
0001
0100
0010
1000
0100
0010
0001
0010
0100
1000
0001
0100
0010
0100
0001
0010
0100
,
1000
0001
0100
0010
1000
0001
0010
0100
1000
0001
0100
0010
1000
0100
0010
0001
0100
0010
1000
0001
0010
0100
1000
0001
0100
0010
1000
0100
1000
0001
0010
0100
,
1000
0001
0100
0010
0100
0001
1000
0100
0010
0001
0010
0100
1000
0001
0100
0010
1000
0100
0010
0100
1000
0001
0010
0100
1000
0001
0100
0010
1000
0100
0010
0100
,
1000
0001
0010
0100
1000
0001
0010
0001
1000
0100
0010
0100
1000
0001
0100
0010
1000
0100
0010
0100
1000
0001
0010
0100
1000
0001
0100
0010
1000
0001
0010
0100
,
1000
0001
0100
0010
1000
0100
0010
0001
0010
0100
1000
0001
0100
0010
1000
0001
0010
0100
1000
0001
0100
0010
1000
0100
0010
0001
0100
0010
1000
0001
0010
0100
,
1000
0001
0100
0010
1000
0100
0010
0001
0100
0010
1000
0001
0010
0100
1000
0001
0100
0010
1000
0100
0010
0100
1000
0001
0010
0100
1000
0001
0100
0010
1000
0100
,
0010
0001
0010
0100
1000
0001
0100
0010
1000
0001
0010
0100
1000
0001
0100
0010
1000
0001
0100
0010
1000
0100
0010
0100
1000
0001
0010
0100
1000
0001
0100
0010
,
1000
0001
0010
0100
1000
0001
0100
0010
1000
0100
0010
0100
1000
0001
0010
0100
1000
0001
0100
0010
1000
0001
0100
0010
0100
0001
0010
0100
1000
0001
0100
0010
,
1000
0100
0010
0001
1000
0010
0100
0001
0010
0001
1000
0100
0010
0001
0010
0100
1000
0001
0100
0010
1000
0001
0010
0100
1000
0001
0100
0010
1000
0100
0010
0001
,
0010
0100
1000
0001
0100
0010
1000
0001
0010
0100
1000
0001
0100
0010
0100
0001
0010
0100
1000
0001
0100
0010
1000
0100
0010
0100
1000
0001
0010
0100
1000
0001
,
0100
0010
1000
0100
0010
0001
0010
0100
1000
0001
0010
0100
1000
0001
0100
0010
1000
0100
0010
0001
0010
0100
1000
0001
0100
0010
0100
0001
0010
0100
1000
0001
,
0100
0010
0100
0001
0100
0010
1000
0001
0100
0010
1000
0100
0010
0100
1000
0001
0010
0100
1000
0001
0100
0010
1000
0100
0010
0100
1000
0001
0010
0100
1000
0001
,
0100
0010
0100
0001
0010
0100
1000
0001
0100
0010
0100
0001
0010
0100
1000
0001
0100
0010
1000
0100
0010
0001
0010
0100
1000
0001
0100
0010
1000
0100
0010
0100
,
1000
0001
0010
0100
1000
0001
0100
0010
0100
0001
0010
0100
1000
0001
0100
0010
0100
0001
0010
0100
1000
0001
0100
0010
1000
0100
0010
0001
1000
0010
0100
0001
,
1000
0100
0010
0100
1000
0001
0010
0100
1000
0001
0100
0010
1000
0100
0010
0100
1000
0001
0010
0100
0010
0001
0100
0010
1000
0100
0010
0001
0010
0100
1000
0001
,
0100
0010
1000
0001
0100
0010
1000
0001
0010
0100
1000
0001
0100
0010
1000
0100
0010
0001
0100
0010
0100
0001
0010
0100
1000
0001
0100
0010
1000
0100
0010
0100
,
1000
0001
0010
0100
1000
0001
0100
0010
0100
0001
0100
0010
0100
0001
1000
0010
0100
0010
1000
0010
0100
0010
1000
0100
0010
0001
0010
0001
1000
0010
0100
0001
,
0100
0010
1000
0001
0010
0100
1000
0001
0100
0010
0100
0010
1000
0001
0100
0010
1000
0100
0010
0001
0010
0100
1000
0001
0100
0010
1000
0100
0010
0001
0010
0100
,
1000
0001
0100
0010
1000
0100
0010
0001
0010
0100
1000
0001
0100
0010
1000
0001
0010
0100
1000
0001
0100
0010
1000
0100
0010
0001
0010
0100
1000
0001
0100
0010
,
0100
0001
0010
0100
1000
0001
0100
0010
1000
0100
0010
0001
0100
0010
1000
0001
0100
0010
1000
0100
0010
0100
1000
0001
0100
0010
1000
0001
0010
0100
1000
0001
,
0010
0000
0000
0000
0100
0000
0000
0000
1000
0010
0100
0001
1000
0100
0010
0001
0100
0010
1000
0001
0100
0010
1000
0001
0010
0100
1000
0001
0100
0000
0000
0000
,
0010
0001
0010
0100
1000
0001
0100
0010
1000
0100
0010
0001
0010
0100
1000
0001
0100
0000
0010
0000
1000
0000
0000
0000
0010
0000
0000
0000
0100
0001
0100
0010
,
1000
0000
0000
0000
0000
0000
0000
0000
2000
0000
0000
0000
3010
0000
0100
0000
0010
0000
0000
0000
1000
0000
0000
0000
0001
0010
0100
1000
0001
0000
0000
0000
,
0100
0000
0000
0000
0001
0000
0000
0000
0100
0000
0000
0000
0100
0010
1000
0010
0100
0010
0100
0001
0100
0010
1000
0001
0100
0000
0001
0000
0100
0000
0000
0000
,
0101
0000
0001
0000
2000
0000
3020
0000
4030
3000
0004
4003
3000
4000
3004
0003
,
0400
0340
0030
0040
0430
0300
0004
0003
4000
3040
0430
0000
0304
0000
0403
0000
,
0320
0000
0000
0000
2030
0000
3001
0100
0001
0000
0100
0000
0040
0000
1030
0000
,
0001
0000
0000
0000
0100
0000
0000
0000
0010
1000
0100
1000
0001
0100
0010
1000
0010
0000
0000
0000
0100
0000
0000
0000
0001
0000
0010
0000
0100
0000
1000
0000
,
0004
0000
0000
0000
0403
0000
0310
1000
0040
0000
0130
0001
0400
0000
0340
0000
,
1030
0000
0010
0000
0400
0000
0304
0000
0403
0000
0310
1000
0010
0000
0100
0000
,
0040
0000
0000
0000
1030
0000
0001
0100
0040
0000
4030
0000
3040
0000
0430
0000
,
0301
0000
0040
0000
0130
0000
4000
0000
3040
0000
0130
0001
1000
0100
0010
0001
,
1000
0010
0100
0100
0010
0001
0010
0001
,
0010
0000
0100
0000
1000
0000
1000
0000
0100
0000
0010
0000
0100
0000
0010
0001
,
0200
0320
1030
1000
0001
0100
0010
1000
,
0010
0100
0010
0010
1000
0100
0010
0004
,
0403
0310
1000
1000
0100
0010
0001
0100
,
0010
1000
0001
1000
0100
0010
0001
0100
,
0040
1030
0010
0000
0010
0000
0010
0000
,
0010
0000
0000
0000
0000
0000
0000
0000
0010
0000
0000
0000
0000
0000
0000
0000
0010
0000
0000
0000
0000
0000
0000
0000
1000
0001
0100
0010
1000
0001
0010
0100
,
1000
0001
0100
0010
1000
0001
0010
0100
1000
0001
0100
0010
1000
0100
0010
0100
0010
0100
1000
0001
0100
0010
1000
0001
0010
0100
1000
0001
0100
0010
1000
0100
,
0010
0001
0010
0100
1000
0001
0010
0100
1000
0001
0100
0010
0000
0100
0010
0001
0010
0100
0010
0001
0100
0010
1000
0100
0010
0100
0010
0100
1000
0010
0100
0001
,
0100
0010
1000
0001
0010
0100
1000
0001
0100
0010
1000
0100
0010
0001
0010
0100
1000
0001
0100
0010
1000
0001
0010
0100
1000
0001
0100
0010
1000
0100
0010
0100
,
1000
0001
0010
0100
1000
0001
0100
0010
1000
0001
0010
0100
0010
0100
1000
0001
0100
0010
1000
0001
0010
0100
1000
0001
0100
0010
0100
0001
1000
0100
0010
0001
,
0100
0010
1000
0001
0010
0100
1000
0001
0100
0010
0100
0001
0010
0100
1000
0001
0100
0010
1000
0001
0010
0100
0010
0001
0100
0010
1000
0001
0010
0100
1000
0001
,
0100
0010
1000
0100
0010
0001
0010
0100
1000
0001
0100
0010
1000
0001
0010
0100
1000
0001
0100
0010
0100
0010
1000
0001
0010
0100
1000
0001
0100
0001
0100
0010
,
1000
0100
1000
0001
0010
0100
1000
0001
0100
0010
1000
0100
0010
0001
0010
0100
1000
0001
0100
0010
1000
0001
0010
0100
1000
0001
0100
0010
0100
0001
1000
0100
,
0010
0001
0010
0100
1000
0001
0100
0010
1000
0100
0010
0001
0010
0100
1000
0001
0100
0010
0100
0001
0010
0100
1000
0001
0100
0010
1000
0100
0010
0001
0010
0100
,
1000
0001
0100
0010
1000
0001
0010
0100
1000
0001
0100
0001
0010
0100
1000
0001
0100
0010
1000
0100
0010
0001
0010
0100
1000
0001
0100
0010
1000
0100
0010
0001
,
0010
0100
1000
0001
0100
0010
0100
0001
0010
0100
1000
0001
0100
0010
1000
0100
0010
0001
0010
0100
1000
0001
0100
0010
1000
0100
0010
0001
0010
0100
1000
0001
,
0100
0010
0100
0001
0010
0100
1000
0001
0100
0010
1000
0100
0010
0001
0010
0100
1000
0001
0100
0010
0100
0001
0010
0100
1000
0100
0010
0001
0100
0010
0100
0001
,
0100
0010
0100
0001
0100
0001
1000
0100
0010
0001
0010
0100
1000
0001
0100
0010
1000
0010
0100
0001
1000
0010
0100
0010
1000
0001
1000
0010
0100
0001
1000
0100
,
0010
0100
1000
0001
0010
0100
1000
0001
0100
0010
1000
0100
0010
0001
0010
0100
1000
0001
0100
0010
1000
0100
0010
0001
0010
0100
1000
0100
0010
0001
0010
0100
,
1000
0001
0100
0010
1000
0010
1000
0001
0010
0100
1000
0001
0100
0010
1000
0100
0010
0100
1000
0001
0100
0010
1000
0100
0010
0001
0010
0100
1000
0001
0100
0010
,
1000
0001
0010
0100
1000
0001
0100
0010
1000
0100
0010
0001
0010
0100
1000
0001
0100
0010
1000
0100
0010
0001
0010
0100
1000
0001
0100
0010
1000
0100
0010
0001
,
0010
0100
1000
0001
0100
0010
1000
0100
0010
0001
0100
0010
1000
0010
1000
0010
1000
0000
0000
0000
1000
0000
0100
0000
0010
0000
0001
0000
1000
0000
0001
0000
,
2000
0000
0000
0000
,
0000
0000
0000
0000
,
3000
0000
0110
0000
;

//---------------dance-single - ----------------
#NOTES:
     dance-single:
     :
     Beginner:
     1:
     0.071,0.096,0.031,0.000,0.000,59.000,4.000,0.000,0.000,0.000:
0000
0000
0000
0000
,
0001
0000
0000
0000
,
0100
0000
0000
0000
,
0010
0000
0000
0000
,
1000
0000
0000
0000
,
0010
0000
0000
0000
,
0100
0000
0000
0000
,
0001
0000
0000
0000
,
0010
0000
0000
0000
,
0100
0000
0000
0000
,
1000
0000
0000
0000
,
0010
0000
0000
0000
,
0100
0000
0000
0000
,
0001
0000
0000
0000
,
0100
0000
0000
0000
,
0010
0000
0000
0000
,
1000
0000
0000
0000
,
0010
0000
0000
0000
,
0100
0000
0000
0000
,
0010
0000
0000
0000
,
1000
0000
0000
0000
,
0001
0000
0000
0000
,
0010
0000
0000
0000
,
0001
0000
0000
0000
,
0100
0000
0000
0000
,
1001
0000
0000
0000
,
0010
0000
0000
0000
,
0010
0000
0000
0000
,
0100
0000
0000
0000
,
0001
0000
0000
0000
,
0010
0000
0000
0000
,
0100
0000
0000
0000
,
1000
0000
0000
0000
,
0010
0000
0000
0000
,
0010
0000
0000
0000
,
1000
0000
0000
0000
,
0001
0000
0000
0000
,
0100
0000
0000
0000
,
0000
0000
0000
0000
,
0010
0000
0000
0000
,
0000
0000
0000
0000
,
0100
0000
0000
0000
,
0000
0000
0000
0000
,
0010
0000
0000
0000
,
0000
0000
0000
0000
,
1001
0000
0000
0000
,
0010
0000
0010
0000
,
0010
0000
0000
0000
,
0100
0000
0100
0000
,
0100
0000
0000
0000
,
0001
0000
0000
0000
,
1000
0000
0000
0000
,
0001
0000
0000
0000
,
1000
0000
0000
0000
,
0010
0000
0000
0000
,
0100
0000
0000
0000
,
0001
0000
0000
0000
,
1001
0000
0000
0000
,
0010
0000
0000
0000
,
0100
0000
0000
0000
,
0001
0000
0000
0000
,
1001
0000
0000
0000
;

//---------------dance-single - ----------------
#NOTES:
     dance-single:
     :
     Easy:
     4:
     0.234,0.263,0.102,0.000,0.000,196.000,13.000,0.000,0.000,0.000:
0000
0000
0000
0000
,
0001
0100
0001
0100
,
0010
1000
0010
1000
,
0010
0100
0001
0010
,
0001
1000
0001
0100
,
0001
0010
0001
0100
,
0001
0010
0001
0100
,
0001
1000
0010
0010
,
0010
0000
1000
0001
,
1001
0000
0010
0100
,
0010
1000
0001
0010
,
0001
0000
1000
0010
,
1000
0010
0100
0001
,
0010
0000
0001
0100
,
0001
0010
0001
0100
,
0000
0010
1000
0010
,
0000
0000
0000
0001
,
0100
0000
0010
1000
,
0010
0100
0001
0010
,
0100
0000
1000
0001
,
0100
0000
0010
1000
,
1010
0000
0001
0100
,
0001
0001
1000
0010
,
0110
0000
0010
1000
,
0010
0100
0001
0010
,
0010
0000
0001
0000
,
0100
0000
0010
0000
,
1000
0000
0001
0000
,
0100
0000
0010
0000
,
1000
0000
0001
0000
,
0100
0000
0010
0000
,
1000
0001
0100
0010
,
1000
0000
0001
0000
,
1001
0000
0010
0100
,
0010
1000
0001
0010
,
0011
0000
0001
0100
,
0010
1000
0010
1000
,
1010
0000
0010
0000
,
0010
0000
0010
0000
,
1000
0000
0001
0000
,
0100
0000
0010
0000
,
1000
0000
0001
0000
,
0100
0000
0001
0000
,
0010
0010
0010
0000
,
0100
0100
0100
0000
,
1001
0000
0010
1000
,
0010
0100
0001
0010
,
0011
0000
0001
0100
,
0010
1000
0010
0100
,
0001
0010
0100
1000
,
0001
0100
0010
1000
,
0010
0100
0001
0010
,
0100
1000
0001
0100
,
1001
0010
0100
0010
,
1000
0100
0010
0001
,
0100
0001
1000
0010
,
0100
0010
1000
0001
,
1001
0010
0100
0010
,
1000
0100
0010
0001
,
1001
0010
0100
0010
,
0110
0001
1000
0001
,
1001
0000
0000
0000
;

//---------------dance-single - ----------------
#NOTES:
     dance-single:
     :
     Medium:
     6:
     0.345,0.335,0.141,0.000,0.000,290.000,18.000,0.000,0.000,0.000:
0000
0000
0000
0000
,
0001
0000
0100
0000
0001
0100
0001
0100
,
0010
0000
1000
0010
1000
0010
1000
0000
,
0010
0000
0100
0001
0100
0001
0100
0000
,
0001
0000
1000
0000
0001
0000
0100
0001
,
0100
0000
0010
0000
1000
0001
0100
0001
,
1000
0000
0010
0100
0001
0000
0100
0000
,
0001
1000
0010
0010
,
0010
0000
1000
0100
1000
0000
0001
0000
,
1001
0000
0010
0100
,
0010
0000
1000
0000
0001
0010
0000
0010
,
0001
0000
0000
0000
1000
0010
1000
0000
,
0001
0000
0100
0010
1000
0000
0001
0001
,
0010
0000
1100
0000
1000
0001
0100
0010
,
1000
0010
0100
0001
1000
0001
0010
0000
,
0001
0000
1000
0010
1000
0010
1000
0000
,
0001
0100
0010
1000
,
1001
0000
0010
0000
0100
0010
1000
0010
,
0100
0000
0001
0010
0001
0000
0100
0000
,
0010
0000
1000
0010
1000
0000
0010
0100
,
0000
0000
0001
0010
0001
0000
0011
0000
,
0001
0100
0010
1000
,
0010
0000
0100
0000
0001
0010
0001
1000
,
0001
0000
1001
0000
0010
1000
0010
0100
,
0001
0000
0010
0100
1000
0000
0001
0001
,
0100
0010
0010
0000
,
1000
0000
0001
0000
0100
0010
0100
0001
,
0010
0000
0100
0100
1000
0001
0100
0010
,
0000
1000
0001
0100
,
0110
0010
0010
1000
,
0001
0100
0010
1000
0001
0000
0010
0100
,
0010
0000
0001
0001
1000
0010
0100
0010
,
0000
1000
0001
1001
,
0010
0000
1000
0001
0100
0010
1000
0010
,
0100
0000
0000
0000
,
1001
0000
0010
0100
0010
1000
0010
0100
,
0000
0000
0001
0000
0010
0001
0010
0000
,
0001
0001
0000
0010
,
0000
0000
0100
0100
0000
0000
1000
0000
,
0000
0000
0010
0010
0000
0000
0100
0000
,
0000
0000
0001
0001
0000
0000
0010
0000
,
0000
0000
0001
0001
0000
0000
0100
0000
,
0000
0000
0010
0010
0000
0000
1000
0001
,
0100
0010
1000
0010
,
1000
0010
1000
1001
,
0010
0000
0100
0100
0010
0000
1001
0000
,
0001
0000
0010
0010
0001
0000
0101
0000
,
0001
0000
1000
1000
0010
0000
0101
0000
,
0001
0000
0010
0001
0100
0000
0010
1000
,
0010
0000
1010
0000
1010
0001
0100
0000
,
0001
0000
1000
0010
0100
0000
0001
0000
,
0000
0000
1000
0001
0100
0010
1000
0000
,
0000
0000
0001
0001
0000
0000
1001
0000
,
0010
0000
1000
0000
0001
0100
0010
0000
,
1000
0100
0010
0000
0001
0000
0100
0000
,
0000
0000
0010
0000
0010
0000
0000
1000
,
0000
0000
0001
0001
0000
0000
1001
0000
,
0110
0000
0001
0000
0010
0001
0010
0001
,
0010
0000
0001
0000
1000
0001
1000
0001
,
1000
0100
0001
0100
,
1000
0000
0010
0000
0001
0000
0010
1000
,
1001
0000
0000
0000
;

//---------------dance-single - ----------------
#NOTES:
     dance-single:
     :
     Hard:
     8:
     0.448,0.454,0.102,0.039,0.043,377.000,13.000,5.000,0.000,0.000:

0000
0000
0000
0000
,
1000
0000
0010
0010
0100
0001
0100
0010
,
1000
0000
0010
1000
0010
0100
0001
0000
,
0011
0000
0001
0100
0010
1000
0010
0000
,
0100
0000
0001
0001
0100
0010
1000
0010
,
0100
0000
0001
0001
0010
0100
1000
0100
,
0010
0001
0100
0010
1000
0000
0010
1000
,
0010
0000
0100
0001
0100
0000
0010
0000
,
1000
0000
0010
0010
0100
0000
0101
0001
,
1000
0000
0010
0100
0010
1000
0010
0100
,
0001
0000
0010
0000
0001
0100
0001
1000
,
1001
0000
0010
1000
0010
0100
0001
0010
,
0001
0000
0100
0010
1000
0000
0001
0100
,
0001
0000
0101
0000
0001
1000
0001
0100
,
0001
0010
0001
0100
0001
1000
0100
0000
,
0010
0000
0001
0100
0001
1000
0020
0000
,
0130
0000
0001
0010
0001
0100
0010
1000
,
0010
0000
0100
0001
0010
0001
0100
0001
,
1000
0010
0100
0010
1000
0100
0010
0000
,
0001
0000
0100
0010
0100
0010
1000
0010
,
0100
0000
0001
0010
0001
1000
0001
0100
,
0101
0000
0010
0010
1000
0001
0100
0010
,
1000
0000
0001
0100
0010
1000
0001
0010
,
0011
0000
0001
0100
0010
1000
0010
0100
,
0001
0000
0010
0100
1000
0000
0001
0100
,
0010
4000
3004
0003
,
0040
0000
0030
0000
0040
0000
0030
0000
0001
1000
0001
0000
2000
0000
3200
0000
,
0320
0000
0031
0000
1000
0000
0001
1000
0001
0000
0100
0000
0001
0000
0010
0000
,
0000
0000
0001
0001
0100
0010
1000
0010
,
1010
0000
0000
0000
0400
0000
0304
0000
0103
0000
0010
1000
0000
1000
0010
0000
,
0100
0001
0000
0001
0100
0000
0010
0000
1000
0001
1000
0000
0010
0000
0100
0001
,
0100
0000
0000
0000
0010
0000
1000
0010
1000
0000
0010
0000
0100
0000
0002
0000
,
0000
0000
1003
0010
0100
0001
1000
0001
,
0000
0000
1000
0010
0100
0001
0010
0001
,
0000
0000
0001
0100
0010
1000
0010
0100
,
0001
0000
0000
0000
0001
0000
1000
0100
1000
0000
0100
0000
1000
0000
0100
0000
,
0010
0001
0100
0010
1000
0010
1000
0001
,
0100
0000
0010
0010
0000
0000
1000
0000
,
0000
0000
0010
0010
0000
0000
0001
0000
,
1001
0000
0010
0010
0000
0000
0100
0000
,
0000
0000
0001
0001
0000
0000
1001
0000
,
0010
0000
1000
1000
0000
0000
0010
0000
,
0000
0000
0100
0100
0001
0000
0100
0010
,
0100
0010
1000
0001
,
0100
0000
0010
0010
1000
0001
1000
0010
,
0100
0000
0001
0100
0010
1000
0100
0010
,
0001
0000
0100
0010
1000
0100
0010
0001
,
1000
0000
0010
0100
0001
1000
0100
0010
,
0001
0000
0000
0000
1000
0000
0010
0000
0100
0000
0000
0000
0001
0000
0100
0001
,
0100
0000
0010
1000
0010
0100
0001
1000
,
0100
0010
0001
1000
0010
0100
0001
1000
,
0100
0000
0010
0001
0100
0010
1000
0000
,
1001
0000
0001
0100
0010
1000
0100
0010
,
0001
0000
0100
0100
0010
1000
0100
0010
,
0001
0100
0010
1000
0100
0000
1000
0000
,
0001
0100
0000
0100
,
0000
0000
0010
0010
0000
0000
1000
0010
,
1010
0000
0100
0100
0001
0100
0010
1000
,
0001
0000
0100
0100
0010
1000
0100
0010
,
0001
0000
0100
0100
0010
1000
0100
0000
,
0010
0001
0100
0010
1000
0100
0010
0001
,
1001
0000
0000
0000
;
