#TITLE:Naruto;
#SUBTITLE:- Hokage's Funeral Scene;
#ARTIST:toshiro masuda;
#TITLETRANSLIT:;
#SUBTITLETRANSLIT:;
#ARTISTTRANSLIT:;
#CREDIT:;
#BANNER:Naruto-Hokage's Funeral-Banner.PNG;
#BACKGROUND:Naruto- Hokage's Funeral-Bg.PNG;
#LYRICSPATH:;
#CDTITLE:ko0k13-cdtitle.PNG;
#MUSIC:Naruto - Hokage's Funeral Scene.mp3;
#OFFSET:0.000;
#SAMPLESTART:43.141;
#SAMPLELENGTH:12.000;
#SELECTABLE:YES;
#BPMS:0.000=139.080;
#STOPS:;
#BGCHANGES:0.000=Naruto- Hokage's Funeral-Bg.PNG=2.000=0=0=1,
99999=-nosongbg-=1.000=0=0=0 // don't automatically add -songbackground-
;
// cache tags:
#FIRSTBEAT:3.333;
#LASTBEAT:174.000;
#SONGFILENAME:Songs/toune 1 (2010)/Naruto - Hokage's Funeral Scene/Naruto - Hokage's Funeral Scene.sm;
#HASMUSIC:1;
#HASBANNER:1;
#MUSICLENGTH:75.833;
// end cache tags

//---------------dance-single - ----------------
#NOTES:
     dance-single:
     :
     Hard:
     5:
     0.268,0.258,0.000,0.040,0.349,139.000,0.000,3.000,0.000,0.000:
0000
0000
0000
0000
0000
0000
0000
0000
0000
0000
1000
0000
,
0010
0001
0100
0000
,
1000
0000
0000
0000
0100
0000
0010
0000
1000
0000
0100
0000
,
0010
0001
0010
0000
,
1000
0010
1000
0100
,
0001
0010
0100
0000
,
1000
0000
0000
0100
0000
0000
0010
0000
0001
0000
0010
0000
,
0000
1000
0000
0001
,
0000
1000
0000
1000
,
0100
0010
0001
0000
,
1000
0000
0000
0001
0000
0000
0010
0000
0100
0000
1000
0000
,
1000
0100
0010
0000
,
0001
1000
0010
0100
,
1000
0100
0001
1000
,
0010
0000
0000
0001
0000
0000
0100
0010
0000
0200
0000
0000
,
0000
0000
0300
0000
0000
0000
0000
0000
0000
2000
0000
0000
,
3000
0000
0000
0001
,
0010
0100
0000
1000
,
0000
0001
0000
1000
,
1000
0100
0010
0001
,
0000
0001
0000
0010
,
1000
0100
0001
0000
,
0010
1000
0100
1000
,
0001
0010
0100
1000
,
0100
0010
0000
1000
,
0100
0010
0000
0001
,
0000
1000
0000
0001
,
1000
0100
0010
0001
,
0000
1000
0000
0001
,
1000
0000
0100
0000
0000
0010
0000
0000
0001
0000
0000
1000
,
0000
0000
0001
0000
0000
0010
0000
0000
0000
0100
0000
0000
,
1000
0000
0100
0000
0000
0010
0000
0000
0001
0000
0000
0010
,
0000
0000
0010
0000
0000
0010
0000
0000
1000
0000
0000
0100
,
0000
0000
0010
0000
0000
0001
0000
0000
0000
0000
0000
1000
,
0000
0000
0001
0000
0000
0010
0100
0000
1000
0000
0000
0100
,
0000
0000
0010
0000
0000
0100
0000
0000
0000
0000
0000
1000
,
0000
0000
0001
0000
0000
1000
0000
0000
0010
0000
0000
0100
,
0000
0000
0001
0000
0000
0100
0000
0000
0010
0000
0000
1000
,
0000
0000
0100
0000
0000
0100
0010
0000
0100
0000
0000
0000
,
0000
0000
1000
0000
0000
0100
0000
0000
0001
0000
0000
0010
,
0000
0000
0000
0000
0000
0000
0000
0000
0000
0000
0000
0000
0000
0000
0000
0000
0000
0000
0000
0000
0000
0000
0000
0000
0000
0000
0000
0000
0000
0000
0000
0000
1000
0000
0000
0000
0000
0000
0000
0000
0000
0000
0000
0000
0000
0000
0000
0000
0000
0000
0000
0000
0000
0000
0000
0000
0000
0000
0000
0000
0000
0000
0000
0000
0000
0000
0000
0000
0000
0000
0000
0000
0000
0000
0000
0000
0000
0000
0000
0000
0001
0000
0000
0000
0000
0000
0000
0000
0000
0000
0000
0000
0000
0000
0000
0000
0000
0000
0000
0000
0000
0000
0000
0000
0000
0000
0000
0000
0000
0000
0000
0000
0000
0000
0000
0000
0000
0000
0000
0000
0000
0000
0000
0000
0000
0000
0000
0000
0000
0000
0000
0000
1000
0000
0000
0000
0100
0000
0000
0000
0000
0020
0000
0000
0000
0000
0000
0000
0000
0000
0000
0000
0000
0000
0000
0000
0000
0000
0000
0000
0000
0000
0000
0000
0000
0000
0000
0000
0000
0000
0000
0000
0000
0000
0000
0000
0000
0000
0000
0000
0000
0000
0000
0000
0000
0000
0000
0000
0000
0000
0000
0000
,
0000
0000
0000
0000
,
0000
0000
0000
0000
,
0000
0000
0030
0000
;
