#TITLE:Counter Zero;
#SUBTITLE:UG Psyclone;
#ARTIST:DJ Sharpnel;
#TITLETRANSLIT:;
#SUBTITLETRANSLIT:;
#ARTISTTRANSLIT:;
#CREDIT:;
#BANNER:;
#BACKGROUND:counter08_800.jpg;
#LYRICSPATH:;
#CDTITLE:cdtitle.png;
#MUSIC:DJ Sharpnel & V.A - UG Psyclone - 08 - Counter Zero.mp3;
#OFFSET:-0.580;
#SAMPLESTART:77.652;
#SAMPLELENGTH:15.000;
#SELECTABLE:YES;
#BPMS:0.000=185.000;
#STOPS:;
#BGCHANGES:;
// cache tags:
#FIRSTBEAT:0.000;
#LASTBEAT:743.750;
#SONGFILENAME:Songs/toune/Counter_Zero/CZ.sm;
#HASMUSIC:1;
#HASBANNER:0;
#MUSICLENGTH:242.651;
// end cache tags

//---------------dance-single - ----------------
#NOTES:
     dance-single:
     :
     Hard:
     11:
     1.000,1.000,1.000,0.177,0.997,1719.000,428.000,43.000,0.000,1.000:
1000
0000
0100
0000
0001
0000
1000
1000
,
0001
0000
0100
0000
0010
0010
0002
0003
,
0100
0000
0000
0100
0000
0000
0100
0000
0001
0000
0001
0000
2000
0000
3000
0000
,
0001
0000
0000
0000
0000
0000
0000
0000
1000
0100
0010
0001
0010
0100
1000
0000
0000
0000
0000
0000
0000
0000
0000
0000
0002
0000
0000
0000
1003
0000
0000
0000
,
0010
0000
1000
0000
0010
0000
0001
0001
,
0010
0000
1000
0000
0100
0100
0002
0003
,
0100
0000
0000
0100
0000
0000
0100
0000
1000
0000
1000
0000
0002
0000
0003
0000
,
1001
0000
0000
0000
0000
0001
1001
0000
,
1000
0010
1000
0000
0001
0000
0100
0001
0100
0000
0001
0000
1000
0010
1000
0000
,
0001
0100
0001
0000
0010
0000
1000
0100
1000
0000
0001
0100
0010
1000
0010
0000
,
0001
1000
0001
0000
0100
0000
1000
0100
1000
0000
0010
0000
0100
0001
0100
0000
,
0101
0000
0010
0000
0001
0000
0000
0000
1001
0100
0010
0001
0010
0100
1000
0000
0010
0000
0000
0000
1001
0000
0100
0000
1010
0000
0001
0000
1010
0000
0100
0000
,
1001
0100
0001
0000
0010
0000
1000
0100
1000
0000
0001
0000
0100
0001
0100
0000
,
0010
1000
0010
0000
0100
0000
1000
0100
1000
0000
0001
0100
0010
0100
0010
0000
,
1000
0001
1000
0000
0001
0000
0100
0001
0100
0000
0010
0000
0100
1000
0100
0000
,
0101
0000
0010
0000
0001
0000
0000
0000
1000
0100
0001
0010
0100
0001
1000
0000
0010
0000
0000
0000
1001
0000
0100
0000
1010
0000
0001
0000
1010
0000
0001
0000
,
0110
1000
0110
0000
0001
0000
0110
1000
0010
0000
1100
0000
1000
0100
1010
0000
,
0001
0010
1001
0000
1000
0000
0110
1000
0010
0000
0110
1000
0001
1000
0101
0000
,
0010
0100
1010
0000
0100
0000
1010
0100
1000
0000
0101
0000
1000
0010
1100
0000
,
1100
0000
0001
0000
0100
0000
0000
0000
0110
1000
0001
0100
0010
1000
0001
0000
0010
0000
0000
0000
0110
0000
1000
0000
0011
0000
0100
0000
0011
0000
1000
0000
,
0101
0010
1100
0000
1000
0000
0101
0010
0001
0000
1100
0000
0010
0100
1010
0000
,
1000
0001
1100
0000
0010
0000
0101
0010
0001
0000
1100
0010
1000
0010
1100
0000
,
0001
0100
1001
0000
0100
0000
1010
0100
0010
0000
1100
0000
0010
0001
1010
0000
,
0110
0000
1000
0000
0100
0000
0000
0000
1001
0100
0010
1000
0100
0010
0001
0000
1000
0000
0000
0000
0101
0000
0010
0000
1001
0000
0100
0000
1001
0000
0010
0000
,
1001
0100
1000
0100
0001
1000
0011
1000
0100
0010
0100
0010
0101
1000
0001
1000
,
0101
0010
0100
1000
0100
0010
1001
0010
0100
1000
0100
0010
0101
0010
0100
1000
,
0101
0010
0001
0010
0100
0010
1001
0100
1000
0100
0010
0001
0110
1000
0100
0010
,
1001
0100
0010
0001
0010
1000
0110
0001
0010
0100
0010
0001
1010
0100
0010
0001
,
1100
0010
1000
0001
0100
1000
0110
1000
0100
0010
0100
1000
0101
0010
1000
0001
,
1100
0001
1000
0010
1000
0001
0110
0001
1000
0010
1000
0001
1100
0001
1000
0010
,
1100
0001
0100
0001
1000
0001
0110
1000
0010
1000
0001
0100
1001
0010
1000
0001
,
0110
1000
0001
0100
0001
0010
1001
0100
0001
1000
0001
0100
0011
1000
0001
0100
,
1010
0001
0010
0100
1000
0010
1001
0010
1000
0001
1000
0010
1100
0001
0010
0100
,
1001
0010
0100
1000
0100
0010
1001
0010
0100
1000
0100
0010
0101
0010
0100
1000
,
0101
0010
0001
0010
0100
0010
1001
0100
1000
0100
0010
0001
0110
1000
0100
0010
,
1001
0100
0010
0001
0010
1000
0110
0001
0010
0100
0010
0001
1010
0100
0010
1000
,
0011
0100
0010
0001
0010
0100
1001
0100
0010
0001
0010
0100
1010
0100
0010
0001
,
1010
0100
1000
0100
0010
0100
1001
0010
0001
0010
0100
1000
0110
0001
0010
0100
,
1001
0010
0100
1000
0100
0001
0110
1000
0100
0010
0100
1000
0101
0010
0100
1000
,
0110
0000
0100
0000
0010
0100
0010
0100
0010
0100
0011
0100
0011
0100
0010
0100
,
1000
0000
0100
0000
,
1000
0000
0010
0000
,
0100
0000
0010
0000
,
0001
0000
1000
0000
,
0010
0000
0100
0000
,
1000
0000
0001
0000
,
0100
0000
1000
0000
,
0010
0000
1001
0000
,
1001
0000
1000
0010
0100
0010
0001
0000
,
1100
0000
0010
0100
0001
0100
1000
0000
,
0011
0000
0001
0100
1000
0100
1000
0000
,
0011
0000
0010
0100
0010
1000
0100
0000
,
0011
0000
1000
0001
0100
0001
0100
0000
,
1010
0000
0010
0001
0100
0001
0100
0000
,
1010
0000
0010
0001
0100
0001
0010
0000
,
1100
0000
0010
0001
0100
0001
1000
0000
,
0001
0000
0100
0000
1001
0000
0100
0000
0001
1000
0001
0000
0100
0000
0001
0000
,
1000
0000
0010
0000
1001
0000
0010
0000
0001
0100
0000
0010
0100
1000
0001
0000
,
1000
0000
0001
0000
1010
0000
0001
0000
1000
0001
1000
0000
0100
0000
0001
0000
,
1000
0000
0010
0000
1001
0000
0100
0000
0001
0010
0001
0000
0100
0000
0001
0000
,
1000
0000
0010
0000
1001
0000
0100
0000
1000
0010
0000
0010
1000
0001
0100
0000
,
0010
0000
1000
0000
0101
0000
0010
0000
1000
0001
1000
0000
0001
0000
0100
0000
,
1000
0000
0010
0000
1100
0000
0010
0000
0001
0100
0000
0100
0001
0010
1000
0000
,
0001
0000
0100
0000
1001
0000
0010
0000
1000
0001
1000
0001
1000
0001
1000
0001
,
1010
0000
0101
0000
1010
0000
0100
0000
1000
0010
1000
0000
0101
0000
1000
0000
,
0110
0000
0101
0000
1010
0000
0001
0000
1000
0100
0000
0001
1100
0010
1000
0000
,
0110
0000
1001
0000
0011
0000
1000
0000
0010
1000
0010
0000
0101
0000
1000
0000
,
0110
0000
0101
0000
1010
0000
0100
0000
1000
0001
1000
0000
0110
0000
1000
0000
,
1010
0000
0101
0000
1010
0000
0100
0000
0010
0001
0000
0001
0110
1000
0100
0000
,
0101
0000
1010
0000
1100
0000
0001
0000
0010
1000
0010
0000
1001
0000
0100
0000
,
1010
0000
1001
0000
0110
0000
0001
0000
1000
0100
0000
0100
1010
0001
0010
0000
,
0100
0010
0100
0010
0100
0010
0100
0010
1001
0000
0000
0000
0000
0000
0000
0000
,
1100
0000
0000
0000
0110
0000
0000
0000
0101
0000
0000
0001
0010
0000
0000
0000
,
1001
1100
0011
1010
,
0110
0000
0000
0000
0101
0000
0000
0000
1001
0000
0000
0001
0010
0000
0000
0000
,
0101
0010
0001
0000
0110
0000
0010
0000
1001
0000
0010
1000
0011
0000
0010
0000
,
1001
0000
0000
0000
1100
0000
0000
0000
0011
0000
0000
0001
1000
0000
0000
0000
,
0010
0100
0000
0000
0101
0000
0000
0000
0011
0000
0000
0000
0011
0000
0000
0000
,
1100
0000
0000
0000
1010
0000
0000
0000
0101
0000
0000
0001
1000
0000
0000
0000
,
0010
1100
0010
0000
0101
0000
0010
0000
1001
0000
0100
0010
0101
0000
0100
0000
,
1010
0001
1010
0001
1100
0001
1100
0001
,
0011
0000
1000
0001
0010
0000
1000
0000
0010
0100
0001
0000
0110
0000
0001
0000
,
1001
0010
1001
0010
1100
0001
1100
0010
,
1000
0101
0010
0000
0110
0000
0010
0000
1001
0000
1000
0010
1001
0000
0010
0000
,
1010
0001
1010
0001
0110
1000
0110
1000
,
0010
1000
0100
0000
1010
0000
0100
0000
1001
0000
0010
0000
1001
0000
0010
0000
,
0101
1000
0101
1000
0110
1000
0110
1000
,
0001
1100
0001
0000
1010
0000
0010
0000
0101
0000
1000
0010
1001
0000
0010
0000
,
1000
0000
0010
0000
0100
0100
0001
0000
,
0010
0000
1000
0000
0200
0300
0000
0000
,
0001
0000
0010
0010
1000
0000
0001
0000
,
0010
0000
1000
0000
0200
0300
0000
0000
,
0001
0000
0010
0010
1000
0000
0001
0000
,
1000
0000
0010
0000
0200
0300
0000
0000
,
0010
0000
1000
1000
0001
0000
0100
0000
,
1000
0000
0000
0000
0001
0000
0000
0000
1200
0001
1300
0001
1000
0001
1000
0001
,
0100
0000
0010
0010
1000
0000
0001
0000
,
1000
0000
0010
0000
0200
0300
0000
0000
,
0001
0000
0100
0100
1000
0000
0001
0000
,
1100
0001
1000
0000
0010
0000
0000
0000
0002
0000
0003
0000
0000
0000
0000
0000
,
1000
0000
0100
0100
0001
0000
0010
0000
,
1000
0000
0001
0000
0200
0300
0000
0000
,
1000
0000
0001
0001
0100
0000
0010
0000
,
0011
0100
0010
0000
1001
0000
0010
0000
1200
0001
1300
0001
1000
0001
1000
0001
,
1100
0010
0100
0000
1001
0000
1001
0000
0100
0000
0001
1000
0011
0000
0000
0000
,
0101
0010
0100
0000
1001
0000
0010
0000
0200
0000
0301
1000
0001
0000
0000
0000
,
0101
0010
0100
0000
1001
0000
1100
0000
0010
0000
1000
0001
1100
0000
0000
0000
,
1010
0100
0010
0000
1001
0000
0100
0000
0020
0000
0130
1000
0100
0000
0000
0000
,
0011
0100
0010
0000
1100
0000
1001
0000
0110
1000
0100
0000
0100
0000
0000
0000
,
1001
0100
0001
0000
0011
0000
1000
0000
0020
0000
0130
0001
0100
0000
0000
0000
,
1010
0100
0010
0000
1001
0000
0011
0000
0100
0000
1000
0001
1010
0000
0000
0000
,
0011
0100
0010
0000
1001
0000
0010
0000
0200
0000
1300
0001
1000
0000
0000
0000
,
1001
0100
0001
0000
0011
0000
1001
0000
0110
0000
1000
0001
1010
0000
0000
0000
,
0101
1000
0100
0000
1010
0000
0001
0000
1200
0000
0310
0001
0010
0000
0000
0000
,
1100
0001
1000
0000
0110
0000
1010
0000
0101
0000
0010
0100
1010
0000
0000
0000
,
1010
0001
1000
0000
0110
0000
1000
0000
0102
0000
0013
1000
0010
0000
0000
0000
,
1100
0001
1000
0000
0010
0000
0011
0000
1001
0000
0010
0100
1010
0000
0000
0000
,
0011
1000
0001
0000
0110
0000
1000
0000
0102
0000
0013
1000
0010
0000
0000
0000
,
1100
0001
0100
0000
0011
0000
1001
0000
0110
0000
0010
0001
0110
0000
0000
0000
,
0101
0010
0100
0000
1010
0000
0010
0000
1200
0001
1300
0001
1000
0001
1000
0001
,
0100
0010
0100
0000
1010
0000
0100
0010
0101
0000
1000
0000
0101
0010
0001
0000
,
0010
0100
0001
0000
1000
0000
0001
0000
0110
0000
0010
0100
1001
0000
0000
0000
,
0010
0000
0100
0000
0011
0000
1000
0001
0100
0000
0001
0000
1010
0001
0010
0000
,
0100
0001
0010
0000
1001
0000
0100
0000
0010
0000
0100
0010
1001
0000
0000
0000
,
0100
0001
0010
0000
1100
0000
0001
0000
0010
1000
0100
1000
0011
0000
0000
0000
,
0100
0001
0100
0000
1010
0000
0001
0100
0010
0001
0100
0010
1001
0000
0000
0000
,
0100
0000
0001
0000
1100
0000
0001
0000
0010
1000
0001
0000
0110
1000
0010
0000
,
0001
0100
0010
0000
1001
0000
0010
0000
0100
1000
0010
0100
1001
0000
0000
0000
,
0100
0010
0100
0000
1010
0000
0100
0010
0101
0000
1000
0000
0101
0010
0001
0000
,
0010
0100
0001
0000
1000
0000
0001
0000
0110
0000
0010
0100
1001
0000
0000
0000
,
0010
0000
0100
0000
0011
0000
1000
0001
0100
0000
0001
0000
1010
0001
0010
0000
,
0100
0001
0010
0000
1001
0000
0100
0000
0010
0000
0100
0010
1001
0000
0000
0000
,
0100
0001
0010
0000
1100
0000
0001
0000
0010
1000
0100
1000
0011
0000
0000
0000
,
0100
0001
0100
0000
1010
0000
0001
0100
0010
0001
0100
0010
1001
0000
0000
0000
,
0100
0000
0001
0000
1100
0000
0001
0000
0010
1000
0001
0000
0110
1000
0010
0000
,
0101
0010
0100
0000
1001
0000
0010
0000
0100
0010
0100
0010
0101
0010
0100
0010
,
1000
0000
0010
0010
0001
0000
0001
0000
,
1000
0000
0100
0000
0002
0003
0000
0000
,
1000
0000
0001
0001
0100
0000
1000
0000
,
1001
0010
1000
0000
0110
0000
0001
0100
0021
1000
0130
0001
0100
0000
0000
0000
,
0001
0100
0001
0000
1100
0000
1001
0100
0011
0100
0010
0100
0001
0000
0000
0000
,
0100
0010
0100
0000
1001
0000
0010
1000
0210
0001
0310
0100
1000
0000
0000
0000
,
1000
0010
0100
0000
1001
0000
0011
1000
0110
0001
0010
0100
1010
0000
0000
0000
,
1001
0010
1000
0000
1100
0000
0001
0100
1020
0100
0031
0100
1000
0000
0000
0000
,
0101
0010
0100
0000
1010
0000
0110
0001
1010
0100
1000
0100
0011
0000
0000
0000
,
1001
0010
0001
0000
0110
0000
1000
0010
0102
1000
0013
0100
0001
0000
0000
0000
,
1100
0010
0100
0000
0011
0000
1001
0010
1100
0010
0001
0010
1100
0000
0000
0000
,
0011
1000
0010
0000
0101
0000
0100
0001
0120
1000
0130
0001
0010
0000
0000
0000
,
0101
0010
0100
0000
1001
0000
1100
0001
0110
1000
0100
0010
0101
0000
0000
0000
,
0110
0001
0010
0000
1100
0000
0001
0010
0201
0010
0301
0100
0010
0000
0000
0000
,
1100
0010
0100
0000
1001
0000
0011
1000
0110
0001
0100
1000
0110
0000
0000
0000
,
0101
0010
0100
0000
1001
0000
0100
0001
1020
0100
0031
1000
0010
0000
0000
0000
,
1100
0001
1000
0000
0011
0000
0110
0001
1100
0010
1000
0010
0101
0000
0000
0000
,
1001
0100
0001
0000
0110
0000
1000
0010
1002
0010
0103
0010
0001
0000
0000
0000
,
1100
0010
0100
0000
0011
0000
1001
0010
0101
0010
0100
0010
1100
0000
0000
0000
,
1001
0010
1000
0000
0101
0000
0100
0001
1020
0001
0130
1000
0010
0000
0000
0000
,
0101
1000
0100
0000
1001
0000
1100
0001
0110
1000
0100
0010
0101
0000
0000
0000
,
0101
0010
0001
0000
1010
0000
0001
0010
0201
0010
1300
0010
0001
0000
0000
0000
,
1010
0100
0010
0000
1001
0000
0011
1000
0110
1000
0001
0100
1010
0000
0000
0000
,
1001
0100
1000
0000
1010
0000
0001
0100
0021
1000
0130
1000
0001
0000
0000
0000
,
0100
1000
0001
0000
0110
0000
1010
0100
1001
0010
0100
0010
1001
0000
0000
0000
,
1001
0100
0001
0000
0110
0000
1000
0010
0102
0010
1003
0010
0001
0000
0000
0000
,
1001
0010
0001
0000
0101
0000
0011
1000
0110
0001
0010
0100
1001
0000
0000
0000
,
1001
0010
1000
0000
0101
0000
1000
0001
1020
0100
1030
0001
0100
0000
0000
0000
,
1001
0100
0001
0100
0011
0100
0011
1000
0101
1000
0001
0100
1001
0100
0001
0100
,
1001
0010
1000
0010
1100
0010
1000
0010
2100
0001
3100
0001
0100
0001
0100
0001
,
1001
0010
0100
0010
1100
0010
1100
0001
1010
0001
1000
0001
1100
0001
1000
0001
,
1100
0010
0100
0010
0101
0010
0100
1000
0210
1000
0310
1000
0010
1000
0010
1000
,
0001
0000
0001
0100
0001
1000
0100
0010
,
1000
0100
1000
0100
0010
0001
0010
0001
,
1000
0000
1000
0100
1000
0010
0100
1000
,
0001
0100
0010
1000
0001
0010
0100
1000
,
0001
0000
0100
0001
0010
0100
0001
1000
,
0100
1000
0010
0100
0001
0010
1000
0100
,
0001
0000
1000
0010
0100
0001
0010
0100
,
0001
0010
0001
1000
0100
0010
0100
1000
,
0011
0000
1100
1001
0010
0001
1010
0100
,
1001
0010
0001
0010
2000
3010
0100
1000
,
0011
0000
1100
1001
0010
0001
1010
0100
,
1001
0010
0100
0010
2000
3010
0001
0010
,
1100
0000
0011
1010
0100
1000
0011
0100
,
1010
0001
0100
0001
0020
1030
0010
0100
,
1001
0000
1001
0011
0100
0010
0101
1000
,
0011
0000
0100
0000
1000
0000
0100
0000
1002
0010
1103
0010
1001
0010
1100
0010
,
0001
0000
1000
1000
0001
0100
0001
0000
,
1000
0000
0000
0000
0100
0000
0000
0000
0022
0000
0000
0000
0000
0000
0000
0033
;
