#TITLE:Particle Brain;
#SUBTITLE:Scrap Brain Zone;
#ARTIST:Jivemaster;
#TITLETRANSLIT:;
#SUBTITLETRANSLIT:;
#ARTISTTRANSLIT:;
#CREDIT:owenviau1;
#BANNER:BN.png;
#BACKGROUND:BG.png;
#LYRICSPATH:;
#CDTITLE:../CDTitleOV1.png;
#MUSIC:Particle Brain - Jivemaster.mp3;
#OFFSET:-0.830;
#SAMPLESTART:142.358;
#SAMPLELENGTH:29.999;
#SELECTABLE:YES;
#DISPLAYBPM:170.000;
#BPMS:0.000=170.000;
#STOPS:;
#BGCHANGES:;
// cache tags:
#FIRSTBEAT:0.000;
#LASTBEAT:656.750;
#SONGFILENAME:Songs/owenviau1 (2016) (Pad & Index)/Particle Brain - [owenviau1] v1.0.2/Particle Brain.sm;
#HASMUSIC:1;
#HASBANNER:1;
#MUSICLENGTH:240.773;
// end cache tags

//---------------dance-single - 14.85 (15-) (owenvia----------------
#NOTES:
     dance-single:
     14.85 (15-) (owenvia:
     Challenge:
     15:
     1.000,1.000,0.037,0.021,1.000,2250.000,9.000,5.000,2.000,0.000:
1000
1000
1000
1000
1000
1000
0010
0010
,
0100
0100
0100
0100
0100
0100
0001
0001
,
1000
1000
1000
1000
1000
1000
0100
0100
,
0010
0010
0010
0001
0001
0001
0100
0100
,
0010
0010
0010
0010
0010
0010
1000
1000
,
0100
0100
0100
0100
0100
0100
0010
0010
,
0001
0001
0001
0001
0001
0001
1000
1000
,
0010
0010
0010
0100
0100
0100
0001
0001
,
1000
0100
0010
0001
0100
0010
1000
0010
0100
0001
1000
0100
0010
0001
0100
0010
,
1000
0001
0010
0100
1000
0010
0100
0010
1000
0001
0100
0010
0100
0001
1000
0100
,
0010
0001
0100
0010
1000
0001
0010
0001
0100
0010
1000
0001
0010
0100
1000
0010
,
0100
0001
0100
0010
1000
0001
1000
0010
0100
0001
1000
0100
0010
0001
0010
0100
,
1000
0010
0100
0010
1000
0001
0100
0010
0100
0001
1000
0100
0010
0001
0100
0010
,
1000
0001
0100
0001
1000
0010
0100
0001
0010
0100
1000
0010
0100
0001
1000
0100
,
1000
0010
0100
0010
1000
0001
0100
0001
0010
0100
1000
0010
0100
0001
1000
0100
,
0010
0001
1000
0010
0100
0001
0010
0100
1000
0010
0100
0001
0100
0010
1000
0001
,
0010
0100
1000
0010
0100
0001
0100
0010
1000
0001
1000
0010
0100
0001
1000
0100
,
0010
0001
0100
0010
1000
0001
0010
0001
0100
0010
0100
0001
1000
0001
0010
0100
,
1000
0010
0100
0010
1000
0100
0010
0001
0100
0010
1000
0001
0010
0001
0100
0010
,
1000
0100
0010
0001
1000
0010
1000
0100
0010
0001
0100
0001
1000
0100
0010
0001
,
0100
0010
1000
0001
0010
0001
0100
0010
1000
0001
0010
0100
1000
0010
0100
0001
,
0100
0010
1000
0001
0100
0001
0010
0100
1000
0010
0100
0001
0100
0010
1000
0100
,
0010
0001
1000
0010
1000
0100
0010
0001
0100
0010
1000
0100
0010
0001
0100
0010
,
1000
0001
0100
0001
0010
0100
1000
0010
0100
0001
1000
0100
0010
0001
0100
0010
,
1000
0001
0100
0010
0000
1000
0100
0000
,
0010
0001
0100
0010
0000
1000
0001
0000
,
0010
0100
1000
0010
0000
0100
0001
0000
,
1000
0000
0100
0000
0010
0000
0001
0000
1000
0010
0100
0001
1000
0100
0010
0001
,
0100
0010
1000
0100
0000
0010
0001
0000
,
0100
0010
1000
0001
0000
0100
0010
0000
,
1000
0000
0001
0000
0100
0000
0001
0000
0000
0000
1000
0000
0010
0000
0000
0100
,
0001
0000
1000
0000
0000
0000
0020
0000
0000
0430
0000
0000
0000
0000
0000
0000
,
0301
0010
0100
1000
0010
0100
0001
0100
0010
1000
0001
1000
0010
0100
0001
1000
,
0100
0010
0001
0100
0010
1000
0001
0010
0100
1000
0010
0100
0010
1000
0001
0100
,
0010
0100
0001
1000
0100
0010
0001
0100
0010
1000
0100
0010
0001
0100
0010
1000
,
0001
0100
0001
1000
0010
1000
0100
0010
0001
0100
0010
1000
0001
0010
0100
1000
,
0100
0010
0001
0100
0010
1000
0010
0100
0001
1000
0001
0010
0100
1000
0010
0100
,
0001
1000
0100
0010
0001
0100
0010
1000
0100
0010
0001
0100
0010
1000
0010
0100
,
0001
1000
0001
0010
0100
1000
0010
0100
0001
1000
0100
1000
0010
0100
0001
1000
,
0100
0010
0001
0100
0010
1000
0001
0010
0100
1000
0001
0010
0001
0100
0010
1000
,
0010
0100
0001
1000
0001
0010
0100
1000
0010
0100
0001
1000
0100
0010
0001
0100
,
0010
1000
0100
0010
0001
0010
0100
1000
0010
0100
0001
0100
0010
1000
0001
1000
,
0010
0100
0001
1000
0100
0010
0001
0100
0010
1000
0001
0010
0100
1000
0010
0100
,
0010
1000
0001
0100
0010
0100
0001
1000
0100
0010
0001
0100
0010
1000
0100
0010
,
0001
0010
0100
1000
0010
0100
0001
0010
0001
1000
0100
1000
0010
0100
0001
1000
,
0100
0010
0001
0100
0010
1000
0001
0010
0100
1000
0010
0100
0010
1000
0001
0100
,
0010
0100
0001
1000
0100
0010
0001
0100
0010
1000
0100
0010
0001
0100
0010
1000
,
0001
0100
0001
1000
0010
1000
0100
0010
0001
0100
0010
1000
0001
0010
0100
1000
,
0100
0010
0001
0100
0010
1000
0010
0100
0001
1000
0001
0010
0100
1000
0010
0100
,
0001
1000
0100
0010
0001
0100
0010
1000
0100
0010
0001
0100
0010
1000
0010
0100
,
0001
1000
0001
0010
0100
1000
0010
0100
0001
1000
0100
1000
0010
0100
0001
1000
,
0100
0010
0001
0100
0010
1000
0001
0010
0100
1000
0001
0010
0001
0100
0010
1000
,
0010
0100
0001
1000
0001
0010
0100
1000
0010
0100
0001
1000
0100
0010
0001
0100
,
0010
1000
0100
0010
0001
0100
0010
1000
0100
0010
0001
0100
0001
1000
0010
0000
,
0101
1010
1100
0110
0011
0101
1010
1001
,
0100
0010
1000
0100
0010
0001
0100
0010
1000
0001
0100
0010
0100
0001
0010
0100
,
1000
0100
0010
0001
0100
0010
1000
0010
0100
0001
1000
0100
0010
0001
0100
0010
,
1000
0001
0010
0100
1000
0010
0100
0010
1000
0001
0100
0010
0100
0001
1000
0100
,
0010
0001
0100
0010
1000
0001
0010
0001
0100
0010
1000
0001
0010
0100
1000
0010
,
0100
0001
0100
0010
1000
0001
1000
0010
0100
0001
1000
0100
0010
0001
0010
0100
,
1000
0010
0100
0010
1000
0001
0100
0010
0100
0001
1000
0100
0010
0001
0100
0010
,
1000
0001
0100
0001
1000
0010
0100
0001
0010
0100
1000
0010
0100
0001
1000
0100
,
1000
0010
0100
0010
1000
0001
0100
0001
0010
0100
1000
0010
0100
0001
1000
0100
,
0010
0001
1000
0010
0100
0001
0010
0100
1000
0010
0100
0001
0100
0010
1000
0001
,
0010
0010
0010
0010
0010
0010
0100
0100
,
1000
1000
1000
1000
1000
1000
0001
0001
,
0100
0100
0100
0100
0100
0100
0010
0010
,
1000
0000
0001
0001
0000
0100
0100
0000
,
0010
0000
1000
0001
0100
0000
0010
0000
1000
0000
0100
0000
0010
0000
0001
0000
,
0100
0000
0001
1000
0010
0000
0100
0000
0001
0000
1000
0000
0100
0000
1000
0000
,
0010
0000
0100
0001
0100
0000
0010
0000
1000
0000
0001
0000
1000
0000
0100
0000
,
0010
0000
0000
0000
0000
0000
0001
0000
0000
0100
0000
0000
0010
0000
0000
0000
0000
0000
1000
0000
0000
0000
0000
0000
0001
0000
0000
0000
0000
0000
0010
0000
0000
0000
0000
0000
0100
0000
1000
0000
0100
0000
1000
0000
0100
0000
1000
0000
,
0100
0010
0001
0100
0010
1000
0001
0100
0001
0010
0100
1000
0010
0100
0001
1000
,
0100
0010
0001
0100
0010
1000
0010
0100
0001
1000
0001
0010
0100
1000
0010
0100
,
0010
1000
0001
0100
0010
0100
0001
1000
0001
0100
0010
1000
0100
0010
0001
0100
,
0010
1000
0001
0010
0100
1000
0010
1000
0100
0010
0001
0100
0010
1000
0001
0010
,
0001
1000
0100
0010
0001
0100
0010
1000
0010
0100
0001
1000
0100
0010
0001
1000
,
0100
1000
0010
0100
0001
0010
0001
1000
0010
1000
0100
0010
0001
0100
0001
1000
,
0100
0010
0001
0100
0010
1000
0010
0100
0001
1000
0100
0010
0001
1000
0010
0100
,
0010
1000
0001
0010
0100
1000
0010
0100
0001
0000
1000
0000
0010
0000
0100
0000
,
0010
1000
0100
0010
0001
0100
0010
1000
0001
0100
0010
0100
0001
0010
0100
1000
,
0100
0010
0001
0100
0010
1000
0010
0100
0001
1000
0100
0010
0001
0100
0010
1000
,
0001
0010
0100
1000
0010
0100
0010
1000
0001
0100
0010
0100
0001
1000
0100
0010
,
0001
0100
0010
1000
0001
0010
0001
0100
0010
1000
0001
0010
0100
1000
0010
0100
,
0001
0100
0010
1000
0001
1000
0010
0100
0001
1000
0100
0010
0001
0010
0100
1000
,
0010
0100
0010
1000
0001
0100
0010
0100
0001
1000
0100
0010
0001
0100
0010
1000
,
0001
0100
0001
1000
0010
0100
0001
0010
0100
1000
0010
0100
0001
1000
0100
1000
,
0010
0100
0010
1000
0001
0100
0001
0010
0100
1000
0010
0100
0001
1000
0100
0010
,
0001
1000
0010
0100
0001
0010
0100
1000
0010
0100
0001
1000
0001
0100
0010
1000
,
0001
0100
0010
0100
0001
0010
0100
1000
0100
0010
0001
0100
0010
1000
0010
0100
,
0001
1000
0100
0010
0001
0100
0010
1000
0001
0010
0100
1000
0010
0100
0010
1000
,
0001
0100
0010
0100
0001
1000
0100
0010
0001
0100
0010
1000
0001
0010
0001
0100
,
0010
1000
0001
0010
0100
1000
0010
0100
0001
0100
0010
1000
0001
1000
0010
0100
,
0001
1000
0100
0010
0001
0010
0100
1000
0010
0100
0010
1000
0001
0100
0010
0100
,
0001
1000
0100
0010
0001
0100
0010
1000
0001
0100
0001
1000
0010
0100
0001
0010
,
0100
1000
0010
0100
0001
1000
0100
1000
0010
0100
0010
1000
0001
0100
0001
1000
,
0010
0000
0100
0001
1000
0100
0010
0000
0001
0100
0010
0000
1000
0000
0010
0100
,
0001
0000
0100
0000
0010
1000
0100
0000
0010
0001
0100
0000
0010
1000
0001
0000
,
0010
0000
0100
0000
1000
0001
1000
0000
0010
0100
0001
0000
1000
0000
0100
0000
,
0010
0000
0001
0100
0010
0000
1000
0000
0001
0010
0100
1000
0010
0100
0001
1000
,
0001
0010
0100
1000
0010
0100
0001
0100
0010
1000
0001
1000
0010
0100
0001
1000
,
0100
0010
0001
0100
0010
1000
0001
0010
0100
1000
0010
0100
0010
1000
0001
0100
,
0010
0100
0001
1000
0100
0010
0001
0100
0010
1000
0100
0010
0001
0100
0010
1000
,
0001
0100
0001
1000
0010
1000
0100
0010
0001
0100
0010
1000
0001
0010
0100
1000
,
0100
0010
0001
0100
0010
1000
0010
0100
0001
1000
0001
0010
0100
1000
0010
0100
,
0001
1000
0100
0010
0001
0100
0010
1000
0100
0010
0001
0100
0010
1000
0010
0100
,
0001
1000
0001
0010
0100
1000
0010
0100
0001
1000
0100
1000
0010
0100
0001
1000
,
0100
0010
0001
0100
0010
1000
0001
0010
0100
1000
0001
0010
0001
0100
0010
1000
,
0010
0100
0001
1000
0001
0010
0100
1000
0010
0100
0001
1000
0100
0010
0001
0100
,
0010
1000
0100
0010
0001
0010
0100
1000
0010
0100
0001
0100
0010
1000
0001
1000
,
0010
0100
0001
1000
0100
0010
0001
0100
0010
1000
0001
0010
0100
1000
0010
0100
,
0010
1000
0001
0100
0010
0100
0001
1000
0100
0010
0001
0100
0010
1000
0100
0010
,
0001
0010
0100
1000
0010
0100
0001
0010
0001
1000
0100
1000
0010
0100
0001
1000
,
0100
0010
0001
0100
0010
1000
0001
0010
0100
1000
0010
0100
0010
1000
0001
0100
,
0010
0100
0001
1000
0100
0010
0001
0100
0010
1000
0100
0010
0001
0100
0010
1000
,
0001
0100
0001
1000
0010
1000
0100
0010
0001
0100
0010
1000
0001
0010
0100
1000
,
0010
0010
0010
0010
0010
0000
1000
1000
,
0000
0001
0001
0000
0100
0100
0000
0010
,
1000
1000
1000
1000
1000
0000
0010
0010
,
0000
0100
0100
0000
0010
0010
0000
1000
,
0001
0001
0001
0001
0001
0000
0010
0010
,
0000
0100
0100
0000
1000
1000
0000
0001
,
0100
0100
0100
0100
0100
0000
0010
0010
,
0000
1000
1000
0000
0001
0001
0000
0000
,
1000
0100
0010
0001
0100
0010
1000
0010
0100
0001
1000
0100
0010
0001
0100
0010
,
1000
0001
0010
0100
1000
0010
0100
0010
1000
0001
0100
0010
0100
0001
1000
0100
,
0010
0001
0100
0010
1000
0001
0010
0001
0100
0010
1000
0001
0010
0100
1000
0010
,
0100
0001
0100
0010
1000
0001
1000
0010
0100
0001
1000
0100
0010
0001
0010
0100
,
1000
0010
0100
0010
1000
0001
0100
0010
0100
0001
1000
0100
0010
0001
0100
0010
,
1000
0001
0100
0001
1000
0010
0100
0001
0010
0100
1000
0010
0100
0001
1000
0100
,
1000
0010
0100
0010
1000
0001
0100
0001
0010
0100
1000
0010
0100
0001
1000
0100
,
0010
0001
1000
0010
0100
0001
0010
0100
1000
0010
0100
0001
0100
0010
1000
0001
,
0010
0100
1000
0010
0100
0001
0100
0010
1000
0001
1000
0010
0100
0001
1000
0100
,
0010
0001
0100
0010
1000
0001
0010
0001
0100
0010
0100
0001
1000
0001
0010
0100
,
1000
0010
0100
0010
1000
0100
0010
0001
0100
0010
1000
0001
0010
0001
0100
0010
,
1000
0100
0010
0001
1000
0010
1000
0100
0010
0001
0100
0001
1000
0100
0010
0001
,
0100
0010
1000
0001
0010
0001
0100
0010
1000
0001
0010
0100
1000
0010
0100
0001
,
0100
0010
1000
0001
0100
0001
0010
0100
1000
0010
0100
0001
0100
0010
1000
0100
,
0010
0001
1000
0010
1000
0100
0010
0001
0100
0010
1000
0100
0010
0001
0100
0010
,
1000
0000
0001
0000
0100
0000
0001
0000
0010
0000
0100
0000
1000
0000
0010
0000
0100
0000
0001
0000
1000
0000
0100
0000
0020
0030
0002
0003
0200
0300
0020
0030
,
1000
0100
0010
0001
0100
0010
1000
0010
0100
0001
1000
0100
0010
0001
0100
0010
,
1000
0001
0010
0100
1000
0010
0100
0010
1000
0001
0100
0010
0100
0001
1000
0100
,
0010
0001
0100
0010
1000
0001
0010
0001
0100
0010
1000
0001
0010
0100
1000
0010
,
0100
0001
0100
0010
1000
0001
1000
0010
0100
0001
1000
0100
0010
0001
0010
0100
,
1000
0010
0100
0010
1000
0001
0100
0010
0100
0001
1000
0100
0010
0001
0100
0010
,
1000
0001
0100
0001
1000
0010
0100
0001
0010
0100
1000
0010
0100
0001
1000
0100
,
1000
0010
0100
0010
1000
0001
0100
0001
0010
0100
1000
0010
0100
0001
1000
0100
,
0010
0001
1000
0010
0100
0001
0010
0100
1000
0010
0100
0001
0100
0010
1000
0001
,
0010
0100
1000
0010
0100
0001
0100
0010
1000
0001
1000
0010
0100
0001
1000
0100
,
0010
0001
0100
0010
1000
0001
0010
0001
0100
0010
0100
0001
1000
0001
0010
0100
,
1000
0010
0100
0010
1000
0100
0010
0001
0100
0010
1000
0001
0010
0001
0100
0010
,
1000
0100
0010
0001
1000
0010
1000
0100
0010
0001
0100
0001
1000
0100
0010
0001
,
0100
0010
1000
0001
0010
0001
0100
0010
1000
0001
0010
0100
1000
0010
0100
0001
,
0100
0010
1000
0001
0100
0001
0010
0100
1000
0010
0100
0001
0100
0010
1000
0100
,
0010
0001
1000
0010
1000
0100
0010
0001
0100
0010
1000
0100
0010
0001
0100
0010
,
1000
0001
0100
0001
0010
0100
1000
0010
0100
0001
1000
0100
0010
0001
0100
0010
,
1000
0100
0010
0001
0100
0010
1000
0001
0010
0001
0100
0010
1000
0100
0010
0001
,
1000
0010
1000
0100
0010
0001
0100
0001
1000
0100
0010
0001
0100
0010
1000
0001
,
0010
0001
0100
0010
1000
0001
0010
0100
1000
0010
0100
0001
0100
0010
1000
0001
,
0100
0001
0010
0100
1000
0010
0100
0001
0100
0000
0000
0000
0000
0000
0000
0000
,
0000
0000
0000
0000
,
0000
0000
0000
0000
,
0000
0000
0000
0000
,
0010
0010
0010
0010
0010
0010
0010
0010
,
00M0
0000
0000
00M0
0000
0000
0000
0000
0000
0000
0000
0000
0000
0000
0000
0000
,
0000
0000
0000
0000
,
0000
0000
0000
0000
,
0000
0000
0000
0000
,
0000
0000
0000
0000
,
0000
0000
0000
0000
;
