#TITLE:Chaos Angel - Act 3;
#SUBTITLE:[Sonic Advance 3];
#ARTIST:Sonic Team;
#TITLETRANSLIT:;
#SUBTITLETRANSLIT:;
#ARTISTTRANSLIT:;
#CREDIT:;
#BANNER:chaosact3.png;
#BACKGROUND:chaosact3-bg.png;
#LYRICSPATH:;
#CDTITLE:!hiryuu.png;
#MUSIC:chaosact3.ogg;
#OFFSET:-0.175;
#SAMPLESTART:2.817;
#SAMPLELENGTH:12.000;
#SELECTABLE:YES;
#BPMS:0.000=181.000;
#STOPS:;
#BGCHANGES:;
// cache tags:
#FIRSTBEAT:8.000;
#LASTBEAT:296.000;
#SONGFILENAME:Songs/keyboard/chaosact3/chaosact3.sm;
#HASMUSIC:1;
#HASBANNER:1;
#MUSICLENGTH:107.402;
// end cache tags

//---------------dance-single - MANIAC----------------
#NOTES:
     dance-single:
     MANIAC:
     Hard:
     11:
     1.000,0.999,1.000,0.372,0.628,648.000,115.000,40.000,0.000,1.000:
0000
0000
0000
0000
,
0000
0000
0000
0000
,
1001
0000
0010
0100
0001
0000
0100
0000
0100
0000
0010
0000
0000
0000
0120
0000
,
0000
0000
1030
0001
0100
0000
0010
0000
1010
0000
1000
0000
1010
0000
0000
0000
,
0101
0000
0100
0010
1000
0000
0010
0000
0010
0000
1000
0000
0000
0000
1002
0000
,
0103
0010
1000
0000
1010
0000
0000
0000
1001
0000
1000
0000
0010
0100
0001
0000
,
0100
0000
0010
1000
0100
0000
1000
0000
1002
0000
1003
0000
0010
0000
0220
0000
,
0030
0000
1300
0001
0100
0000
0001
0000
0101
0000
0100
0000
0110
0000
0010
0000
,
1000
0000
0100
0001
0120
0000
0130
0000
1000
0000
1002
0000
0103
0000
0220
0000
,
0300
0000
1030
0100
0010
0000
0100
0000
0101
0000
0001
0000
1000
0001
1000
0001
,
1000
0000
0000
1010
0000
0000
0010
0100
0001
0000
0101
0000
1000
0000
1010
0000
,
0100
0000
0000
0101
0000
0000
0001
0100
0010
0000
1010
0000
1000
0000
1001
0000
,
0001
0000
0000
0101
0000
0000
0100
0010
1000
0000
1010
0000
0010
0000
0110
0000
,
0100
0001
0010
0000
1000
0000
1010
0000
0001
0100
0010
0000
1000
0010
0100
0000
,
0001
0000
0100
0010
0100
0000
0001
0000
1001
0000
1000
0000
1010
0000
0010
0000
,
0100
0000
0001
0100
0010
0000
1000
0000
1010
0000
0010
0000
0100
0001
0010
0000
,
0001
0000
0100
0010
1000
0000
0100
1000
0010
0100
0001
0000
0100
0010
1000
0000
,
0001
0100
0010
0100
0001
1000
0010
0100
1000
0100
1000
0010
0100
0001
1000
0000
,
0001
0000
0000
0101
0000
0000
0100
0001
0010
0000
0100
0000
0101
0000
0100
0000
,
1000
0000
0000
1010
0000
0000
0010
1000
0100
0000
1000
0000
1010
0000
0000
0000
,
0100
0000
0000
0110
0000
0000
0010
1000
0100
0000
0110
0000
0010
0000
1010
0000
,
1000
0000
0010
0100
0001
0000
0101
0000
0100
0010
1000
0000
0100
0001
0010
0000
,
1010
0000
1000
0010
0100
0000
1001
0000
0100
0000
0010
0100
0001
0000
0100
0000
,
0010
1000
0100
0000
1000
0000
0101
0000
0100
0000
0010
0100
0001
0000
0100
0000
,
0010
1000
0100
0000
1000
0000
1001
0000
0001
0100
0010
0100
0010
1000
0010
0000
,
1000
0010
1000
0010
1000
0000
0000
0000
0001
0100
0001
0100
0001
0000
0000
0000
,
0100
0010
0100
0010
0100
0000
0000
0000
1000
0001
1000
0001
1000
0000
0000
0000
,
0001
0100
0001
0100
0001
0000
0000
0000
1000
0010
1000
0010
1000
0000
0000
0000
,
0100
0001
0100
0001
0100
0000
0000
0000
0010
1000
0010
1000
0010
0000
0000
0000
,
0101
0001
0101
0001
1100
1100
0100
0110
,
0010
0000
0110
0000
0100
0000
0110
0000
0010
0000
1000
0000
0001
0100
0010
0000
,
1100
0100
1100
1000
1010
1010
0010
0110
,
0100
0000
0110
0000
0010
0000
0220
0000
0000
0030
0000
0000
0310
0001
1000
0000
,
0001
0100
0010
0100
0001
0010
0001
0100
,
1000
0010
0100
0010
1000
0100
1000
0010
,
0100
0001
0100
0010
0100
0001
1000
0010
,
0100
0010
0100
1000
0010
0100
0001
0010
,
0001
0100
1000
0100
1000
0010
0100
0001
,
1000
0000
0100
0010
0000
0000
0110
0000
0001
0000
0010
0100
0000
0000
0110
0000
,
1000
0010
0100
0010
1000
0010
1010
0000
,
0001
0100
0010
0100
0001
1000
1010
0000
,
0001
0100
0010
0000
0100
0000
0010
0000
1000
0000
0100
0000
1000
0000
0001
0000
,
0010
0001
0100
0000
0010
0000
0100
0000
0001
0000
1000
0000
0010
0000
0100
0000
,
1000
0100
0010
0000
0100
0000
0010
0000
1000
0000
0100
0000
0001
0000
0010
0000
,
0001
0010
1000
0000
0010
0000
0100
0000
0001
1000
0001
1000
0001
1000
0001
1000
,
1001
0001
1000
1001
1000
0001
1001
0110
,
0100
0001
0010
0000
0100
0000
0001
0000
1000
0000
0010
0100
0001
0000
0010
0000
,
1010
1000
0010
1010
0010
1000
1010
0011
,
0101
0001
0100
0101
0001
0100
0101
1100
,
0100
0000
0001
0010
0001
0000
0100
0000
0110
0000
0010
0000
1020
0000
2030
0000
,
0000
0000
3001
0100
0010
0000
1000
0000
0010
0000
0100
0000
0001
0000
0010
0000
,
0001
0000
1000
0010
1000
0000
0001
0000
1001
0000
1000
0000
2010
0000
3020
0000
,
0000
0000
0130
0001
0010
0000
0110
0000
1000
0010
1000
0000
0001
0100
0001
0000
,
1000
0000
0010
0100
0001
0000
0100
0000
0010
1000
0001
0000
0101
0000
0120
0000
,
0000
0000
0130
0001
1000
0000
0010
0000
0100
0001
0010
0000
0001
0010
0100
0000
,
2002
0000
0000
3003
0110
0000
0220
0000
0300
0000
0130
0000
1000
0001
0100
0000
,
2002
0000
0000
3003
0110
0000
2020
0000
0030
0000
3010
0000
1000
0010
0100
0000
,
0101
0000
0001
0100
0010
0000
1010
0000
0001
0100
0010
0000
1010
0000
0202
0000
,
0300
0000
0103
0001
0010
0000
0001
0000
0100
0010
1000
0000
0001
0100
0010
0000
,
0110
0000
0001
0100
0010
0000
0110
0000
0010
0100
0001
0000
1010
0000
0220
0000
,
0030
0000
0310
0100
0001
0000
0101
0000
0100
0010
1000
0000
0010
0100
0001
0000
,
1010
0000
0010
0100
0001
0000
0100
0000
0010
1000
0001
0000
0101
0000
2002
0000
,
3000
0000
1003
0010
0100
0000
0101
0000
0010
0100
0001
0000
0100
1000
0010
0000
,
0202
0000
0000
0303
0110
0000
2020
0000
0000
3000
1030
0010
0100
0000
0001
0000
,
0220
0000
0000
0300
1130
0000
2002
0000
0000
3000
0010
0000
1003
0010
0100
0000
,
0001
0100
0010
0100
0001
0000
0000
0000
1000
0010
0100
0010
1000
0000
0000
0000
,
0010
1000
0100
1000
0010
0000
0000
0000
0100
0001
0010
0001
0100
0000
0000
0000
,
0001
0010
0100
0010
0001
0000
0000
0000
1000
0100
0010
0100
1000
0000
0000
0000
,
1000
0010
0100
0010
1000
0000
0000
0000
0001
0100
0010
0100
0001
0000
0000
0000
,
1010
0000
0010
1000
0100
0000
0001
0000
0101
0000
0101
0000
0100
0010
1000
0000
,
0010
0000
1010
0000
0100
0000
0101
0000
0100
0010
1000
0000
0010
0100
0001
0000
,
0101
0100
0101
0001
1001
1001
1000
1010
,
0010
0000
0110
0000
0100
0000
0101
0000
0001
0100
0010
1000
0001
0010
0001
2000
,
0002
0000
0000
0000
,
3003
0000
0000
0000
;

//---------------dance-single - TRICKY----------------
#NOTES:
     dance-single:
     TRICKY:
     Medium:
     9:
     0.636,0.620,0.307,0.019,0.149,443.000,33.000,2.000,0.000,0.000:
0000
0000
0000
0000
,
0000
0000
0000
0000
,
1000
0010
0100
0000
0001
0100
0010
0100
,
0000
0010
1000
0000
0010
0100
0001
0000
,
0010
0100
1000
0000
0010
0100
0000
0100
,
0000
0000
0010
0000
0100
0000
0000
0000
0001
1000
0001
0000
0100
0000
0010
0000
,
0001
0010
0100
0000
1000
0010
0000
0010
,
0000
1000
0001
0000
0010
0100
1000
0000
,
0001
1000
0001
0000
0100
0010
0000
0010
,
0000
0000
0010
0000
0100
0000
0000
0000
0001
0000
1000
0000
0001
1000
0001
0000
,
1000
0000
0000
0001
0000
0000
1000
0001
1000
0000
0000
0000
0001
0000
0000
0000
,
0100
0000
0000
0010
0000
0000
0100
0010
0100
0000
0000
0000
0010
0000
0000
0000
,
1000
0000
0000
0100
0000
0000
1000
0100
1000
0000
0000
0000
0100
0000
0000
0000
,
1000
0000
0001
0100
0000
0010
0000
1000
,
0001
0000
0010
0100
0000
1000
0000
0010
,
0100
0000
0001
1000
0000
1001
0000
0000
,
0001
0000
1000
0010
0000
0100
0000
0001
,
1000
0010
0100
0001
1000
0100
0010
0001
,
1000
0000
0000
1010
0000
0000
0010
0100
0001
0000
0000
0000
0101
0000
0000
0000
,
0001
0000
0000
0011
0000
0000
0100
1000
0010
0000
0000
0000
0110
0000
0000
0000
,
0001
0000
0000
1001
0000
0000
0100
0010
0001
0000
0000
0000
1001
0000
0000
0000
,
1010
0000
0010
0100
0000
0101
0000
0001
,
1000
0000
0100
0010
0000
0011
0000
0001
,
0100
0000
0010
1000
0000
1001
0000
0000
,
1000
0010
0100
0001
0000
1001
0000
0001
,
1000
0010
1000
0000
0000
0000
0000
0000
1000
0010
1000
0000
0000
0000
0000
0000
,
0001
0100
0001
0000
0000
0000
0000
0000
0001
0100
0001
0000
0000
0000
0000
0000
,
0010
1000
0010
0000
0000
0000
0000
0000
0010
1000
0010
0000
0000
0000
0000
0000
,
0100
0001
0100
0000
0000
0000
0000
0000
0100
0001
0100
0000
0000
0000
0000
0000
,
0001
0100
0101
0000
0001
0100
0000
0010
,
0000
1000
0000
0010
0000
1000
0010
0100
,
0001
0100
0101
0000
0001
0100
0000
1000
,
0000
0100
0000
0001
0000
1000
0001
1000
,
0001
0010
1000
0010
0001
0010
1000
0010
,
0001
0100
1000
0100
0001
0100
1000
0100
,
0001
0100
0010
0100
0001
0100
0010
0100
,
0001
0010
0100
0010
0001
0010
0100
0010
,
0001
0100
1000
0100
0001
0010
1000
0010
,
0000
0000
0001
1000
0000
0000
1001
0000
0000
0000
0001
1000
0000
0000
1001
0000
,
0000
0001
0010
0100
0010
0001
0010
0100
,
0000
1000
0100
0010
0100
1000
0100
0010
,
1000
0100
0010
0100
0001
0100
0010
0100
,
1000
0010
0100
0010
0001
0010
0100
0010
,
1000
0001
0100
0001
0010
0001
0100
0001
,
0010
0100
1000
0010
0100
0001
1000
0010
,
0100
0001
0101
0100
0001
0101
0100
0001
,
0000
0100
0000
1010
0000
0001
0000
0110
,
1000
0010
0100
0010
0100
0001
0010
0001
,
0100
0010
1000
0100
1000
0010
1000
0001
,
0010
0100
0110
0000
0010
0001
1000
0001
,
0000
0001
0100
0000
0100
0001
0000
0001
,
1000
0010
1010
0000
1000
0010
0000
0110
,
0000
0100
0001
0000
0001
0010
0100
1000
,
0001
1000
1001
0000
0001
0100
0010
0110
,
0000
0100
0010
0000
0010
0100
0000
0001
,
1000
0010
0100
0010
0000
0010
1000
0000
,
1000
0100
0010
0001
0000
0001
0100
0010
,
1000
0010
0110
0000
0100
0001
0010
0011
,
0000
0001
0100
0000
0100
0010
0000
0010
,
1000
0100
1000
0000
1000
0100
0000
0110
,
0000
0010
0100
0000
0100
0001
0000
0001
,
0100
1000
0010
0100
0001
1000
0000
1001
,
0000
0001
0010
0100
1000
0100
0000
1000
,
0010
0000
0100
0010
0000
0100
0001
0010
,
0100
0100
0000
0110
0000
0010
0100
1000
,
0001
1000
0001
0000
0000
0000
0000
0000
1000
0001
1000
0000
0000
0000
0000
0000
,
0010
0100
0010
0000
0000
0000
0000
0000
0100
0010
0100
0000
0000
0000
0000
0000
,
0001
0010
0001
0000
0000
0000
0000
0000
0010
0001
0010
0000
0000
0000
0000
0000
,
1000
0100
1000
0000
0000
0000
0000
0000
0100
1000
0100
0000
0000
0000
0000
0000
,
1000
0010
1010
0000
1000
0010
0000
1000
,
0000
0010
0000
1000
0000
0001
0100
0010
,
0100
0001
0101
0000
0100
0001
0000
0100
,
0000
0001
0000
1000
0010
0100
0001
1000
,
2002
0000
0000
0000
,
3003
0000
0000
0000
;

//---------------dance-single - BASIC----------------
#NOTES:
     dance-single:
     BASIC:
     Easy:
     6:
     0.424,0.620,0.326,0.317,0.028,250.000,35.000,34.000,0.000,0.000:
0000
0000
0000
0000
,
0000
0000
0000
0000
,
1000
0000
0010
0000
0000
0100
0000
0001
,
0000
0100
0001
1000
,
0001
0000
0010
0000
0000
0100
0000
1000
,
0000
2002
0000
3003
,
0001
0000
0010
0000
0000
0100
0000
1000
,
0000
0100
0010
0100
,
0010
0000
0001
0000
0000
0100
0000
1000
,
0000
0100
0220
0330
,
0001
0000
0000
0001
0000
0000
0000
0000
0001
0000
0000
0000
0001
0000
0000
0000
,
1000
0000
0000
1000
0000
0000
0000
0000
1000
0000
0000
0000
1000
0000
0000
0000
,
0010
0000
0000
0010
0000
0000
0000
0000
0010
0000
0000
0000
0010
0000
0000
0000
,
1000
0001
0100
0010
,
0100
0000
0010
0100
0000
0010
0000
0000
,
0100
0000
0010
0100
0000
0010
0000
0000
,
1000
0000
0001
1000
0000
0001
0000
2002
,
0000
0000
0000
0000
0000
0000
0000
3003
,
1000
0000
0000
0010
0000
0000
0100
0000
0001
0000
0000
0000
0100
0000
0000
0000
,
0001
0000
0000
0010
0000
0000
0100
0000
1000
0000
0000
0000
0001
0000
0000
0000
,
1000
0000
0000
0001
0000
0000
0100
0000
0010
0000
0000
0000
0001
0000
0000
0000
,
0010
0010
0100
0100
,
0001
0000
0010
0100
0000
0110
0000
0010
,
0100
0000
0100
1000
0000
1001
0000
0000
,
0001
0001
1000
1000
,
2020
3030
0000
0000
0220
0330
0000
0000
,
0022
0033
0000
0000
0202
0303
0000
0000
,
2002
3003
0000
0000
2200
3300
0000
0000
,
0022
0033
0000
0000
0202
0303
0000
0000
,
0001
0101
0001
0101
,
0001
0000
0101
0000
0001
0100
0001
0000
,
1000
1010
1000
1010
,
1000
0000
1010
0000
1000
0010
1000
0000
,
0010
1000
0010
0001
,
0010
1000
0100
0001
,
0100
1000
0010
0001
,
0010
1000
0001
0010
,
1000
0010
0001
1000
,
0000
0001
0000
0001
0000
1000
0000
1000
,
0000
0010
0010
0010
,
0000
0100
0100
0100
,
0010
0010
0100
0100
,
0001
0001
1000
1000
,
0001
0010
0001
0000
0010
0000
0010
0000
,
0100
1000
0100
0000
1000
0001
1000
0000
,
0101
0000
0000
0110
0000
0000
1100
0000
,
0000
0010
0000
0000
0000
0100
0000
0000
,
0101
0000
0000
0110
0000
0000
0110
0000
,
1100
0000
0000
0110
0000
0000
0011
0000
,
0001
0000
0010
0000
0000
0001
0000
0100
,
0000
0000
0001
0000
0000
0100
0000
0000
,
0010
0000
1000
0000
0000
0010
0000
0100
,
0000
0000
0001
0000
0000
0010
0000
0000
,
0001
0000
1000
0000
0000
0010
0000
0100
,
0000
0000
0010
0000
0000
1000
0000
0000
,
0001
0000
0000
0220
0000
0330
0000
0000
,
0100
0000
0000
0220
0000
0330
0000
0000
,
1000
0000
0010
0000
0000
0100
0000
0001
,
0000
0000
0100
0000
0000
0010
0000
0000
,
1000
0000
0100
0000
0000
0010
0000
0001
,
0000
0000
0010
0000
0000
0100
0000
0000
,
1000
0000
0010
0000
0000
0100
0000
0001
,
0000
0000
0100
0000
0000
0010
0000
0000
,
1000
0000
0000
2002
0000
3003
0000
0000
,
0001
1000
0000
2002
0000
3003
0000
0000
,
0001
0001
0000
0000
1000
1000
0000
0000
,
0010
0010
0000
0000
0100
0100
0000
0000
,
0001
0001
0000
0000
0010
0010
0000
0000
,
0100
0100
0000
0000
1000
1000
0000
0000
,
1000
0000
1010
0000
1000
0010
0000
1000
,
0000
0010
0000
2000
0000
0000
3001
0000
,
0100
0000
0101
0000
0100
0001
0000
0100
,
0000
0001
0000
2000
0000
0000
3001
0000
,
2002
0000
0000
0000
,
3003
0000
0000
0000
;
