#TITLE:Operation Ground And Pound v2;
#SUBTITLE:Inhuman Rampage;
#ARTIST:Dragonforce;
#TITLETRANSLIT:;
#SUBTITLETRANSLIT:;
#ARTISTTRANSLIT:;
#CREDIT:Dog_E;
#BANNER:Operation.PNG;
#BACKGROUND:Operation-BG.PNG;
#LYRICSPATH:;
#CDTITLE:DogETitle.PNG;
#MUSIC:Dragonforce - Operation Ground And Pound.mp3;
#OFFSET:-0.306;
#SAMPLESTART:157.124;
#SAMPLELENGTH:26.040;
#SELECTABLE:YES;
#BPMS:0.000=240.000,176.000=200.000;
#STOPS:;
#BGCHANGES:;
// cache tags:
#FIRSTBEAT:0.000;
#LASTBEAT:1566.000;
#SONGFILENAME:Songs/CMDKDF Pack/Operation Ground And Pound v2 (Dog_E)/Dragonforce - Operation Ground And Pound.sm;
#HASMUSIC:1;
#HASBANNER:1;
#MUSICLENGTH:464.744;
// end cache tags

//---------------dance-single - Blank----------------
#NOTES:
     dance-single:
     Blank:
     Hard:
     13:
     1.000,1.000,1.000,0.682,1.000,3921.000,576.000,317.000,0.000,12.000:

0010
1000
0100
0010
0002
0000
0013
0100
,
1000
0010
0100
0001
0010
0100
1000
0010
,
1000
0001
0010
0100
2000
0000
3100
1000
,
0100
0010
0001
0100
0010
1000
0100
0010
,
0110
0001
0010
0100
2000
0000
3100
0010
,
0001
0100
0010
1000
0100
0010
0001
0100
,
1001
0010
0100
0010
0002
0000
0013
0001
,
0010
0100
1000
0010
0100
0001
0010
0100
,
1001
0010
0100
0010
2000
3000
0100
0001
,
0010
0001
1000
0010
0100
0001
0010
1000
,
0110
1000
0100
0010
0002
0000
0013
0100
,
1000
0010
0100
0001
0010
0100
1000
0010
,
1001
0100
0010
0100
2000
0000
3100
1000
,
0100
0010
0001
0100
0010
1000
0100
0010
,
0110
0001
0010
0100
2000
0000
3100
0010
,
0001
0100
0010
1000
0100
0010
0001
0100
,
1001
0010
0100
0010
0101
0000
0010
0001
,
0010
0100
1000
0010
0100
0001
0010
0100
,
1001
0010
0100
0010
1100
0000
0100
0001
,
0010
0001
1000
0010
0100
0001
0010
1000
,
0110
0001
1000
0001
1100
0000
0001
0100
,
0010
1000
0100
0010
0100
0010
0001
0010
,
0110
1000
0001
1000
0011
0000
1000
0010
,
1000
0001
0100
1000
0001
0010
1000
0001
,
0110
1000
0001
1000
0101
0000
0001
0010
,
1000
0010
0100
1000
0001
0010
1000
0100
,
1001
0010
0100
0010
0101
0000
0010
0001
,
1000
0100
0001
1000
0001
1000
0010
1000
,
0110
1000
0001
1000
0011
0000
1000
0010
,
1000
0001
0100
1000
0001
0010
1000
0001
,
0110
1000
0001
1000
0101
0000
0001
0010
,
1000
0010
0100
1000
0001
0010
1000
0100
,
1002
0000
0000
0000
,
0000
0000
0000
0000
0003
2000
3002
0003
,
0120
0000
0000
0000
,
0000
0000
0030
2000
0000
3002
0000
0003
,
2001
0000
0000
0000
,
0000
0000
0000
0000
0000
0000
0000
0000
0000
0000
0000
0000
0000
0000
0000
0000
0000
0000
0000
0000
0000
0000
0000
0000
0000
0000
0000
0000
0000
0000
0000
0000
0000
0000
0000
0000
3000
0000
0000
0000
0000
0000
0200
0000
0000
0320
0000
0030
,
0002
0000
0000
0000
0000
0000
0003
0000
0000
0000
0000
0000
0002
0000
0000
0000
0000
0003
0000
0000
0020
0000
0000
0000
0000
0000
0030
0000
0000
0000
0000
0000
,
0200
0000
0000
0300
0022
0000
0033
0000
0000
0000
2200
0000
3300
0000
0000
0000
,
2002
0000
0000
0000
,
0000
0000
0000
0000
,
0000
0000
0000
0000
,
0000
0000
0000
0000
0000
0000
0000
3003
,
1000
0100
0010
0001
1000
0100
0010
0001
1000
0100
0010
0001
1000
0100
0010
0001
,
1000
0001
0010
0100
1000
0001
0000
0000
1001
0000
1001
0000
0220
0000
0330
0000
,
0000
1001
1001
1001
0010
2000
3100
0020
,
0000
0030
0001
0000
0100
0000
0000
0000
0101
0000
0101
0000
2000
0000
0000
0000
,
3220
0330
0010
0000
1001
0000
1001
0000
0100
0000
0020
0000
0031
0000
0100
0000
,
1000
0100
0010
0001
0110
0000
0001
0000
1000
0000
0100
0000
0011
0000
0100
0000
,
1000
0100
1000
0100
1000
0100
1000
0100
0010
0100
1000
0100
1000
0100
1000
0100
,
1000
0100
1000
0100
1000
0100
1000
0100
0010
0100
1000
0100
1000
0100
1000
0100
,
0011
0000
1001
0000
0010
0100
0010
0000
1001
0000
1100
0000
0100
0010
0100
0000
,
0010
0000
0000
0000
0001
0000
0000
0000
0010
0000
0000
0000
0100
0000
0000
0010
0002
0000
0000
0000
0000
0000
0000
0000
1003
0000
0000
0000
0100
0000
0000
0000
,
0010
0100
0010
0100
0010
0100
0010
0100
0010
0001
0010
0001
0010
0001
0010
0001
,
1000
0001
1000
0001
1000
0001
1000
0001
1000
0100
1000
0100
1000
0100
1000
0100
,
1000
0100
0010
0001
0010
0001
0010
0100
1000
0100
1000
0010
0001
1000
0100
1000
,
0100
0010
0001
0010
0100
1000
0100
0010
1100
0000
0000
0000
0011
0000
0000
0000
,
0110
0000
0010
0002
0000
0200
0000
0303
,
0010
1000
0010
1000
0010
0100
0010
0001
,
1000
0100
0010
0001
0010
0100
1000
0100
0010
0100
0010
0100
0010
0001
0010
0100
,
1000
0100
0010
0100
0010
1000
0100
0010
0001
0100
0010
0100
0010
0100
0010
0100
,
1001
0000
0000
0000
1001
0010
0100
1000
0100
0010
2002
0000
3003
0000
0110
0000
,
1001
0000
0000
0000
1001
0000
0000
0000
0001
0010
0100
1000
0002
0000
0000
0003
,
0110
0000
1000
0000
0001
0000
0010
0000
0100
0000
1000
0000
0100
0000
0010
0000
0101
0000
0000
0000
1010
0000
0000
0000
0000
0000
0000
1001
0000
0000
0000
0000
,
0000
2002
0000
0000
0000
0000
0000
0000
0000
0000
0000
0000
0000
3003
0000
0000
,
1000
0000
0100
0000
0010
0100
0010
0000
0001
0000
0010
0000
0100
0010
0001
0010
,
0100
0000
1000
0000
0100
1000
0100
0000
0010
0000
0100
0000
0001
0010
0100
0010
,
0001
0000
0100
0000
0010
0100
0010
0000
1000
0000
0100
0000
0010
0100
1000
0100
,
0010
0000
0001
0000
0100
0010
1000
0000
0100
0010
0001
0010
0100
1000
0100
0010
,
1001
0110
0011
1100
0110
0011
1001
0000
,
0011
0110
1010
0101
0110
1001
0011
0000
,
1000
0000
0100
0000
0010
0100
0010
0000
0001
0000
0010
0000
0100
0010
1000
0100
,
1001
0011
1010
1100
0101
0011
1010
1100
,
1001
0000
1000
0000
0100
1000
0100
0000
0001
0000
0100
0000
1000
0100
0001
0100
,
1000
0000
0010
0000
1000
0010
1000
0000
0100
0000
1000
0000
0001
0100
1000
0100
,
0001
0000
1000
0000
0100
1000
0100
0000
0010
0000
1000
0000
0100
1000
0010
1000
,
0100
0000
0001
0000
1000
0100
0010
0000
1000
0100
0001
0100
1000
0010
1000
0100
,
0011
1100
0101
1010
1100
0101
0011
0000
,
0101
1100
0110
1001
1100
0011
0101
0000
,
0010
0000
1000
0000
0100
1000
0100
0000
0001
0000
0100
0000
1000
0100
0010
0100
,
2002
0000
3003
0000
,
1000
0100
0010
0001
0010
0100
0001
1000
0100
1000
0100
0010
0001
0010
0001
0100
,
0010
0100
0010
1000
0100
0010
0001
0100
0010
1000
0100
0010
0001
1000
0100
0010
,
1000
0100
1000
0100
0001
0010
0100
1000
0001
1000
0100
1000
0100
1000
0001
0010
,
0100
1000
0001
1000
0100
0010
0100
1000
0001
0010
0100
0010
0001
1000
0100
0010
,
0100
1000
0100
0010
0001
0010
0100
1000
0001
0010
0001
0010
0100
0010
0100
1000
,
0001
0010
0100
1000
0100
0010
1000
0100
0010
0001
0100
0010
0001
0010
0100
1000
,
1001
0000
0110
0000
0011
0000
1100
0000
0011
0000
0110
0000
,
1001
1001
1001
1001
0000
1001
0000
1001
,
1000
0000
0100
0000
0010
0001
0010
0000
0100
0000
1000
0000
0010
0100
0010
0000
,
1000
0000
0010
0000
0100
0010
0001
0000
0100
0000
0010
0000
0001
0100
0010
0000
,
1000
0000
0100
0000
0010
0001
0010
0000
0100
0000
0010
0000
1000
0100
0010
0000
,
0001
0000
0100
0000
0010
0001
0100
0000
0010
0000
1000
0000
0010
0100
0001
0000
,
1000
0100
0010
0100
1000
0100
0010
0001
0010
0001
0010
0100
0010
0100
1000
0100
,
0010
0001
0010
0100
0010
0001
1000
0001
0010
0100
1000
0100
0010
0001
0010
0100
,
1000
0010
0001
0010
1000
0100
0010
0001
0010
0100
1000
0001
0010
0100
0010
0001
,
1000
0100
0010
0001
1000
0100
0010
0001
1000
0100
0010
0001
1000
0100
0010
0001
,
0020
0000
0000
0000
0031
1000
0100
0000
0010
0000
0100
0000
0010
1000
0100
0000
,
0010
0000
0001
0000
0100
0010
1000
0000
0100
0000
0010
0001
1000
0000
0100
0000
,
0001
0010
0100
1000
0100
0010
0001
0010
0001
0100
1000
0100
1000
0100
0010
0001
,
0010
0100
0001
1000
0001
1000
0010
0100
1000
0100
0010
0001
0100
0001
0010
0100
,
1001
0011
0101
1001
0110
1010
1001
0101
,
1010
0011
1010
1100
0101
0110
1010
1001
,
0101
0011
1010
0101
1010
1100
1001
0110
,
1001
0010
1000
0100
0010
0001
0100
0010
1001
0100
0010
0001
0110
1000
0001
0100
,
2020
0000
0000
3030
0100
0010
0001
1000
,
0010
0100
0001
1000
0100
1000
0001
0010
,
0001
1000
0010
0001
0100
0010
1000
0001
,
1001
0000
0100
0000
0010
0100
1000
0100
0010
0001
0010
0100
1010
0000
0000
0000
,
0220
0000
0000
0000
0331
1000
0010
0000
0001
0010
0100
0000
1000
0100
0010
0000
,
0100
0010
1000
0000
0001
0100
0010
0000
1000
0100
0010
0000
1001
0000
0000
0000
,
1001
1000
1000
0011
0001
0001
0110
0100
,
1001
0100
0010
0001
1000
0100
0010
0001
1000
0100
0010
0001
1001
0000
0000
0000
,
2002
3013
0100
1000
0100
0010
1000
0010
0100
1000
0100
0010
0100
1000
0001
0010
,
0001
0100
0010
0100
0010
1000
0100
1000
0001
0010
0001
1000
0100
0010
0100
1000
,
0100
0010
0001
0100
1000
0100
0010
0001
0010
0100
0010
0001
1000
0001
1000
0100
,
0010
0001
0100
0010
1000
0100
0010
0001
1000
0010
0100
0001
1000
0100
0010
0001
,
1000
0000
0001
0010
0000
0000
0001
0000
,
0100
0000
1000
0010
0000
0000
0100
0000
,
0010
0000
0001
0100
0000
0000
0010
0000
,
1000
0000
0001
1000
0000
0000
0010
0000
,
0100
0000
0010
1000
0000
0000
0001
0000
,
1000
0000
0100
0010
0000
0000
0010
0000
,
2002
0000
0000
0000
0000
0000
0000
0000
3223
0000
0000
0000
0000
0000
0000
0330
,
0022
0000
0000
0000
0000
0033
1000
0100
0001
0000
0001
0100
1000
0000
0000
0000
,
1000
0100
0010
0100
0001
0010
1000
0001
0100
0010
1000
0001
0100
0010
0001
0010
,
0100
1000
0100
0010
0001
1000
0100
0010
0100
0010
0001
0100
0010
1000
0001
0100
,
0010
1000
0010
0001
0010
0100
1000
0100
0010
0001
0100
0001
0100
0010
1000
0100
,
0010
0001
0100
0010
1000
0100
0010
0001
0010
0100
1000
0001
0010
0100
1000
0010
,
2200
0000
3300
0022
0000
0033
2200
3300
,
0022
0000
0033
2020
0000
3030
0101
0000
,
1001
0101
1001
1100
1001
0110
0011
1100
,
1000
0100
0020
0002
0000
0000
0000
0033
0000
0000
0000
0000
0001
0010
0200
2000
0000
0000
0000
3300
0000
0000
0000
0000
,
0110
0110
0000
0110
2002
3000
0003
0000
,
1000
1000
0001
0100
0010
0010
1000
0002
,
0000
0003
1000
0000
0010
0000
0100
0000
0001
0000
0100
0000
0020
0000
0000
0030
,
0000
1001
0110
1010
1100
0101
0010
0100
,
0011
0100
1000
0010
1100
0110
1010
1100
,
0001
0010
0100
1000
0100
0010
0001
0010
0100
1000
0100
0010
0001
0010
0100
1000
,
0100
0010
0001
0010
0100
1000
0100
0010
0001
0010
0100
1000
0100
0010
0001
0010
,
1001
0000
0000
0000
1001
0000
0000
0000
0000
0000
0000
0000
0100
0000
0000
0000
0020
0000
0000
0030
0002
0000
0000
0003
0020
0000
0000
0000
0230
0000
0000
0300
,
0110
0000
0000
0000
0110
0000
0000
0000
0000
0000
0000
0000
1000
0000
0100
0010
0002
0000
0000
0003
0010
0000
0000
0000
1100
0000
0000
0000
0011
0000
0000
0000
,
0011
0011
0000
0110
0011
1001
0000
1001
,
0011
0011
0000
0110
0011
0110
1100
0110
,
1001
0000
1001
0000
0000
0000
1010
0000
0102
0000
0010
0003
1000
0010
0100
0000
,
0010
0000
0001
0000
0100
0010
0100
0000
0020
0000
0000
0030
2000
0000
0000
3000
,
0100
0000
0010
0000
0001
0010
0100
0000
0100
0000
1000
0000
0100
0010
0100
0000
,
1000
0000
0010
0000
0100
0001
0100
0000
0010
0000
1000
0000
0100
0001
0100
0000
,
1000
0100
0010
0001
1000
0001
0010
0100
1000
0100
0010
0001
1000
0001
0010
0100
,
1000
0100
0010
0001
1000
0001
0010
0100
1000
0100
0010
0001
1000
0001
0010
0100
,
1001
0000
0000
0000
1001
0000
0000
1000
0100
0001
0110
0000
0000
0000
0110
0000
,
0011
0000
0000
0000
0011
0000
0000
0000
0001
0010
0001
0010
0200
0000
0300
0000
,
0110
1000
0100
0010
0001
0010
0100
1000
0110
0000
0011
0000
0000
0000
2000
0000
,
0000
0000
0000
0000
0000
0000
0000
0000
0010
0000
0000
0000
0010
3000
0000
0000
,
1000
0000
0001
0000
0010
0100
0010
0000
1000
0000
0100
0000
0010
0001
0010
0000
,
0100
0000
0001
0000
0100
0010
0100
0000
1000
0000
0001
0000
0100
0010
0001
0000
,
0100
0000
0010
0000
1000
0100
0010
0000
0100
0000
0010
0000
0001
1000
0001
0000
,
0100
0000
0010
0000
1000
0100
1000
0000
0100
0000
0010
0000
0100
0001
0100
0000
,
0010
0000
0001
0000
1000
0001
1000
0000
0100
0000
0010
0000
0100
1000
0100
0000
,
0010
0000
0001
0000
0100
0010
0100
0000
0001
0000
0010
0000
0001
0010
0001
0000
,
0100
0000
0010
0000
1000
0001
0100
0000
1000
0000
0010
0000
0001
1000
0010
0000
,
0001
0100
0001
0001
0011
0110
1001
0000
,
1000
0100
0010
0100
1000
0100
0010
0001
0100
0010
1000
0001
0100
0010
1000
0100
,
1000
0001
1000
0010
1000
0100
0010
0001
0100
0010
1000
0001
1000
0001
1000
0010
,
0100
0010
0001
0100
1000
0001
0010
0100
0010
0001
0010
0100
1000
0001
1000
0010
,
0001
0010
1000
0100
0010
0001
1000
0001
0010
0100
1000
0001
0100
0010
0001
1000
,
0010
0100
0001
1000
0010
0100
0001
1000
0010
0100
0001
0010
0001
0100
1000
0100
,
0010
0001
0010
0001
1000
0100
1000
0010
0001
0010
0100
0010
0100
0010
1000
0001
,
0100
0010
0100
1000
0001
0010
0100
0001
1000
0100
0010
0001
0100
0010
0001
0010
,
1000
0100
0010
0001
1000
0100
0010
0001
1000
0100
0010
0001
1000
0100
0010
0001
,
1010
0100
0011
0011
1000
0001
1100
0010
,
1001
0100
0011
0011
0100
1000
0110
0001
,
1100
0001
1010
1010
0100
1000
0110
0000
,
1001
0010
0100
1000
0001
0100
0010
1000
0001
0010
0100
1000
0001
1000
0100
0010
,
0001
0010
1000
0100
0001
1000
0010
0100
,
0010
1000
0001
0100
0010
0001
0100
0010
,
1001
0000
0101
0000
1100
0000
1010
0000
0011
0000
0110
0000
,
1001
1001
0000
1001
0000
1001
0000
0010
,
0001
1000
0010
1000
0100
1000
0001
1000
0001
0010
0100
1000
0010
0100
0001
0010
,
0100
0010
0001
1000
0001
0010
0001
1000
0001
0100
0010
1000
0100
0010
0001
0100
,
0010
1000
0001
0010
0100
1000
0100
0010
0100
0010
0001
0010
0100
1000
0100
0010
,
0001
0010
0100
0010
1000
0001
0100
0001
0010
0001
0100
0001
1000
0100
0010
0001
,
1000
0010
0100
0001
0100
0001
0010
0001
0010
0100
1000
0100
0010
0001
0010
0100
,
1000
0100
0001
0010
0001
1000
0100
1000
0010
0001
0010
0100
0010
0100
0001
1000
,
0100
0010
0001
0010
0100
1000
0010
0100
0001
0010
0100
1000
0100
1000
0010
1000
,
0001
0010
0100
1000
0001
0010
0100
1000
0001
0010
0100
1000
0001
0010
0100
1000
,
0020
0000
1000
0030
0100
0010
0100
0000
0001
0000
0010
0000
0100
1000
0100
0000
,
0010
0000
0001
0000
0010
0100
0010
0000
1000
0000
0001
0000
0010
0100
0001
0000
,
0010
0000
0100
0000
1000
0100
1000
0000
0010
0000
0001
0000
0100
0010
0100
0000
,
1000
0000
0001
0000
0100
0010
0001
0000
0100
0000
1000
0000
0100
0010
0001
0000
,
1001
0011
0101
1100
0110
1001
0011
0110
,
1001
1001
1001
0000
1001
2002
3003
0000
,
0001
0000
0010
0000
0100
0000
1000
0000
0100
0000
0010
0000
0001
0000
0010
0000
0100
0000
1000
0000
0100
0000
0010
0000
0001
0000
0000
0010
0000
0000
0100
0000
0000
1000
0000
0000
0001
0000
0000
1000
0000
0000
0100
0000
0000
0010
0000
0000
,
1001
0000
0000
0000
0000
0000
0000
0000
0200
0000
0000
0300
0200
0000
0000
0300
,
2002
0000
0100
3003
0010
0000
0001
0000
0100
0000
0010
0000
1000
0000
0001
0000
,
0100
0010
0001
1000
0100
0010
0001
0010
,
1000
0000
0100
0000
0010
0001
0010
0000
0100
0000
0010
0000
0001
0010
0100
0000
,
1000
0000
0001
0000
0100
0010
0100
0000
1000
0000
0100
0000
0010
0001
0010
0000
,
1000
0000
0100
0000
1000
0001
0010
0000
0010
0000
0100
0000
0010
0001
0010
0000
,
0100
0000
0010
0000
0100
0001
0100
0000
1000
0000
0010
0000
0100
0010
0100
0000
,
0001
0000
0010
0000
0100
1000
0100
0000
0010
0000
0100
0000
1000
0100
1000
0000
,
0001
0010
0100
1000
0001
0010
0100
1000
0100
0010
0001
0010
0100
1000
0100
0010
,
1000
0001
1000
0100
1000
0010
1000
0100
0010
0001
0010
0100
1000
0001
0100
0010
,
1000
0010
0100
0001
0010
0100
0010
1000
0001
0100
0010
1000
0010
0001
0010
0100
,
0010
0100
1000
0100
0010
0001
0010
0100
1000
0100
0010
0001
0010
0001
0010
0100
,
0010
0001
1000
0001
0010
0100
0010
0100
0001
1000
0100
0010
0001
1000
0001
1000
,
0001
0100
1000
0010
1000
0100
1000
0100
0010
0001
0010
0100
1000
0010
0100
0001
,
1000
0001
0100
1000
0100
0010
0001
1000
0100
0010
0001
0010
0100
0001
0100
0010
,
1000
0100
0010
0001
0100
0010
0100
1000
0001
0100
0010
1000
0001
0100
0010
0001
,
0010
0100
0001
1000
0001
0100
0001
0010
0001
1000
0010
1000
0100
0010
0100
0010
,
1000
0100
0010
0001
1000
0001
0010
0100
1000
0100
0010
0001
1000
0001
0010
0100
,
1000
0100
0010
0001
1000
0001
0010
0100
1000
0100
0010
0001
0010
0100
1000
0100
,
2002
0000
0000
3003
0000
0000
0000
0000
0220
0000
0000
0330
0000
0000
0000
0000
,
2002
3003
0000
0000
1100
0000
0011
0000
,
1000
0001
0100
0010
1000
0001
0100
0010
0001
0010
0100
1000
0100
0010
0001
0010
,
0100
0010
1000
0100
0010
0001
0100
0010
0002
0000
0000
0000
0000
0000
0000
0003
,
0110
1000
0100
0010
0100
0010
1001
0100
0010
0001
0100
0010
1100
0010
0001
0100
,
1001
0010
0100
1000
0001
0010
0100
1000
0001
0010
0100
1000
0001
0010
0100
1000
,
2002
0000
0000
0000
3003
0000
0022
0000
0000
0033
0000
0000
2020
0000
3030
0000
,
0202
0303
0000
2200
3300
0000
2002
3003
,
0110
1100
0110
0011
1001
0011
1001
1100
,
2001
0000
0000
0100
0000
0000
0100
0000
0000
3100
0000
0000
0012
0000
0010
0000
0010
0000
0010
0000
0013
0000
0000
0000
,
0010
1000
0100
0010
0001
0100
0010
0000
0000
1001
0000
0000
2002
0000
0000
0000
0000
0000
3003
0000
0000
0000
0000
0000
,
2002
3003
1100
0110
0011
0101
0011
0101
,
1100
0110
0101
1001
0110
1001
0110
0011
,
1100
0011
0110
1100
0101
0011
0110
1001
,
0110
1100
0110
0101
0011
1100
0101
0011
,
1100
0101
1001
0110
1001
0011
0110
0011
,
1001
1001
0110
1100
0101
0011
0101
1001
,
0110
0011
1100
0101
0011
1100
0101
1010
,
0101
0101
0000
0011
0000
1001
0000
0110
,
2000
0100
0010
3200
0010
0001
0320
1000
,
0032
0010
1000
0203
0010
1000
0302
0013
,
2000
0100
3001
0020
0100
0001
0230
0010
,
2300
0000
0000
0100
0000
0000
0010
0000
0000
0001
0000
0000
0010
0000
0000
0100
0000
0000
0001
0000
0000
0100
0000
3000
,
2000
0010
0100
3002
0100
0010
0203
1000
,
0302
0100
1000
0023
0001
1000
0032
0010
,
0203
1000
0001
0320
1000
0001
2030
0010
,
3200
0010
0001
1000
0010
0001
0010
0001
,
2300
0100
0010
3200
0001
1000
0320
0100
,
0032
1000
0010
0203
0001
0010
0302
0100
,
2003
0010
0100
3002
0010
1000
0203
0010
,
0302
1000
0010
0100
0010
1000
0100
0010
,
2003
0100
0010
3200
0001
1000
0320
0100
,
0032
0010
0103
0002
1000
0100
0023
0100
,
0032
1000
0103
2000
0010
3001
0020
0100
,
1030
0100
0010
0001
1000
0100
0010
0001
1000
0001
0010
0100
1000
0001
0010
0100
,
1001
0011
1100
0101
0011
0101
1010
0101
,
1010
0101
0011
0101
1010
0110
0101
1001
,
1010
0101
1100
0011
0110
1100
0011
0110
,
0011
0101
1010
0110
0011
0110
1010
0011
,
0110
0101
1100
0110
0101
1010
0101
0011
,
1010
1001
0011
0110
1001
0101
1001
1010
,
1001
0101
0011
1010
1001
0011
1010
1001
,
1001
0011
1001
1010
1100
0101
0011
1001
,
0011
1010
0101
1010
0101
0011
1100
0110
,
0011
1100
0101
0011
1001
0101
0011
1100
,
0101
1010
0101
0011
0101
0011
1001
1100
,
0011
1010
1100
1001
1010
1100
0101
0011
,
0101
1001
0110
0101
1010
0101
0011
1100
,
0011
0101
1100
0011
0101
1001
0011
0101
,
1100
0011
0101
0011
1001
1100
0101
0011
,
0110
1001
0011
1100
0110
0011
1100
0011
,
0110
1001
0000
1001
0000
1001
0000
1001
,
0000
1001
0100
0010
0001
0100
0010
0001
,
1000
0100
0010
0001
1000
0100
0010
0001
1000
0100
0010
0001
1000
0100
0010
0001
1000
0100
0010
0001
1000
0100
0010
0001
,
2000
0000
0100
0000
0100
0000
0100
0000
0100
0000
0100
0000
0100
0000
0100
0000
0100
0000
0100
0000
0100
3000
0100
0000
,
0001
0010
0100
0010
0100
1000
0100
1000
0100
1000
0100
0010
0001
0100
0001
0010
,
0100
1000
0100
1000
0100
1000
0100
0010
0001
0010
0100
0010
0001
0000
0001
0000
,
0010
0000
0000
0000
0000
0000
0100
0000
0000
1000
0000
0000
0001
0000
0000
0000
0000
0000
0010
0000
0000
0000
0000
0000
0100
0000
0000
1000
0000
0000
0001
0000
0000
0000
0000
0000
1000
0000
0100
0000
0010
0000
0001
0000
0000
0010
0000
0000
,
0001
0000
0000
0100
0000
0000
0010
0000
0000
0100
0000
0000
1000
0000
0100
0000
0010
0000
0001
0000
0000
0010
0000
0000
0001
0000
0000
0100
0000
0000
0010
0000
0000
1000
0000
0000
0200
0000
0000
0010
0000
0000
0310
0000
0000
0010
0000
0000
,
0001
0010
0100
1000
0001
1000
0100
0010
0001
0100
0010
1000
0010
0100
0010
0001
,
1000
0000
0000
0000
0000
0000
0000
0000
0000
0000
0000
0000
0100
0000
0000
0000
0000
0000
0000
0000
0000
0000
0000
0000
0010
0000
0000
0000
0000
0000
0000
0000
0000
0000
0000
0000
0001
0000
0000
0000
0000
0000
0000
0000
0000
0000
0000
0000
1001
0000
0000
0000
0000
0000
0000
0000
0100
0000
0000
0000
0000
0000
0000
0000
0010
0000
0000
0000
0000
0000
0000
0000
0001
0000
0000
0000
0000
0000
0000
0000
0000
0000
0000
0000
0100
0000
0000
0000
0000
0000
0000
0000
0000
0000
0000
0000
0002
0000
0000
0000
0000
0000
0000
0000
0000
0000
0000
0000
0000
0000
0000
0000
0000
0000
0000
0000
0000
0000
0000
0003
0002
0000
0000
0000
0000
0000
0000
0000
0000
0000
0000
0000
0000
0000
0000
0000
0000
0000
0000
0000
0000
0000
0000
0003
0002
0000
0000
0000
0000
0000
0000
0000
0000
0000
0000
0000
0000
0000
0000
0000
0000
0000
0000
0000
0000
0000
0000
0003
0001
0000
0000
0000
0000
0000
0000
0000
0000
0000
0000
0000
0000
0000
0000
0000
0000
0000
0000
0000
0000
0000
0000
0000
,
0010
1000
0100
0010
0001
0100
0010
1000
0100
0010
0001
0100
0010
1000
0100
0010
0001
1000
0100
0010
0001
1000
0100
0010
,
0001
0010
0100
1000
0001
0010
0100
1000
0001
0010
0100
1000
0001
0010
0100
1000
0001
0010
0100
1000
0001
0010
0100
1000
,
0002
0000
0000
0000
0000
0000
0023
0000
0000
0000
0030
0000
0200
0000
0000
0300
,
0002
0023
0230
2300
3020
0230
2300
3200
,
0320
0000
0032
0000
0000
0000
0000
0023
0000
0000
0000
0000
2030
0000
0000
3000
,
0200
0000
0000
0000
0000
0000
0320
0000
0000
0000
0000
0000
0032
0000
0000
0000
0000
0000
0203
0000
0000
0000
0000
0000
0320
0000
0000
0000
0000
0000
0000
0000
0000
0030
0000
0000
0201
0000
0000
0000
0001
0000
0000
0000
0301
0000
0000
0000
,
0010
1000
0100
0010
0001
1000
0010
0100
0001
1000
0100
0010
0001
0010
0100
1000
,
0100
0010
0001
0100
0001
1000
0001
0010
0100
1000
0010
0100
2000
0000
0002
3003
,
0001
0010
0100
1000
0001
0010
0100
1000
0001
0010
0100
1000
0001
0010
0100
1000
0001
0010
0200
0000
0300
0200
0000
0000
,
1300
0100
0010
0001
1000
0100
0010
0001
1000
0100
0010
0001
2000
0000
0000
0000
0000
0000
0000
0000
0000
0000
3000
0000
,
1001
0020
0032
0013
0110
0020
2030
3010
,
1001
0100
0020
0032
0110
0000
2000
3003
,
1000
0100
0010
0001
1000
0100
0010
0001
1000
0100
0010
0001
1000
0100
0010
0001
1000
0100
0010
0001
1000
0100
0010
0001
,
1000
0100
0010
0001
0010
0100
1000
0100
0010
0001
0010
0100
1000
0100
0010
0001
0010
0100
1000
0100
0010
0001
0010
0100
,
1010
0100
0010
0001
0010
1000
0101
0010
0001
0100
0010
0001
,
1010
0000
0100
0010
0001
0000
0100
0000
1000
0000
0010
0000
0101
0000
0010
0000
0100
0000
0020
0000
0000
0000
0030
0000
,
1001
0011
1001
1010
1001
0101
1001
1100
,
0110
0000
0110
0000
1010
0101
2002
3003
,
0020
0000
0000
0032
0000
0003
2000
0000
,
3200
0310
0000
0001
0000
0020
0000
0030
,
0001
0010
0100
1000
0001
0010
0100
1000
0001
0010
0100
1000
0001
0010
0100
1000
0001
0010
0100
1000
0001
0010
0100
1000
,
0001
0000
0000
0010
0000
0000
0100
0000
0000
1000
0000
0000
0100
0000
0000
0010
0000
0000
0002
0000
0000
1003
0100
0010
,
1001
0000
0000
0000
0100
0000
0000
0000
0010
0000
0000
0000
0001
0000
0000
0000
0010
0000
0000
0000
0100
0000
0000
0000
1000
0000
0000
0001
0000
0000
0010
0000
0000
0100
0000
0000
1000
0000
0000
0001
0000
0000
0010
0000
0000
0100
0000
0000
,
1000
0100
0010
1000
0100
0010
1000
0100
0020
0032
0023
0032
0023
0032
0023
0032
,
1003
0000
0000
0000
0000
0000
0100
0000
0010
0000
0001
0000
0010
0000
0000
0100
0000
0000
1000
0000
0000
0100
0000
0000
0010
0000
0100
0000
1000
0000
0100
0000
0010
0000
0001
0000
0010
0000
0000
0100
0000
0000
0010
0000
0000
1000
0000
0000
,
0100
0000
0000
0010
0000
0000
0001
0000
0000
1000
0000
0000
0001
0000
0000
1000
0000
0000
0010
0000
0000
0100
0000
0000
0010
0000
0000
0001
0000
0000
1000
0000
0000
0100
0000
0000
0010
0000
0100
0000
1000
0000
0100
0000
0010
0000
0001
0000
,
0020
0000
0000
0000
0000
0030
0200
0000
0000
0000
0000
0300
0002
0000
0000
0000
,
0023
0030
1000
0000
0000
0000
0100
0000
0000
0000
0020
0000
0000
0000
0030
0000
,
0001
0010
0000
0100
0000
0010
0000
1000
,
0000
0000
0001
0000
1000
0000
0020
0000
0030
0000
2000
0000
0000
3000
0000
0000
,
1000
0000
0000
0100
0000
0000
0010
0001
0010
0001
0000
0000
0100
0000
0000
0100
0000
0000
1000
0001
1000
0001
0000
0000
,
0100
0000
0000
0010
0000
0000
0100
0000
1000
0000
0100
0000
0010
0000
0001
0000
0010
0000
0100
0000
1000
0000
0001
0000
0010
0000
0100
0000
1000
0000
0001
0000
0010
0000
0100
0000
1000
0000
0000
0010
0000
0000
0100
0000
0000
0010
0000
0000
,
0100
0001
1000
0001
1000
0100
1000
0100
0010
0001
0010
0100
1000
0100
0010
0001
,
0020
0000
2030
0000
3002
0000
0203
0000
0000
0000
0000
0300
,
0002
0000
0000
2003
0000
0000
3002
0000
,
0023
0000
0000
0230
0000
0000
2300
0000
,
3020
0000
0000
0230
0000
0300
0020
0000
,
2030
0000
0000
3000
0000
0000
0000
0000
,
0022
0000
0033
0220
0000
0330
2002
3003
,
2200
0000
3300
0220
0000
0330
2020
0000
,
3131
0001
0100
0001
0100
0001
0101
1000
0010
1000
0010
1000
0100
0010
0001
0010
,
0100
0001
0010
0100
1000
0100
1000
0100
0010
0100
0010
0001
1000
0001
1000
0100
,
1001
0100
0010
0100
0001
1000
0001
0100
0001
1000
0001
1000
0100
0010
0001
1000
,
0001
1000
0100
1000
0010
1000
0001
0100
0010
0001
0010
0100
1000
0001
0010
1000
,
0001
0100
0010
1000
0001
0100
0010
1000
0001
0100
0010
0001
0010
0100
1000
0100
,
0010
0001
0100
1000
0100
0010
0001
0010
0100
1000
0001
0010
0001
0100
0001
0100
,
0001
0010
0001
0100
1000
0100
0001
0010
0001
0100
1000
0100
0010
0100
0010
0001
,
1000
0001
0010
0100
1000
0001
0100
0010
0001
0010
0100
0010
1000
0100
0010
0001
,
0010
0001
0100
0001
1000
0010
0100
0010
1000
0010
0100
0001
0010
0001
0100
1000
,
0100
0010
1000
0010
0100
0001
0010
0001
1000
0100
1000
0100
0010
0100
0010
0001
,
1001
1000
0100
0010
0001
0010
0100
0010
0001
0010
0001
0100
0001
1000
0001
1000
,
0110
0001
0010
0001
0100
0010
1000
0010
0100
0001
1000
0010
0100
0001
0010
0100
,
1001
0000
0011
0000
0100
1000
0100
0000
0110
0000
0011
0000
0100
0010
0100
0000
,
0001
0001
0010
1000
0020
0000
0030
0000
,
1000
0000
0000
0100
0000
0000
0010
0000
0002
0000
0000
0003
0000
0000
0020
0000
,
0032
0000
0000
0203
0000
0300
2000
0000
0000
3000
0000
0000
0000
0000
0000
0000
,
0000
0000
0000
0000
0000
0000
0000
0000
0110
0000
0000
0000
0000
0000
0000
0001
2000
0000
0000
0000
0000
0000
0000
0000
3100
0000
0000
0000
0000
0000
0000
0000
,
0020
0000
0000
0000
0000
0030
0000
0000
0000
0000
0000
0000
0002
0000
0000
0000
0000
0000
0003
0000
0000
0000
0000
0000
0200
0000
0000
0000
0000
0300
0000
0000
,
0020
0000
0000
0000
0000
0000
0000
0000
0000
0000
0000
0000
0000
0000
0000
0000
0000
0000
0030
0000
0000
0000
0000
0000
2000
0000
0000
0000
0000
0000
0000
0000
0000
0000
0000
0000
0000
0000
0000
0000
0000
0000
0000
0000
0000
0000
0000
0000
0100
0000
0000
0000
0000
0000
0000
0000
0000
0000
0000
0000
0000
0000
0000
0000
0100
0000
0000
0000
0000
0000
0000
0000
0000
0000
0000
0000
0000
0000
0000
0000
0100
0000
0000
0000
0000
0000
0000
0000
0000
0000
0000
0000
0000
0000
0000
0000
0100
0000
0000
0000
0000
0000
0000
0000
0000
0000
0000
0000
0000
0000
0000
0000
0100
0000
0000
0000
0000
0000
0000
0000
0000
0000
0000
0000
0000
0000
0000
0000
0100
0000
0000
0000
0000
0000
0000
0000
0000
0000
0000
0000
0000
0000
0000
0000
3100
0000
0000
0000
0000
0000
0000
0000
0000
0000
0000
0000
0000
0000
0000
0000
0000
0000
0000
0000
0000
0000
0000
0000
0000
0000
0000
0000
0000
0000
0000
0000
0000
0000
0000
0000
0000
0000
0000
0000
0000
0000
0000
0000
0000
0000
0000
0000
,
1000
0100
0010
0001
1000
0001
0010
0100
0010
0100
1000
0001
1000
0001
1000
0001
,
0010
0100
1000
0100
1000
0100
0001
0010
0001
0100
0010
0100
1000
0100
0010
0001
,
1000
0000
0100
0000
0010
0000
0001
0000
0000
0010
0000
0000
0100
0000
0010
0000
0100
0000
0010
0000
0000
0001
0000
0000
1000
0000
0100
0000
0010
0000
0001
0000
0000
0000
0000
0000
0010
0000
0100
0000
1000
0000
0000
0000
0001
0000
0000
0000
,
1010
0000
0100
0000
0010
0000
0001
0000
0000
0100
0000
0000
2000
0000
3200
0000
0320
0000
0002
0000
0033
1000
0000
0000
,
0200
0000
0320
0000
0002
0000
0133
0000
1000
0000
0001
0000
0010
0000
0000
1000
0000
0000
0200
0000
0300
0000
0000
0000
,
0011
0011
0011
1000
0110
0110
0110
0001
,
1010
1010
1010
0100
0020
0030
0002
0000
,
1003
0000
0000
0100
0000
0000
0010
0000
0002
0000
0000
0000
0013
0000
0001
0000
,
0100
0000
0000
0010
0000
0000
0001
0000
0000
0100
0000
0000
2000
0000
0100
0000
0100
0000
0100
0000
0100
0000
0100
0000
,
3100
0010
0001
1000
0001
0010
0100
0001
1000
0010
0100
1000
0100
0010
0001
0100
,
1000
0010
1000
0010
1000
0100
1000
0100
0010
0001
0010
0100
0002
0010
0010
0013
,
0100
1000
0100
1000
0001
0010
0100
1000
0100
1000
0100
0010
0001
0010
0100
0010
,
1000
0100
0001
0100
1000
0100
0010
0001
0010
1000
0010
0001
0010
0100
1000
0100
,
2002
0000
3003
2000
,
3200
0000
0000
0302
0000
0003
2000
0000
,
3002
0000
0203
0302
0000
0000
0000
0000
,
0003
0000
0020
2030
,
3200
0000
0000
0000
0000
0300
0020
0030
,
0020
0030
2000
3002
0000
0003
2000
0000
,
3200
0000
0000
0000
0000
0000
0300
0000
0000
0002
0000
0000
0000
0000
0000
0003
0000
0000
0020
0000
0000
0000
0030
0000
,
0110
0000
1001
0000
0011
0000
1100
0000
2002
0000
0000
3003
2002
0000
0000
3003
,
1001
0100
0010
0100
0010
0100
0010
0100
0001
0010
0001
1000
0001
0010
0001
0100
,
0010
0100
0001
1000
0010
0100
0010
1000
0010
0100
0010
1000
0001
0100
0010
1000
,
0001
0010
0001
0100
0010
1000
0100
0010
0001
0010
0001
0100
0010
1000
0100
1000
,
0100
0010
0001
0010
0100
1000
0001
0010
0001
0100
0010
1000
0100
1000
0100
0010
,
0001
0010
1000
0100
0001
0100
0010
1000
0010
0100
0010
0001
0010
0100
1000
0100
,
0010
0001
0100
0010
1000
0100
0010
0001
0100
1000
0100
0010
0001
0010
0100
1000
,
0100
1000
0010
1000
0100
0001
0010
0001
0100
0010
1000
0100
1000
0001
1000
0001
,
1000
0100
0010
0001
1000
0001
0010
0100
1000
0100
0010
0001
1000
0001
0010
0100
,
1000
0001
0100
0001
1000
0010
0100
0001
1000
0100
1000
0100
0010
0001
1000
0001
,
0010
0100
0010
1000
0100
1000
0100
0010
0001
0010
0100
1000
0100
0010
0001
0010
,
0001
0010
0001
0100
0001
0100
0001
1000
0100
1000
0010
1000
0001
1000
0010
0100
,
0001
0010
0100
1000
0001
1000
0100
0010
0001
1000
0001
0010
0100
1000
0001
0010
,
1100
0000
0110
0000
1000
0001
1000
0000
0110
0000
0011
0000
0100
1000
0100
0000
,
1010
0000
0101
0000
0010
1000
0010
0000
0101
0000
0011
0000
0100
0010
0001
0000
,
1010
0000
1100
0000
0100
0001
0010
0000
0011
0000
1001
0000
0100
0010
0001
0000
,
1001
0000
0110
0000
1000
0001
1000
0000
0011
0000
1100
0000
0010
0100
0010
0000
,
0002
0000
0000
0000
0000
0000
0000
0003
,
1000
0100
1000
0000
0010
0000
0001
0010
0001
0000
0010
0000
0100
0010
0100
0000
,
1001
0100
0100
0100
1010
0001
0001
0001
,
1100
0010
0010
0010
2002
3003
2002
3003
,
2002
0000
0000
0000
0000
0000
0020
3203
,
1330
0100
0010
0001
1000
0001
0010
0100
1000
0001
1000
0100
0010
0001
0010
0100
,
0011
0000
0110
0000
1000
0100
1000
0000
0110
0000
0011
0000
1000
0010
1000
0000
,
0101
0000
0110
0000
1000
0001
1000
0001
0011
0000
0110
0000
1000
0100
1000
0100
,
1002
0000
0000
0000
0003
0000
0020
0000
0000
0000
0030
0000
0200
0000
0000
0300
,
2001
0000
0000
0000
3000
0000
0200
0000
0000
0000
0000
0300
0002
0000
0000
0003
,
0110
1000
0100
0010
0001
0010
0100
1000
0100
0010
0001
0010
0100
1000
0100
0010
,
1001
0101
1001
1100
,
0020
0100
1000
0100
1000
0100
1000
0100
1000
0100
1000
0100
1000
0100
1030
0100
,
2002
0000
0000
0000
0000
0000
0000
0000
0000
0000
0000
3003
,
1000
0000
0100
0000
0010
0000
0001
0000
0001
0010
0100
1000
0010
0100
1000
0001
,
0010
0100
1000
0000
0100
0000
0010
0000
0001
0000
1000
0000
0010
0000
0100
0000
,
0001
0000
0010
0000
0100
0000
1000
0000
0100
0000
0001
0000
1000
0100
0010
0001
,
2002
3013
0100
1000
0100
0010
0100
1000
0100
0010
0001
1000
0001
1000
0001
1000
,
0100
0000
0010
0000
0001
0000
0010
0000
0000
0100
0000
0000
1000
0000
0000
0001
0000
0000
1000
0000
0000
0100
0000
0000
0010
0000
0000
0100
0000
0000
0001
0000
0000
0010
0000
0000
0001
0000
0000
0100
0000
0000
0010
0000
0000
0100
0000
0000
,
0011
0000
1100
0000
,
0011
0110
1100
0110
2002
0000
0000
0003
,
0000
0000
0000
0000
0000
0000
0001
0000
0010
0000
0000
0000
0100
0000
0000
0020
0000
0000
0000
0000
0000
0000
0000
0000
3030
0000
0000
0000
0000
0000
0000
0000
0000
0000
0000
0000
0000
0000
0000
0000
0000
0000
0000
0000
0000
0000
0000
0000
;
