#TITLE:Zero's Theme(Megaman X3);
#SUBTITLE:;
#ARTIST:Capcom Sound Team;
#TITLETRANSLIT:;
#SUBTITLETRANSLIT:;
#ARTISTTRANSLIT:;
#CREDIT:Jason D. Gersztyn;
#BANNER:zero.GIF;
#BACKGROUND:zero's theme-bg.JPG;
#LYRICSPATH:;
#CDTITLE:PhoenixW-cdtitle.JPG;
#MUSIC:05 - X3 SFC - ZERO.mp3;
#OFFSET:-1.676;
#SAMPLESTART:50.712;
#SAMPLELENGTH:12.000;
#SELECTABLE:YES;
#BPMS:0.000=122.358;
#STOPS:;
#BGCHANGES:;
// cache tags:
#FIRSTBEAT:1.500;
#LASTBEAT:127.000;
#SONGFILENAME:Songs/keyboard/X3 SFC - ZERO/05 - X3 SFC - ZERO.sm;
#HASMUSIC:1;
#HASBANNER:1;
#MUSICLENGTH:71.087;
// end cache tags

//---------------dance-single - ----------------
#NOTES:
     dance-single:
     :
     Challenge:
     8:
     0.490,0.447,0.309,0.647,0.373,176.000,22.000,46.000,0.000,2.000:
0000
0000
0000
0000
0000
0000
1000
1000
0000
0000
0002
0000
0200
0003
0000
0000
,
0300
0000
0001
0000
1000
0100
0010
0010
0000
0000
0000
0000
0010
0010
0000
0000
,
0000
0000
0100
0000
1000
0001
0010
0000
0000
0000
0220
0000
0000
0000
0000
0000
,
1330
0000
1000
0000
0001
0010
2002
0000
0000
0000
0100
0000
3003
0000
0010
0000
,
0010
0000
0100
1000
0000
0000
1000
0000
1010
0000
0000
1100
0000
0000
1010
0000
,
0000
1001
0000
1001
0000
0000
0202
0000
0000
0000
0000
0000
0303
0000
0010
0010
,
0000
2000
0000
0000
3100
0000
0020
0000
0000
0000
0031
0000
0200
0000
0000
0000
,
0000
0000
0300
0000
0001
0010
0000
0000
0200
0000
0000
0000
0300
0000
1000
1000
,
0000
0020
0000
0000
0130
0000
0002
0000
0000
0000
0000
0000
0000
0000
0003
0000
,
1000
0010
0100
0000
0001
0000
0022
0000
0000
0000
0000
0000
0033
0000
0100
0100
,
0000
0002
0000
0000
0103
0000
0020
0000
0000
0000
0130
0000
2000
0000
0000
0000
,
0000
0000
3000
0000
0010
0001
0020
0000
0000
0000
0000
0000
0030
0000
1000
1000
,
0000
0010
0000
0000
0100
0000
0220
0000
0000
0000
0000
0000
0330
0000
0000
0001
,
0001
0000
0001
0000
1001
0000
2000
0000
0000
0000
0000
0000
3000
0000
0010
0010
,
0000
0200
0000
0000
0301
0000
0020
0000
0000
0000
0130
0000
2000
0000
0000
0000
,
0000
0000
3000
0000
0001
0100
0000
0000
2000
0000
0000
0000
3000
0000
0010
0010
,
0000
0200
0000
0000
0301
0000
0020
0000
0000
0000
0000
0000
0000
0000
0030
0000
,
0100
1000
0010
0000
0100
0000
0202
0000
0000
0000
0000
0000
0303
0000
0010
0010
,
0000
2000
0000
0000
3000
0000
0000
0100
0000
0000
0010
0000
1001
0000
0000
0000
,
0100
0000
0001
1000
0001
0000
0000
0100
0000
0000
0010
0000
0101
0000
0000
0000
,
0100
0000
0010
1000
0010
0000
0000
0010
0000
0000
0001
0000
1100
0000
0000
0000
,
1001
0000
1000
0100
1000
0100
1000
0010
0000
0000
0001
0000
0101
0000
0000
0000
,
0010
0000
1000
0001
1000
0000
0000
0100
0000
0000
0001
0000
0110
0000
0000
0000
,
1000
0000
0001
0100
0001
0000
0000
0010
0000
0000
1000
0000
0011
0000
0000
0000
,
0100
0000
0001
0010
0001
0000
2000
0000
0000
0000
0000
0000
0000
0000
3000
0000
,
0100
0010
0001
0000
0100
0000
2020
0000
0000
0000
0000
0000
3030
0000
0010
0010
,
0000
2000
0000
0000
3010
0000
0200
0000
0000
0000
0310
0000
0002
0000
0000
0000
,
0000
0000
0003
0000
0100
1000
0200
0000
0000
0000
0000
0000
0300
0000
0010
0010
,
0000
0001
0000
0000
0100
0000
0220
0000
0000
0000
0000
0000
0330
0000
0000
1000
,
1000
0000
1000
0000
1001
0000
0002
0000
0000
0000
0000
0000
0003
0000
0100
0100
,
0000
0020
0000
0000
1030
0000
0200
0000
0000
0000
0301
0000
0020
0000
0000
0000
,
0000
0000
0030
0000
1000
0100
0000
0000
0002
0000
0000
0000
0003
0000
0000
0000
;

//---------------dance-single - ----------------
#NOTES:
     dance-single:
     :
     Hard:
     7:
     0.476,0.447,0.239,0.802,0.345,163.000,17.000,57.000,0.000,2.000:
0000
0000
0000
0000
0000
0000
1000
1000
0000
0000
0002
0000
0200
0003
0000
0000
,
0300
0000
0001
0000
1000
0100
0010
0010
0000
0000
0000
0000
0010
0010
0000
0000
,
0000
0000
0100
0000
1000
0001
0010
0000
0000
0000
0220
0000
0000
0000
0000
0000
,
1330
0000
1000
0000
0001
0010
2002
0000
0000
0000
0100
0000
3003
0000
0010
0000
,
0010
0000
0100
1000
0000
0000
1000
0000
1010
0000
0000
1100
0000
0000
1010
0000
,
0000
1001
0000
1001
0000
0000
0202
0000
0000
0000
0000
0000
0303
0000
0010
0010
,
0000
2000
0000
0000
3100
0000
0020
0000
0000
0000
0031
0000
0200
0000
0000
0000
,
0000
0000
0300
0000
0001
0010
0000
0000
0200
0000
0000
0000
0300
0000
1000
1000
,
0000
0020
0000
0000
0130
0000
0002
0000
0000
0000
0000
0000
0000
0000
0003
0000
,
1000
0010
0100
0000
0001
0000
0022
0000
0000
0000
0000
0000
0033
0000
0100
0100
,
0000
0002
0000
0000
0103
0000
0020
0000
0000
0000
0130
0000
2000
0000
0000
0000
,
0000
0000
3000
0000
0010
0001
0020
0000
0000
0000
0000
0000
0030
0000
1000
1000
,
0000
0010
0000
0000
0100
0000
0220
0000
0000
0000
0000
0000
0330
0000
0000
0001
,
0001
0000
0001
0000
1001
0000
2000
0000
0000
0000
0000
0000
3000
0000
0010
0010
,
0000
0200
0000
0000
0301
0000
0020
0000
0000
0000
0130
0000
2000
0000
0000
0000
,
0000
0000
3000
0000
0001
0100
0000
0000
2000
0000
0000
0000
3000
0000
0010
0010
,
0000
0200
0000
0000
0301
0000
0020
0000
0000
0000
0000
0000
0000
0000
0030
0000
,
0100
1000
0010
0000
0100
0000
0202
0000
0000
0000
0000
0000
0303
0000
0010
0010
,
0000
2000
0000
0000
3010
0000
0200
0000
0000
0000
0310
0000
0002
0000
0000
0000
,
0000
0000
0003
0000
0100
1000
0200
0000
0000
0000
0000
0000
0300
0000
0001
0001
,
0000
0100
0000
0000
0010
0000
0220
0000
0000
0000
0000
0000
0330
0000
0000
1000
,
1000
0000
0010
0000
0110
0000
0020
0000
0000
0000
0000
0000
0030
0000
1000
1000
,
0000
0020
0000
0000
1030
0000
0200
0000
0000
0000
0310
0000
0002
0000
0000
0000
,
0000
0000
0003
0000
0001
0010
0000
0000
0002
0000
0000
0000
0003
0000
0100
0100
,
0000
0020
0000
0000
0130
0000
2000
0000
0000
0000
0000
0000
0000
0000
3000
0000
,
0100
0010
0001
0000
0100
0000
2020
0000
0000
0000
0000
0000
3030
0000
0010
0010
,
0000
2000
0000
0000
3010
0000
0200
0000
0000
0000
0310
0000
0002
0000
0000
0000
,
0000
0000
0003
0000
0100
1000
0200
0000
0000
0000
0000
0000
0300
0000
0010
0010
,
0000
0001
0000
0000
0100
0000
0220
0000
0000
0000
0000
0000
0330
0000
0000
1000
,
1000
0000
1000
0000
1001
0000
0002
0000
0000
0000
0000
0000
0003
0000
0100
0100
,
0000
0020
0000
0000
1030
0000
0200
0000
0000
0000
0301
0000
0020
0000
0000
0000
,
0000
0000
0030
0000
1000
0100
0000
0000
0002
0000
0000
0000
0003
0000
0000
0000
;
