#TITLE:THE STRONG JEAGER;
#SUBTITLE:UFO! Remix;
#ARTIST:L.E.D.;
#TITLETRANSLIT:THE STRONG JAEGER;
#SUBTITLETRANSLIT:;
#ARTISTTRANSLIT:;
#CREDIT:;
#BANNER:THE STRONG JAEGER UFO! Remix.png;
#BACKGROUND:THE STRONG JAEGER UFO! Remix-bg.png;
#LYRICSPATH:;
#CDTITLE:;
#MUSIC:THE STRONG JAEGER UFO! Remix.ogg;
#OFFSET:-0.059;
#SAMPLESTART:6.380;
#SAMPLELENGTH:15.000;
#SELECTABLE:YES;
#DISPLAYBPM:150.000;
#BPMS:0.000=150.000;
#STOPS:;
#BGCHANGES:0.000=THE STRONG JAEGER UFO! Remix-bg.png=1.000=0=0=1,
16.000=vol3-24-ntsc.mpg=1.000=0=0=1,
24.000=EV01453N.mpg=1.000=0=0=1,
32.000=vol3-19-ntsc.mpg=1.000=0=0=1,
40.000=675_JumpBack.mpg=1.000=0=0=1,
48.000=EV01442N.mpg=1.000=0=0=1,
56.000=676_JumpBack.mpg=1.000=0=0=1,
64.000=VOL1-15-NTSC.mpg=1.000=0=0=1,
72.000=vol3-21-ntsc.mpg=1.000=0=0=1,
80.000=vol4-04-ntsc.mpg=1.000=0=0=1,
88.000=VOL1-33-NTSC.mpg=1.000=0=0=1,
96.000=VOL1-34-NTSC.mpg=1.000=0=0=1,
104.000=VOL1-15-NTSC.mpg=1.000=0=0=1,
112.000=VOL1-35-NTSC.mpg=1.000=0=0=1,
120.000=vol4-21-ntsc.mpg=1.000=0=0=1,
128.000=EV01453N.mpg=1.000=0=0=1,
136.000=VOL1-31-NTSC.mpg=1.000=0=0=1,
144.000=VOL1-13-NTSC.mpg=1.000=0=0=1,
152.000=vol3-07-ntsc.mpg=1.000=0=0=1,
180.000=EV01451N.mpg=1.000=0=0=1,
188.000=VOL1-30-NTSC.mpg=1.000=0=0=1,
196.000=EV01454N.mpg=1.000=0=0=1,
199.000=THE STRONG JAEGER UFO! Remix-bg.png=1.000=0=0=1,
199.500=EV01455N.mpg=1.000=0=0=1,
212.000=vol4-07-ntsc.mpg=1.000=0=0=1,
220.000=vol3-24-ntsc.mpg=1.000=0=0=1,
228.000=673_JumpBack.mpg=1.000=0=0=1,
236.000=vol4-06-ntsc.mpg=1.000=0=0=1,
99999=-nosongbg-=1.000=0=0=0 // don't automatically add -songbackground-
;
// cache tags:
#FIRSTBEAT:4.000;
#LASTBEAT:248.000;
#SONGFILENAME:Songs/DDR 4 ITG/THE STRONG JAEGER UFO! Remix/THE STRONG JAEGER UFO! Remix.sm;
#HASMUSIC:1;
#HASBANNER:1;
#MUSICLENGTH:102.426;
// end cache tags

//---------------dance-single - ----------------
#NOTES:
     dance-single:
     :
     Beginner:
     1:
     0.109,0.179,0.078,0.000,0.000,70.000,8.000,0.000,0.000,0.000:



0000
0000
0000
0000
,
0000
0000
0000
0000
,
0000
0000
0000
0000
,
0000
0000
0000
0000
,
1000
0000
0000
0000
,
0001
0000
0000
0000
,
1000
0000
0000
0000
,
0100
0000
0000
0000
,
0001
0000
0000
0000
,
1000
0000
0000
0000
,
0001
0000
0000
0000
,
0100
0000
0000
0000
,
1000
0000
1000
0000
,
1000
0000
0000
0000
,
0001
0000
0001
0000
,
0001
0000
0000
0000
,
1000
0000
0001
0000
,
1000
0000
0000
0000
,
0001
0000
1000
0000
,
0001
0000
0000
0000
,
1001
0000
0000
0000
,
0110
0000
0000
0000
,
1001
0000
0000
0000
,
0110
0000
0000
0000
,
1000
0000
1000
0000
,
0001
0000
0001
0000
,
1000
0000
1000
0000
,
0001
0000
0001
0000
,
1001
0000
0000
0000
,
0110
0000
0000
0000
,
1000
0000
0000
0000
,
0001
0000
0000
0000
,
0010
0000
0000
0000
,
0001
0000
0000
0000
,
0100
0000
0000
0000
,
1000
0000
0000
0000
,
0010
0000
0000
0000
,
1000
0000
0000
0000
,
0100
0000
0000
0000
,
0001
0000
0000
0000
,
1001
0000
0000
0000
,
0010
0000
0010
0000
,
0010
0000
0000
0000
,
0100
0000
0100
0000
,
0100
0000
0000
0000
,
0001
0000
0000
0000
,
1000
0000
0000
0000
,
0001
0000
0000
0000
,
1000
0000
0000
0000
,
0100
0000
0000
0000
,
0010
0000
0000
0000
,
0100
0000
0000
0000
,
0010
0000
0000
0000
,
0001
0000
0000
0000
,
0100
0000
0000
0000
,
1000
0000
0000
0000
,
0010
0000
0000
0000
,
0001
0000
0001
0000
,
0001
0000
0000
0000
,
1000
0000
1000
0000
,
1000
0000
0000
0000
,
1001
0000
0000
0000
;

//---------------dance-single - ----------------
#NOTES:
     dance-single:
     :
     Easy:
     3:
     0.265,0.357,0.166,0.127,0.000,160.000,17.000,13.000,0.000,0.000:



0000
0000
0000
0000
,
0000
0000
0000
0000
,
0000
0000
0000
0000
,
0000
0000
0000
0000
,
0100
0000
1000
0000
,
0100
0000
0001
0000
,
0100
0000
1000
0000
,
0100
0000
0001
0000
,
0100
1000
0010
0000
,
0100
0001
0010
0000
,
0100
1000
0001
0000
,
0100
0001
1000
0000
,
0010
1000
0200
0300
,
0010
0001
0200
0300
,
0010
1000
0002
0003
,
0010
0001
2000
3000
,
0010
0100
0002
0003
,
0010
0100
2000
3000
,
0001
1000
0200
0300
,
2002
0000
0000
3003
,
1010
0000
0100
0100
,
0011
0000
0100
0100
,
1001
0000
0010
0010
,
1001
0000
0010
0010
,
1000
0001
0100
0100
,
0001
1000
0100
0100
,
1001
0000
0100
0100
,
2002
0000
0000
3003
,
1000
0000
0100
0000
,
1000
0000
0100
0000
,
0001
0000
0100
0000
,
0001
0000
0100
0000
,
1000
0000
0010
0000
,
1000
0000
0010
0000
,
0001
0000
0010
0000
,
0001
0000
0010
0000
,
1000
0000
1100
1100
,
0001
0000
0101
0101
,
1000
0000
1010
1010
,
0001
0000
0011
0011
,
2002
0000
0000
3003
,
0010
1000
0010
0000
,
0100
0001
0100
0000
,
0001
0010
0001
0000
,
1000
0100
1000
0000
,
0001
0100
0001
0000
,
1000
0010
1000
0000
,
0100
1000
0100
0000
,
0010
0001
0010
0000
,
1000
0100
0001
0000
,
0001
0100
1000
0000
,
0001
0100
1000
0000
,
1000
0100
0001
0000
,
1000
0100
1000
0100
,
0010
0001
0100
0000
,
0001
0100
0001
0100
,
0010
1000
0100
0000
,
1000
0010
1000
0010
,
0100
0001
1000
0000
,
0001
0010
0001
0010
,
0100
1000
0001
0000
,
1001
0000
0000
0000
;

//---------------dance-single - ----------------
#NOTES:
     dance-single:
     :
     Medium:
     5:
     0.378,0.454,0.137,0.137,0.054,243.000,14.000,14.000,0.000,0.000:



0000
0000
0000
0000
,
0000
0000
0000
0000
,
0000
0000
0000
0000
,
0000
0000
0000
0000
,
1000
0001
1000
0100
,
0001
1000
0001
0100
,
1000
0001
1000
0010
,
0001
1000
0001
0010
,
0100
1000
0001
0100
,
0010
1000
0001
0010
,
0100
1000
0001
0100
,
0010
1000
0001
0010
,
1000
0000
0000
0000
0001
0001
0100
0000
,
0001
0000
0000
0000
0010
0010
0100
0000
,
1000
0000
0000
0000
0001
0001
0010
0000
,
0100
0000
0000
0000
1000
1000
0001
0000
,
0100
0000
0000
0000
0010
0010
1000
0000
,
0001
0000
0000
0000
0100
0100
0001
0000
,
1000
0000
0000
0000
0010
0010
0100
0000
,
0001
0000
0000
1000
0000
0000
0001
0000
0000
1000
0000
0000
0100
0000
0000
0000
,
1000
0000
0000
0001
0000
0000
2000
0000
0100
0000
0000
0000
0100
0000
0000
0000
,
3001
0000
0000
0100
0000
0000
0002
0000
0010
0000
0000
0000
0010
0000
0000
0000
,
1003
0000
0000
0010
0000
0000
0200
0000
0001
0000
0000
0000
0001
0000
0000
0000
,
0310
0000
0000
1000
0000
0000
0020
0000
0100
0000
0000
0000
0100
0000
0000
0000
,
1030
0000
0000
0100
0000
0000
0010
0000
0002
0000
0000
0000
2003
0000
0000
0000
,
3001
0000
0000
0010
0000
0000
0100
0000
2000
0000
0000
0000
3002
0000
0000
0000
,
1003
0000
0000
0100
0000
0000
1000
0000
0020
0000
0000
0000
0230
0000
0000
0000
,
0301
0000
0000
1000
0000
0000
0001
0000
0000
1000
0000
0000
0100
0000
0000
0000
,
1000
0100
1000
0001
,
0010
0100
0010
0001
,
0100
0010
1000
0001
,
0010
0100
1000
0001
,
1000
0100
1000
1001
,
0001
0100
0001
1001
,
0010
1000
0100
0110
,
0010
0001
0100
0110
,
1000
1000
1100
0011
,
0001
0001
0101
1010
,
0100
0100
0110
1001
,
0010
0010
0110
1001
,
0220
0000
0000
0330
,
1000
0100
1000
0100
,
0001
0010
0001
0010
,
0001
0100
0001
0100
,
1000
0010
1000
0010
,
1000
0100
0001
0010
,
1000
0100
0001
0010
,
0001
0100
1000
0010
,
0001
0100
1000
0010
,
1000
1000
0001
0001
,
1000
0001
1000
0001
,
0010
0010
0100
0100
,
0010
0100
0010
0100
,
1000
0000
0001
0000
1000
0001
0100
0000
,
0010
0000
1000
0000
0001
0010
0100
0000
,
0010
0000
0001
0000
1000
0001
0100
0000
,
0010
0000
1000
0000
0010
0100
0001
0000
,
0010
0000
0100
0000
1000
0001
1000
0000
,
0010
0000
0100
0000
0001
0010
0100
0000
,
1000
0000
0001
0000
0010
0100
1000
0000
,
0001
0000
0100
0000
0010
1000
0100
0000
,
2002
0000
0000
0000
,
3003
0000
0000
0000
;

//---------------dance-single - ----------------
#NOTES:
     dance-single:
     :
     Hard:
     8:
     0.591,0.605,0.381,0.088,0.234,376.000,39.000,9.000,0.000,0.000:



0000
0000
0000
0000
,
0000
0000
0000
0000
,
0000
0000
0000
0000
,
0000
0000
0000
0000
,
1000
0001
1000
0010
0100
0000
1001
0000
,
0001
1000
0010
1000
0100
0000
1001
0000
,
1000
0100
0010
0001
0010
0000
1001
0000
,
0001
0010
0100
1000
0010
0000
1001
0000
,
1000
0100
0001
0010
0011
0000
1100
0000
,
1000
0001
0010
0001
0100
0010
0010
1000
,
0001
0100
1000
0010
1010
0000
0101
0000
,
0001
1000
0010
1000
0100
0010
0010
0000
,
0001
0000
1000
0000
0001
0000
0010
0000
0100
1000
0000
1000
0001
0000
0000
0000
,
1000
0100
0001
0100
0010
0001
0100
0010
,
1000
0000
0001
0000
1000
0000
0010
0000
0100
0001
0000
0001
1000
0000
0000
0000
,
0001
0100
1000
0100
0010
1000
0100
0010
,
0001
0000
1000
0000
0010
0000
0001
0000
0010
1000
0000
1000
0100
0000
0010
0000
,
0001
1000
0001
0100
0010
1000
0100
0100
,
1000
0000
0001
0000
0010
0000
1000
0000
0010
0001
0000
0001
0100
0000
0010
0000
,
1010
0000
0000
0101
0000
0000
0011
0000
0000
1100
0000
0000
1001
0000
0000
0000
,
0001
0000
0000
1000
0000
0000
0001
0000
0101
0000
0000
0000
1100
0000
0000
0000
,
1000
0000
0000
0001
0000
0000
1000
0000
1100
0000
0000
0000
0101
0000
0000
0000
,
0010
0000
0000
0100
0000
0000
0010
0000
1010
0000
0000
0000
1100
0000
0000
0000
,
0010
0000
0000
0100
0000
0000
0010
0000
0011
0000
0000
0000
0101
0000
0000
0000
,
0001
0000
1000
0100
1000
0000
0001
0000
0101
0000
0000
0000
1001
0000
0000
0000
,
1000
0000
0001
0100
0001
0000
1000
0000
1000
0000
0100
0000
0010
0000
0001
0000
,
1000
0000
0010
0100
0010
0000
1000
0000
1001
0000
0000
0000
0110
0000
0000
0000
,
0010
0000
0000
1000
0000
0000
0100
0000
0000
0001
0000
0000
0010
0000
0100
0000
,
1000
0010
0001
0100
1000
0010
0100
0001
,
1000
0100
0010
0100
1000
0001
0100
0100
,
0001
0010
1000
0100
0001
0010
0001
0100
,
0010
1000
0001
0010
0100
1000
0001
0100
,
0010
0000
1000
0000
0001
0000
0010
0000
0100
1000
0100
0000
1000
0100
1000
0000
,
0010
0100
0001
1000
0010
1000
0100
0100
,
1000
0000
0100
0000
0010
0000
0001
0000
0100
0001
0100
0000
0001
0100
0001
0000
,
1000
0000
0000
0100
0000
0000
0001
0000
0000
0010
0000
0000
1001
0000
0000
0000
,
0100
0000
0000
0100
0000
0000
1000
0000
0001
0000
0000
0000
1001
0000
0000
0000
,
0100
0000
0000
0100
0000
0000
0001
0000
1000
0000
0000
0000
1001
0000
0000
0000
,
0110
0000
0000
1001
0000
0000
0010
0000
0100
0000
0000
0000
1001
0000
0000
0000
,
0001
0010
0100
1000
2002
0000
3003
0000
,
0220
0000
0000
0330
,
1000
0001
1000
0110
,
0001
1000
0001
0110
,
0010
1000
0100
1001
,
0010
0001
0100
1001
,
1000
0100
0010
0100
1000
0001
0100
0000
,
0010
0100
0001
0010
0100
1000
0001
0000
,
0010
0100
1000
0010
0001
0010
0100
0000
,
0001
0010
1000
0010
0100
1000
0001
0000
,
1000
0000
0000
0100
0000
0000
1000
0000
0000
0001
0000
0000
0010
0000
0001
0000
,
0100
0000
0000
0010
0000
0000
1000
0000
0000
0001
0000
0000
0010
0000
0100
0000
,
1000
0000
0000
0001
0000
0000
0100
0000
0000
0001
0000
0000
0010
0000
0001
0000
,
0100
0000
0000
0010
0000
0000
2002
0000
0000
0000
0000
0000
3003
0000
0000
0000
,
0100
0000
0010
1000
0000
0000
0001
0000
1000
0010
0000
0000
0100
0000
0100
0000
,
0001
0000
0010
0001
0000
0000
1000
0000
0100
0010
0000
0000
0001
0000
0001
0000
,
0100
0000
0010
1000
0000
0000
0001
0000
1000
0100
0000
0000
0010
0000
0010
0000
,
0100
0000
0000
1000
0000
0000
0002
0000
0000
0000
0000
0000
0100
0000
0103
0000
,
0010
0000
1000
0001
0000
0000
1000
0000
0010
0100
0000
0000
0001
0000
0001
0000
,
0010
0000
0100
1000
0000
0000
0100
0000
0010
0001
0000
0000
1000
0000
1000
0000
,
0010
0000
0100
0001
0000
0000
1000
0000
0010
0100
0000
0000
0001
0000
0001
0000
,
1000
0100
0010
0001
0010
0100
1000
0001
,
2002
0000
0000
0000
,
3003
0000
0000
0000
;

//---------------dance-double - ----------------
#NOTES:
     dance-double:
     :
     Beginner:
     1:
     0.105,0.149,0.049,0.039,0.000,66.000,5.000,4.000,0.000,0.000:



00000000
00000000
00000000
00000000
,
00000000
00000000
00000000
00000000
,
00000000
00000000
00000000
00000000
,
00000000
00000000
00000000
00000000
,
01000000
00000000
00000000
00000000
,
00010000
00000000
00000000
00000000
,
00001000
00000000
00000000
00000000
,
00000100
00000000
00000000
00000000
,
00000010
00000000
00000000
00000000
,
00001000
00000000
00000000
00000000
,
00010000
00000000
00000000
00000000
,
00100000
00000000
00000000
00000000
,
01000000
00000000
00000000
00000000
,
10000000
00000000
00000000
00000000
,
00100000
00000000
00000000
00000000
,
00010000
00000000
00000000
00000000
,
00001000
00000000
00000000
00000000
,
00000010
00000000
00000000
00000000
,
00000001
00000000
00000000
00000000
,
00000100
00000000
00000000
00000000
,
00000002
00000000
00000000
00000003
,
00000001
00000000
00000000
00000000
,
00002000
00000000
00000000
00003000
,
00001000
00000000
00000000
00000000
,
00020000
00000000
00000000
00030000
,
00010000
00000000
00000000
00000000
,
20000000
00000000
00000000
30000000
,
10000000
00000000
00000000
00000000
,
01000000
00000000
00000000
00000000
,
00001000
00000000
00000000
00000000
,
00010000
00000000
00000000
00000000
,
00000100
00000000
00000000
00000000
,
00010000
00000000
00001000
00000000
,
00010000
00000000
00000000
00000000
,
00001000
00000000
00010000
00000000
,
00001000
00000000
00000000
00000000
,
01000000
00000000
01000000
00000000
,
01000000
00000000
00000000
00000000
,
00100000
00000000
00100000
00000000
,
00100000
00000000
00000000
00000000
,
10010000
00000000
00000000
00000000
,
01100000
00000000
00000000
00000000
,
10000000
00000000
00000000
00000000
,
01000000
00000000
00000000
00000000
,
00010000
00000000
00000000
00000000
,
10010000
00000000
00000000
00000000
,
01000000
00000000
00000000
00000000
,
00010000
00000000
00000000
00000000
,
00001000
00000000
00000000
00000000
,
00011000
00000000
00000000
00000000
,
00001000
00000000
00000000
00000000
,
00000100
00000000
00000000
00000000
,
00000001
00000000
00000000
00000000
,
00001000
00000000
00001000
00000000
,
00001000
00000000
00000000
00000000
,
00000001
00000000
00000001
00000000
,
00000001
00000000
00000000
00000000
,
00001000
00000000
00000001
00000000
,
00001000
00000000
00000000
00000000
,
00000001
00000000
00001000
00000000
,
00000001
00000000
00000000
00000000
,
00001001
00000000
00000000
00000000
;

//---------------dance-double - ----------------
#NOTES:
     dance-double:
     :
     Easy:
     3:
     0.264,0.417,0.117,0.059,0.000,171.000,12.000,6.000,0.000,0.000:



00000000
00000000
00000000
00000000
,
00000000
00000000
00000000
00000000
,
00000000
00000000
00000000
00000000
,
00000000
00000000
00000000
00000000
,
00000001
00000000
00000100
00000000
,
00001000
00010000
01000000
00000000
,
10000000
00000000
01000000
00000000
,
00010000
00001000
00000100
00000000
,
00000001
00000010
00000100
00000000
,
00001000
00000010
00000100
00000000
,
00000001
00000100
00001000
00000000
,
00010000
01000000
10000000
00000000
,
00100000
01000000
00001000
00010000
,
00001000
00100000
01000000
00000000
,
00010000
00001000
00000100
00000010
,
00000100
00001000
00010000
00000000
,
01000000
10000000
00100000
00010000
,
00100000
10000000
01000000
00000000
,
00010000
00001000
00000010
00000001
,
00002002
00000000
00000000
00003003
,
00000001
00000000
00000100
00000100
,
00001000
00000000
00010000
00010000
,
00100000
00000000
10000000
10000000
,
01000000
00000000
00010000
00010000
,
00001000
00000010
00000001
00000001
,
00000100
00001000
00010000
00010000
,
01000000
10000000
00100000
00100000
,
20020000
00000000
00000000
30030000
,
10000000
00000000
00010000
00000000
,
00001000
00000000
00000001
00000000
,
00000001
00000000
00001000
00000000
,
00010000
00000000
10000000
00000000
,
00100000
00000000
01000000
00000000
,
00001000
00000000
00010000
00000000
,
00000100
00000000
00000010
00000000
,
00000001
00000000
00001000
00000000
,
00000001
00000100
00000101
00000101
,
00001000
00010000
00011000
00011000
,
01000000
10000000
11000000
11000000
,
10000000
00010000
10010000
10010000
,
02200000
00000000
00000000
03300000
,
10000000
00010000
10000000
00000000
,
00100000
00010000
00001000
00000000
,
00010000
00001000
00000010
00000000
,
00000001
00001000
00000001
00000000
,
00000010
00000001
00000100
00000000
,
00001000
00010000
00001000
00000000
,
00010000
00001000
00010000
00000000
,
01000000
10000000
00100000
00000000
,
10000000
00100000
00010000
00000000
,
00001000
00000010
00000001
00000000
,
00000001
00000100
00001000
00000000
,
00010000
01000000
10000000
00000000
,
00100000
10000000
00100000
10000000
,
01000000
00010000
00001000
00000000
,
00000100
00000001
00000100
00000001
,
00000010
00001000
00010000
00000000
,
00001000
00010000
00000010
00001000
,
00000100
00000010
00000001
00000000
,
00000100
00001000
00010000
00001000
,
00000100
00000001
00001000
00000000
,
00000110
00000000
00000000
00000000
;

//---------------dance-double - ----------------
#NOTES:
     dance-double:
     :
     Medium:
     6:
     0.389,0.484,0.146,0.098,0.063,254.000,15.000,10.000,0.000,0.000:



00000000
00000000
00000000
00000000
,
00000000
00000000
00000000
00000000
,
00000000
00000000
00000000
00000000
,
00000000
00000000
00000000
00000000
,
00000001
00001000
00000001
00000100
,
00000010
00001000
00000100
00010000
,
00001000
00100000
00010000
01000000
,
00100000
10000000
00010000
01000000
,
00100000
10000000
01000000
00100000
,
00001000
00010000
00000010
00000100
,
00000001
00000010
00000100
00001000
,
00000100
00010000
00001000
01000000
,
00010000
00000000
00000000
00000000
01000000
00010000
10000000
00000000
,
10000000
00000000
00000000
00000000
00010000
01000000
00001000
00000000
,
00001000
00000000
00000000
00000000
00010000
00000010
00000100
00000000
,
00000100
00000000
00000000
00000000
00000001
00000010
00000100
00000000
,
00000100
00000000
00000000
00000000
00010000
00000100
00000010
00000000
,
00000010
00000000
00000000
00000000
00000100
00010000
00001000
00000000
,
00001000
00000000
00000000
00000000
00010000
01000000
10000000
00000000
,
00100000
00000000
00000000
10000000
00000000
00000000
00010000
00000000
00000000
10000000
00000000
00000000
01000000
00000000
00000000
00000000
,
00100000
00000000
00000000
00010000
00000000
00000000
01000000
00000000
00100000
00000000
00000000
00000000
10100000
00000000
00000000
00000000
,
10000000
00000000
00000000
01000000
00000000
00000000
00100000
00000000
00001000
00000000
00000000
00000000
00011000
00000000
00000000
00000000
,
00010000
00000000
00000000
00000010
00000000
00000000
00000100
00000000
00000001
00000000
00000000
00000000
00000011
00000000
00000000
00000000
,
00000010
00000000
00000000
00000100
00000000
00000000
00010000
00000000
00001000
00000000
00000000
00000000
00001100
00000000
00000000
00000000
,
00000100
00000000
00000000
00000001
00000000
00000000
00001000
00000000
00000100
00000000
00000000
00000000
00010100
00000000
00000000
00000000
,
00010000
00000000
00000000
00001000
00000000
00000000
01000000
00000000
00100000
00000000
00000000
00000000
10100000
00000000
00000000
00000000
,
10000000
00000000
00000000
00010000
00000000
00000000
00100000
00000000
01000000
00000000
00000000
00000000
11000000
00000000
00000000
00000000
,
10000000
00000000
00000000
00010000
00000000
00000000
10000000
00000000
00000000
00010000
00000000
00000000
01000000
00000000
00000000
00000000
,
00010000
10000000
01000000
00010000
,
00001000
00000100
00000001
00001000
,
00000010
00001000
00000001
00000010
,
00000100
00010000
00001000
00010000
,
01000000
01000000
10000000
00000000
00020000
00000000
20030000
00000000
,
30100000
00100000
01000000
00000000
00002000
00000000
00023000
00000000
,
00030100
00000100
00000010
00000000
00000002
00000000
00002003
00000000
,
00003010
00000000
00000000
00001000
00000000
00000000
00000001
00000000
00000000
00001000
00000000
00000000
00000100
00000000
00000000
00000000
,
00001000
00000001
00001000
00000000
00000011
00000000
00001100
00000000
,
00000001
00001000
00000001
00000000
00001001
00000000
00011000
00000000
,
00001000
00010000
00001000
00000000
00011000
00000000
10010000
00000000
,
00100000
10000000
01000000
00010000
01000000
10000000
00100000
00000000
,
20020000
00000000
00000000
30030000
,
10000000
01000000
10000000
00010000
,
01000000
00100000
00010000
00001000
,
00000010
00001000
00010000
01000000
,
00010000
00001000
00000100
00000001
,
00000010
00000100
00001000
00000001
,
00000100
00000010
00000100
00000001
,
00000010
00001000
00010000
00100000
,
10000000
01000000
00100000
00010000
,
10000000
01000000
10000000
01000000
,
00010000
00001000
01000000
00001000
,
00010000
00000100
00010000
00001000
,
00000100
00000001
00000100
00000001
,
00001000
00000000
00000100
00000000
00000010
00000001
00000100
00000000
,
00000001
00000000
00001000
00000000
00000100
00000010
00001000
00000000
,
00000010
00000000
00000001
00000000
00000100
00001000
00010000
00000000
,
00001000
00000000
00000010
00000000
00001000
00010000
00100000
00000000
,
01000000
00000000
00010000
00000000
00100000
01000000
10000000
00000000
,
00100000
00000000
00010000
00000000
00100000
10000000
01000000
00000000
,
10000000
00000000
00010000
00000000
01000000
00001000
00010000
00000000
,
01000000
00000000
10000000
00000000
00100000
00010000
00001000
00010000
,
00022000
00000000
00000000
00000000
,
00033000
00000000
00000000
00000000
;

//---------------dance-double - ----------------
#NOTES:
     dance-double:
     :
     Hard:
     9:
     0.612,0.575,0.127,0.166,0.244,409.000,13.000,17.000,0.000,0.000:



00000000
00000000
00000000
00000000
,
00000000
00000000
00000000
00000000
,
00000000
00000000
00000000
00000000
,
00000000
00000000
00000000
00000000
,
00001000
00000100
00001000
00000001
00000100
00001000
00010000
00000000
,
00001000
00000100
00000010
00001000
00000100
00000010
00000100
00000000
,
00001000
00000001
00000100
00001000
00010000
00100000
01000000
00000000
,
00010000
00100000
01000000
10000000
00100000
01000000
00010000
00000000
,
10000000
01000000
00100000
01000000
00010000
00001000
00000100
00000000
,
00000001
00000010
00000100
00001000
00000010
00000100
00001000
00000000
,
00000100
00000001
00000010
00001000
00010000
00001000
00000010
00000000
,
00000100
00010000
00001000
00010000
01000000
10000000
00100000
00000000
,
01000000
00010000
10000000
01000000
10000000
00010000
01000000
00100000
,
00010000
00001000
00000010
00000100
00001000
00000001
00000010
00000001
,
00000100
00001000
00000100
00000010
00001000
00000001
00000010
00000100
,
00010000
00000010
00010000
00001000
00100000
00010000
01000000
00001000
,
00100000
00010000
10000000
00100000
01000000
00001000
00010000
00000100
,
00010000
00001000
00100000
01000000
10000000
00100000
01000000
00001000
,
00010000
00000100
00000010
00000001
00001000
00000100
00000010
00000100
,
00001100
00000000
00000000
00000101
00000000
00000000
00001001
00000000
00000000
00000110
00000000
00000000
00001001
00000000
00000000
00000000
,
00000001
00000100
00000000
00000100
00000001
00000000
00002000
00000000
00000100
00000000
00000000
00000000
00003001
00000000
00000000
00000000
,
00000100
00000010
00000000
00000010
00010000
00000000
00002000
00000000
00000100
00000000
00000000
00000000
00013000
00000000
00000000
00000000
,
01000000
10000000
00000000
10000000
01000000
00000000
00200000
00000000
00010000
00000000
00000000
00000000
00301000
00000000
00000000
00000000
,
00010000
00001000
00000000
00001000
00100000
00000000
02000000
00000000
10000000
00000000
00000000
00000000
03100000
00000000
00000000
00000000
,
00010000
00001000
00000000
00001000
00010000
00000000
00000200
00000000
00000010
00000000
00000000
00000000
00001300
00000000
00000000
00000000
,
00000001
00000100
00000000
00000100
00001000
00000000
00020000
00000000
00001000
00000000
00000000
00000000
01030000
00000000
00000000
00000000
,
10000000
00100000
00000000
00100000
10000000
00000000
00020000
00000000
00100000
00000000
00000000
00000000
01030000
00000000
00000000
00000000
,
00100000
00000000
00000000
10000000
00000000
00000000
01000000
00000000
00000000
00010000
00000000
00000000
00001000
00000000
00000000
00000000
,
00010000
00000000
00000010
00000000
00001000
00000000
00000001
00000000
00000010
00000100
00000000
00000100
00001000
00000000
00000001
00000000
,
00000010
00001000
00010000
00100000
10000000
01000000
00100000
00010000
,
01000000
00000000
00100000
00000000
10000000
00000000
00010000
00000000
10000000
01000000
00000000
01000000
00010000
00000000
00001000
00000000
,
00010000
01000000
00100000
00001000
00010000
00100000
10000000
01000000
,
00100000
00000000
00001000
00000000
00010000
00000000
00000010
00000000
00001000
00000100
00000000
00000100
00000010
00000000
00000001
00000000
,
00000100
00000010
00010000
00001000
00000010
00000100
00010000
00001000
,
00000010
00000000
00000001
00000000
00000100
00000000
00000010
00000000
00001000
00000100
00000000
00000100
00010000
00000000
01000000
00000000
,
10000000
00000000
00000000
00100000
00000000
00000000
00010000
00000000
00000000
00001000
00000000
00000000
00011000
00000000
00000000
00000000
,
00010000
01000000
00000000
01000000
10000000
00000000
00100000
00000000
01000000
00000000
00000000
00000000
10010000
00000000
00000000
00000000
,
10000000
01000000
00000000
01000000
00010000
00000000
00001000
00000000
00000100
00000000
00000000
00000000
00001001
00000000
00000000
00000000
,
00000001
00000010
00000000
00000010
00000100
00000000
00001000
00000000
00000001
00000000
00000000
00000000
00000110
00000000
00000000
00000000
,
00000010
00010000
00000000
00010000
00001000
00000000
00000100
00000000
00000001
00000000
00000000
00000000
00000110
00000000
00000000
00000000
,
00002002
00000000
00000000
00003003
,
00000001
00000010
00000100
00000000
00001000
00000001
00000100
00000000
,
00001000
00000100
00000001
00000000
00000010
00000100
00010000
00000000
,
00001000
00000010
00000001
00000000
00000100
00001000
00010000
00000000
,
01000000
10000000
00100000
00000000
01000000
00010000
10000000
00000000
,
00010000
01000000
00100000
10000000
01000000
00200000
00010000
00010000
,
00310000
01000000
00100000
10000000
01000000
00020000
00001000
00001000
,
00031000
00000010
00000001
00000100
00000010
00002000
00000100
00000100
,
00003100
00000010
00000001
00000100
00001000
00010000
01000000
00000000
,
00100000
00010000
00100000
01000000
10000000
00100000
01000000
00001000
,
00100000
10000000
00100000
01000000
10000000
00100000
00010000
00001000
,
00000010
00000100
00001000
00000001
00000100
00000010
00010000
00001000
,
01000000
00000000
00000000
00100000
00000000
00000000
20020000
00000000
00000000
00000000
00000000
00000000
30030000
00000000
00000000
00000000
,
10000000
00000000
01000000
10000000
00000000
00000000
00010000
00000000
01000000
00100000
00000000
00000000
00010000
00000000
00001000
00000000
,
00000010
00000000
00000100
00001000
00000000
00000000
00000001
00000000
00001000
00000100
00000000
00000000
00000010
00000000
00000001
00000000
,
00000100
00000000
00001000
00010000
00000000
00000000
00001000
00000000
00000010
00000100
00000000
00000000
00010000
00000000
00001000
00000000
,
00000100
00000000
00000000
00000100
00000000
00000000
00002000
00000000
00000000
00000000
00000000
00000000
00013000
00000000
01000000
00000000
,
10000000
00000000
00100000
10000000
00000000
00000000
00010000
00000000
10000000
01000000
00000000
00000000
10000000
00000000
00100000
00000000
,
01000000
00000000
00010000
00100000
00000000
00000000
00010000
00000000
10000000
01000000
00000000
00000000
00010000
00000000
00001000
00000000
,
00000010
00000000
00000100
00001000
00000000
00000000
00000001
00000000
00001000
00000001
00000000
00000000
00000010
00000000
00000100
00000000
,
00000010
00000001
00000100
00001000
00010000
01000000
10000000
00100000
,
20020000
00000000
00000000
00000000
,
30030000
00000000
00000000
00000000
;

//---------------dance-single - retard_gamer----------------
#NOTES:
     dance-single:
     retard_gamer:
     Challenge:
     12:
     0.969,0.847,1.000,0.000,1.000,581.000,110.000,0.000,177.000,0.000:

0000
0000
0000
0000
,
1M1M
0000
1000
0010
0000
1000
0100
0000
11MM
0000
0000
0000
MM11
0000
0000
0000
,
1MM1
0000
0100
0010
0000
0010
0100
0000
1MM1
0000
0000
0000
1M1M
0000
0000
0000
,
0100
0001
0100
0010
1000
0010
1000
0001
1000
0100
0010
0001
1000
0000
0011
0000
,
1000
0100
0010
0001
0010
0100
1000
0010
0100
0000
0M00
0000
1001
0000
M00M
0000
,
0100
0010
1000
0001
0010
0100
0010
0001
0100
0000
1010
0000
0100
0000
1010
0000
,
0100
0001
0010
0001
0100
0010
1000
0100
1000
0000
M000
0000
11MM
0000
0000
0000
,
0010
1000
0001
0100
0001
0010
0100
1000
0010
0000
1001
0000
0100
0000
1001
0000
,
0100
0010
1000
0100
0010
0100
1000
0010
1000
0000
M00M
0000
1001
0000
0000
0000
,
1000
0100
0010
0001
0100
0010
1000
0001
0010
0000
1100
0000
0010
0000
1100
0000
,
0100
0010
0001
1000
0010
1000
0001
0100
0010
0000
M0M0
0000
1001
0000
0MM0
0000
,
0100
0010
1000
0001
0100
0010
1000
0100
0010
0001
0010
0000
0110
0000
1100
0000
,
1000
0001
0100
0001
0010
0100
0010
0001
1000
0000
MMM0
0000
0011
0000
0MMM
0000
,
0100
0001
1000
0010
1000
0001
0010
0100
1000
0000
0011
0000
1000
0000
0011
0000
,
1000
0010
1000
0001
0100
0001
0010
0100
1000
0000
M0MM
0000
1100
0000
MM0M
0000
,
0010
1000
0100
1000
0010
0100
0001
0010
0100
0010
0001
0000
1001
0000
0101
0000
,
0010
1000
0001
0100
0001
0010
0100
1000
0100
0000
0MMM
0000
1100
0000
MMM0
0000
,
0010
0100
1000
0001
0100
0001
1000
0010
1000
0000
0101
0000
1000
0000
0101
0000
,
0010
0000
0000
0010
1000
0000
1100
0000
1M1M
0000
0000
0000
1MM1
0000
0000
0000
,
M1M0
0001
0100
0000
004M
M400
000M
M000
000M
M000
000M
M000
000M
M000
000M
0030
,
0301
1000
0001
1000
0100
1000
0010
0100
0001
0000
MMM0
0000
0101
0000
M0M0
0000
,
0010
1000
0001
0010
0001
1000
0100
0010
0001
0100
0001
0000
0100
0000
1001
0000
,
0100
0010
1000
0001
1000
0100
0010
0001
0010
0000
MM0M
0000
1001
0000
0MM0
0000
,
1000
0010
0100
0001
0010
0001
1000
0100
1000
0000
0110
0000
0010
0000
1001
0000
,
0100
0010
1000
0010
1000
0001
0100
0001
0010
0000
MM0M
0000
0110
0000
M00M
0000
,
0100
1000
0100
0001
0100
0010
0100
1000
0001
0000
0101
0000
1010
0000
1100
0000
,
0110
0000
0000
0MM0
0000
0000
0110
0000
0000
0MM0
0000
0000
0110
0000
0000
0000
0011
0000
0000
0000
00MM
0000
0000
0000
0011
0000
0000
0000
0M0M
0000
0000
0000
,
0101
0000
0000
0M0M
0000
0000
0101
0000
0000
0M0M
0000
0000
1010
0000
0000
M0M0
0000
0000
1010
0000
0000
0000
M0M0
0000
1001
0000
0000
0000
0000
0000
0000
0000
,
M11M
0000
0000
1000
0010
0000
0100
0000
0001
0000
1000
0000
11MM
0000
MM00
0000
,
0110
0000
0100
0010
0100
0000
0010
0000
0001
0000
0100
0000
1000
0000
0100
0000
,
0001
0000
1000
0010
1000
0000
0100
0000
0010
0000
0100
0000
1000
0000
0001
0000
,
0100
0010
1000
0001
0010
0000
0100
0000
1100
0000
1001
0000
0101
0000
0110
0000
,
1010
0000
1000
0010
0000
0010
1000
0000
1100
0000
0110
0000
0011
0000
0000
0000
,
1001
0000
0001
0100
0000
0100
0010
0000
1010
0000
0101
0000
0011
0000
1100
0000
,
0010
0000
0000
0001
0010
0000
0100
0000
11MM
0000
0000
0000
1M1M
0000
0000
0000
,
M1M1
0000
0000
0000
0000
0000
0000
0000
0000
M1M1
0000
0000
0000
0000
0000
0000
0000
0000
M1M1
0000
0000
0000
0000
0000
0000
0000
0000
1M1M
0000
0000
0000
0000
0000
0000
0000
0000
1M1M
0000
0000
0000
0000
0000
0100
0000
0001
0000
0100
0000
,
0001
0000
1000
0010
1000
0000
0100
0000
0011
0000
00MM
0000
1100
0000
MM00
0000
,
1001
0000
0100
0010
0000
1000
0100
0000
0110
0000
1100
0000
1010
0000
1001
0000
,
0100
0000
0000
0000
0000
0000
0100
0000
0000
0010
0000
0000
0000
0000
0000
0010
0000
0000
1000
0000
0000
0000
0000
0000
1100
0000
0000
0000
0000
0000
400M
0000
04M0
0000
000M
0000
00M0
0000
000M
0000
00M0
0000
000M
0000
00M0
0000
300M
0000
,
0310
0001
1000
0100
1000
0001
0100
0001
0100
0010
0100
1000
0100
0010
0100
0001
,
40M0
0004
0M00
0000
00M0
0000
0M00
0000
00M0
0000
0M00
0000
00M0
0000
0MM0
3000
,
0103
0101
0001
0101
0010
1100
0010
1001
,
0100
0110
1000
0110
0001
0011
0100
1100
,
0100
1001
0010
1010
0100
1001
0010
0100
,
1MM1
0000
0000
1MM1
0000
0000
M11M
0000
0000
M11M
0000
0000
1MM1
0000
M00M
0000
,
1001
0000
1000
0100
1000
0000
0010
0100
0001
0000
1000
0001
1000
0000
0001
0010
,
0001
0000
0010
0100
0000
1000
0010
0000
0100
0010
0000
1000
0000
0000
0100
0000
,
0010
0000
0001
1000
0000
0001
0100
0000
0010
1000
0000
0100
0000
0000
1000
0100
,
1000
0000
0010
1000
0000
0001
0100
0000
0001
0010
0100
1000
0000
0000
0010
0100
,
0010
0000
1000
0010
0000
0100
0010
0000
0001
0010
0000
1000
0MM1
0000
1MM1
0000
,
1000
0000
0100
1000
0000
0010
0100
0000
0001
0010
0000
0100
1000
0000
0001
0000
,
0100
0000
0010
1000
0000
0001
0010
0000
0100
0010
0000
0001
M1M0
0000
1M1M
0000
,
0100
0010
1000
0001
1000
0100
0010
0001
0010
0100
1000
0001
0100
0010
1000
0001
,
0010
0000
0100
1000
0MMM
1000
0100
0000
0010
0001
MMM0
0001
0100
0000
0101
0000
,
0010
0000
1000
0100
M00M
0100
1000
0000
0010
0001
M0M0
0001
0010
0000
1010
0000
,
0100
0000
0001
0010
0M0M
0010
0001
0000
0100
1000
0MM0
1000
0100
0000
0110
0000
,
1010
0000
1000
0100
0000
0100
0010
0000
0010
0001
0000
0001
1000
0000
0001
0100
,
0001
0000
1000
0100
0000
0010
1000
0000
0010
0001
0000
1000
0001
0000
0101
0000
,
0010
0000
1000
0100
0000
0100
0001
0000
0001
0100
0010
0100
0010
0001
1000
0001
,
1000
0000
0010
0100
0000
0100
0001
0000
0001
0010
0000
0010
0100
0000
1100
0000
,
1000
0100
0010
0001
0100
0010
1000
0010
0100
0001
0010
0100
1000
0001
0100
0010
,
4MM0
0004
00M0
0000
0M00
0000
00M0
0000
0M00
0000
00M0
0000
0M00
0000
00M0
0000
,
3MM3
0000
0000
0000
;
