#TITLE:Toxic;
#SUBTITLE:Sexuality Violation;
#ARTIST:Britney Spears;
#TITLETRANSLIT:;
#SUBTITLETRANSLIT:;
#ARTISTTRANSLIT:;
#CREDIT:;
#BANNER:Toxic-bn.png;
#BACKGROUND:Toxic-bg.png;
#LYRICSPATH:;
#CDTITLE:GazeboCD.png;
#MUSIC:Toxic.ogg;
#OFFSET:-0.291;
#SAMPLESTART:56.848;
#SAMPLELENGTH:27.924;
#SELECTABLE:YES;
#BPMS:0.000=143.000;
#STOPS:;
#BGCHANGES:;
// cache tags:
#FIRSTBEAT:16.000;
#LASTBEAT:472.000;
#SONGFILENAME:Songs/Sexuality Violation 2/Toxic - [Gazebo]/Toxic.sm;
#HASMUSIC:1;
#HASBANNER:1;
#MUSICLENGTH:198.499;
// end cache tags

//---------------dance-single - Gazebo----------------
#NOTES:
     dance-single:
     Gazebo:
     Challenge:
     13:
     0.843,1.000,0.373,0.332,0.962,1032.000,74.000,66.000,18.000,11.000:
0000
0000
0000
0000
,
0000
0000
0000
0000
,
0000
0000
0000
0000
,
0000
0000
0000
0000
,
1000
0000
0000
0000
0000
0000
1000
0000
0000
0000
0000
0000
0010
0000
0000
0100
0000
0000
0001
0000
0000
0100
0000
0000
0010
0000
0000
0000
00M0
0000
0000
0000
0000
0001
0000
0000
0010
0000
0000
0100
0000
0000
1000
0000
0000
0000
0000
0000
,
0001
0100
0001
0100
0001
0100
0010
1000
0010
1000
0010
1000
0100
0010
0100
0010
0100
0010
0001
1000
0001
1000
0001
1000
,
0001
0000
0000
0000
0000
0000
0001
0000
0000
0000
0000
0000
0010
0000
0000
0100
0000
0000
1000
0000
0000
0100
0000
0000
0010
0000
0000
0000
00M0
0000
0000
0000
0000
1000
0000
0000
0010
0000
0000
0100
0000
0000
0001
0000
0000
0000
0000
0000
,
1000
0100
1000
0100
1000
0100
0010
0001
0010
0001
0010
0001
0100
0010
0100
0010
0100
0010
1000
0001
1000
0001
1000
0001
,
0000
0000
0000
0000
0000
0000
1001
0001
,
0100
0000
0000
0000
1010
0000
1000
0000
0000
0000
0000
0001
1000
0000
0100
0000
,
0010
0000
0000
0000
1001
0000
0001
0000
0000
0000
0000
1000
0001
0000
0100
0000
,
0010
0000
0000
0000
0101
0000
1000
0000
0000
0000
0000
0001
1000
0000
1000
0000
,
0100
0000
0000
0000
0011
0000
1000
0000
0000
0000
0000
0001
1000
0000
0001
0000
,
0100
0000
1010
1000
0001
0000
0001
0000
,
1000
0000
0000
0000
0000
0000
1000
0000
0000
0000
0000
0000
0100
0000
0000
0010
0000
0000
0001
0000
0000
0010
0000
0000
0100
0000
0000
0000
0M00
0000
0000
0000
0000
0001
0000
0000
0100
0000
0000
0010
0000
0000
1000
0000
0000
0000
0000
0000
,
0001
0010
0001
0010
0001
0010
0100
1000
0100
1000
0100
1000
0010
0100
0010
0100
0010
0100
0001
1000
0001
1000
0001
1000
,
0001
0000
0000
0000
1100
0000
1000
0000
0000
0000
0000
0001
0100
0000
0010
0000
,
1000
0000
0000
0000
0101
0000
0001
0000
0000
0000
0000
1000
0001
0000
0010
0000
,
0100
0000
0000
0000
1001
0000
1000
0000
0000
0000
0000
0001
1000
0000
0010
0000
,
0100
0000
0000
0000
1010
0000
0001
0000
0000
0000
0000
1000
0001
0000
0001
0000
,
0010
0000
0000
0000
1100
0000
0001
0000
0000
0000
0000
1000
0001
0000
1000
0000
,
0010
0000
0101
0001
1000
0000
1000
0000
,
0001
0000
0000
0000
0000
0000
0001
0000
0000
0000
0000
0000
0010
0000
0000
0100
0000
0000
1000
0000
0000
0100
0000
0000
0010
0000
0000
0000
00M0
0000
0000
0000
0000
1000
0000
0000
0010
0000
0000
0100
0000
0000
0001
0000
0000
0000
0000
0000
,
1000
0100
1000
0100
1000
0100
0010
0001
0010
0001
0010
0001
0100
0010
0100
0010
0100
0010
1000
0001
1000
0001
1000
0001
,
1000
0000
0000
0000
0000
0000
0001
0100
0001
0100
0010
1000
0001
0010
0100
1000
0100
1000
0001
0000
0000
1000
0000
0000
,
0010
0100
0010
0100
0010
0100
0001
0010
0001
0010
0001
0010
0100
1000
0100
1000
0001
0100
0010
1000
0010
0100
0001
1000
,
0001
0000
0000
0100
0000
0000
0001
0000
0000
0001
0000
0000
1000
0100
0010
0001
0010
0100
1000
0000
0000
1000
0000
0000
,
0010
0100
0010
0100
0010
0100
0001
0010
0001
0010
0001
0010
0100
1000
0100
1000
0001
0100
0010
1000
0010
0100
0001
1000
,
0001
0000
0000
0000
1010
0000
0001
0000
0000
0000
0000
1000
0001
0000
1000
0000
,
0100
0000
0000
0000
0000
0000
0010
0001
0010
0001
1000
0001
0100
0010
1000
0010
0100
0001
1000
0100
1000
0100
0010
0001
,
1000
0000
0000
0000
0000
0000
1000
0000
0000
0000
0000
0000
0010
0000
0000
0100
0000
0000
0001
0000
0000
0100
0000
0000
0010
0000
0000
0000
00M0
0000
0000
0000
0000
0001
0000
0000
0010
0000
0000
0100
0000
0000
1000
0000
0000
0000
0000
0000
,
0001
0100
0001
0100
0001
0100
0010
1000
0010
1000
0010
1000
0100
0010
0100
0010
0100
0010
0001
1000
0001
1000
0001
1000
,
0004
0000
0000
0000
,
0000
0000
0000
0000
0000
0000
1MM3
0010
,
0201
0000
0301
1000
1001
0000
0021
0000
,
0130
1000
0020
0100
0000
0130
0001
0001
,
1000
0110
1001
0110
,
1001
0000
0110
0110
1001
0000
0001
0100
,
1020
0000
1030
0001
1001
0000
1200
0000
,
0310
0001
0200
0010
0000
0310
1000
0001
,
0020
0000
0130
1000
1000
0000
0001
0100
,
0020
0000
0130
0002
2000
0000
0010
3003
,
2000
0010
0000
0010
0010
0000
0100
0000
,
3001
0000
1000
0001
0000
0001
1000
0001
,
0200
0000
0310
1000
1000
0000
0001
0010
,
0200
0000
0310
0002
2000
0000
0010
3003
,
0002
0000
0010
0100
,
1003
0000
0001
1000
0000
1000
0010
0100
,
0001
0000
0000
0000
0000
0000
0001
0000
0000
0000
0000
0000
0010
0000
0000
0100
0000
0000
1000
0000
0000
0100
0000
0000
0010
0000
0000
0000
00M0
0000
0000
0000
0000
1000
0000
0000
0010
0000
0000
0100
0000
0000
0001
0000
0000
0000
0000
0000
,
1000
0100
1000
0100
1000
0100
0010
0001
0010
0001
0010
0001
0100
0010
0100
0010
0100
0010
1000
0001
1000
0001
1000
0001
,
1000
0000
0000
0000
0000
0000
1001
1000
,
0010
0000
0000
0000
0101
0000
0001
0000
0000
0000
0000
1000
0001
0000
0010
0000
,
0100
0000
0000
0000
1001
0000
1000
0000
0000
0000
0000
0001
1000
0000
0010
0000
,
0100
0000
0000
0000
1010
0000
0001
0000
0000
0000
0000
1000
0001
0000
0001
0000
,
0010
0000
0000
0000
1100
0000
0001
0000
0000
0000
0000
1000
0001
0000
1000
0000
,
0010
0000
0101
0001
1000
0000
1000
0000
,
0001
0000
0000
0000
0000
0000
0001
0000
0000
0000
0000
0000
0010
0000
0000
0100
0000
0000
1000
0000
0000
0100
0000
0000
0010
0000
0000
0000
00M0
0000
0000
0000
0000
1000
0000
0000
0010
0000
0000
0100
0000
0000
0001
0000
0000
0000
0000
0000
,
2000
0200
0020
0002
,
3333
0000
0000
0000
0000
0000
1000
0100
1000
0100
0010
0001
1000
0010
0100
0001
0100
0001
1000
0000
0000
0001
0000
0000
,
0010
0100
0010
0100
0010
0100
1000
0010
1000
0010
1000
0010
0100
0001
0100
0001
1000
0100
0010
0001
0010
0100
1000
0001
,
1000
0000
0000
0100
0000
0000
1000
0000
0000
1000
0000
0000
0001
0100
0010
1000
0010
0100
0001
0000
0000
0001
0000
0000
,
0010
0100
0010
0100
0010
0100
1000
0010
1000
0010
1000
0010
0100
0001
0100
0001
1000
0100
0010
0001
0010
0100
1000
0001
,
1000
0000
0000
0000
0011
0000
1000
0000
0000
0000
0000
0001
1000
0000
0001
0000
,
0100
0000
0000
0000
0000
0000
0010
1000
0010
1000
0001
1000
0100
0010
0001
0010
0100
1000
0001
0100
0001
0100
0010
1000
,
0001
0000
0000
0000
0000
0000
0001
0000
0000
0000
0000
0000
0010
0000
0000
0100
0000
0000
1000
0000
0000
0100
0000
0000
0010
0000
0000
0000
00M0
0000
0000
0000
0000
1000
0000
0000
0010
0000
0000
0100
0000
0000
0001
0000
0000
0000
0000
0000
,
1000
0100
1000
0100
1000
0100
0010
0001
0010
0001
0010
0001
0100
0010
0100
0010
0100
0010
1000
0001
1000
0001
1000
0001
,
4000
0000
0000
0000
,
0000
0000
0000
0000
0000
0000
3MM1
0010
,
1200
0000
1300
0001
1001
0000
1020
0000
,
0130
0001
0020
0100
0000
0130
1000
1000
,
0001
0110
1001
0110
,
1001
0000
0110
0110
1001
0000
1000
0100
,
0021
0000
0031
1000
1001
0000
0201
0000
,
0310
1000
0200
0010
0000
0310
0001
1000
,
0020
0000
0130
0001
0001
0000
1000
0100
,
0020
0000
0130
2000
0002
0000
0010
3003
,
0002
0010
0000
0010
0010
0000
0100
0000
,
1003
0000
0001
1000
0000
1000
0001
1000
,
0200
0000
0310
0001
0001
0000
1000
0010
,
0200
0000
0310
2000
0002
0000
0010
3003
,
2000
0000
0010
0100
,
3001
0000
1000
0001
0000
0001
0010
0100
,
1000
0000
0000
0000
0000
0000
1000
0000
0000
0000
0000
0000
0010
0000
0000
0100
0000
0000
0001
0000
0000
0100
0000
0000
0010
0000
0000
0000
00M0
0000
0000
0000
0000
0001
0000
0000
0010
0000
0000
0100
0000
0000
1000
0000
0000
0000
0000
0000
,
0001
0100
0001
0100
0001
0100
0010
1000
0010
1000
0010
1000
0000
0000
0000
0000
0000
0000
MMMM
0000
0000
0000
0000
0000
,
0001
0100
0001
0100
0010
0100
0001
1000
0001
1000
0010
0100
0001
0100
0010
1000
,
0001
0010
0001
0010
0100
0010
0001
1000
0010
0100
0010
0100
0001
0100
0010
1000
,
0001
0010
0001
0010
0100
0010
0001
1000
0001
1000
0100
0010
0001
0010
0100
1000
,
0001
0100
0001
0100
0001
1000
0001
1000
0100
1000
0100
1000
0100
0010
0100
0010
,
0001
0100
0001
0100
0010
0100
0001
1000
0001
1000
0010
0100
0001
0100
0010
1000
,
0001
0010
0001
0010
0100
0010
0001
1000
0010
0100
0010
0100
0001
0100
0010
1000
,
0001
0010
0001
0010
0100
0010
0001
1000
0001
1000
0100
0010
0001
0010
0100
1000
,
0010
0100
0010
0100
0001
0100
0001
0100
0001
1000
0001
1000
0100
1000
0100
1000
,
0001
0100
0001
1000
0100
0010
0001
0000
0000
1000
0100
1000
0001
0100
0010
1000
0000
0000
0001
0010
0001
0010
0100
1000
,
0002
0000
0000
0003
0000
0000
1100
0000
0000
0002
0000
0000
0003
0000
0000
1000
0100
1000
0001
0100
0001
0100
0010
1000
,
0001
0000
0000
0000
,
0000
0000
0000
0000
0000
0001
0001
0001
,
1010
0110
1001
0110
,
1001
0000
0110
0110
1001
0000
0001
0100
,
1020
0000
1030
0001
1001
0000
1200
0000
,
0310
0001
0200
0010
0000
0310
1000
0001
,
0020
0000
0130
1000
1000
0000
0001
0100
,
0020
0000
0130
0002
2000
0000
0010
3003
,
1200
0000
1300
0001
1001
0000
1020
0000
,
0130
0001
0020
0100
0000
0130
1000
1000
,
0001
0110
1001
0110
,
1001
0000
0110
0110
2002
0000
0010
3003
,
0021
0000
0031
1000
1001
0000
0201
0000
,
0310
1000
0200
0010
0000
0310
0001
1000
,
0020
0000
0130
0001
0001
0000
1000
0100
,
0020
0000
0130
2000
0002
0000
0010
3003
,
1001
0000
1000
1000
0010
1000
0002
0000
,
0103
0000
0001
0001
0010
0001
2000
0000
,
3100
0000
1000
1000
0010
1000
0002
0000
,
0103
0000
0000
0000
0001
0000
0010
0000
0100
0000
1000
0001
1000
0001
1000
0001
,
1000
0000
0001
0001
0100
0001
2000
0000
,
3010
0000
1000
1000
0100
1000
0002
0000
,
1003
0000
0000
0000
0000
0000
1000
0000
0000
0000
0000
0000
0010
0000
0000
0100
0000
0000
0001
0000
0000
0100
0000
0000
0010
0000
0000
0000
00M0
0000
0000
0000
0000
0001
0000
0000
0010
0000
0000
0100
0000
0000
1000
0000
0000
0000
0000
0000
,
0002
0200
0020
2000
,
3333
0000
0000
0000
;

//---------------dance-single - Gazebo----------------
#NOTES:
     dance-single:
     Gazebo:
     Hard:
     10:
     0.742,0.981,0.383,0.332,0.625,887.000,76.000,66.000,18.000,11.000:

0000
0000
0000
0000
,
0000
0000
0000
0000
,
0000
0000
0000
0000
,
0000
0000
0000
0000
,
1000
0000
0000
0000
0000
0000
1000
0000
0000
0000
0000
0000
0010
0000
0000
0100
0000
0000
0001
0000
0000
0100
0000
0000
0010
0000
0000
0000
00M0
0000
0000
0000
0000
0001
0000
0000
0010
0000
0000
0100
0000
0000
1000
0000
0000
0000
0000
0000
,
0001
0100
0001
0100
0010
1000
0010
1000
0100
0010
0100
0010
0001
1000
0001
1000
,
0001
0000
0000
0000
0000
0000
0001
0000
0000
0000
0000
0000
0010
0000
0000
0100
0000
0000
1000
0000
0000
0100
0000
0000
0010
0000
0000
0000
00M0
0000
0000
0000
0000
1000
0000
0000
0010
0000
0000
0100
0000
0000
0001
0000
0000
0000
0000
0000
,
1000
0100
1000
0100
0010
0001
0010
0001
0100
0010
0100
0010
1000
0001
1000
0001
,
0000
0000
0000
0000
0000
0000
1001
0001
,
0100
0000
0000
0000
1010
0000
1000
0000
0000
0000
0000
0001
1000
0000
0100
0000
,
0010
0000
0000
0000
1001
0000
0001
0000
0000
0000
0000
1000
0001
0000
0100
0000
,
0010
0000
0000
0000
0101
0000
1000
0000
0000
0000
0000
0001
1000
0000
1000
0000
,
0100
0000
0000
0000
0011
0000
1000
0000
0000
0000
0000
0001
1000
0000
0001
0000
,
0100
0000
1010
1000
0001
0000
0001
0000
,
1000
0000
0000
0000
0000
0000
1000
0000
0000
0000
0000
0000
0100
0000
0000
0010
0000
0000
0001
0000
0000
0010
0000
0000
0100
0000
0000
0000
0M00
0000
0000
0000
0000
0001
0000
0000
0100
0000
0000
0010
0000
0000
1000
0000
0000
0000
0000
0000
,
0001
0010
0001
0010
0100
1000
0100
1000
0010
0100
0010
0100
0001
1000
0001
1000
,
0001
0000
0000
0000
1100
0000
1000
0000
0000
0000
0000
0001
0100
0000
0010
0000
,
1000
0000
0000
0000
0101
0000
0001
0000
0000
0000
0000
1000
0001
0000
0010
0000
,
0100
0000
0000
0000
1001
0000
1000
0000
0000
0000
0000
0001
1000
0000
0010
0000
,
0100
0000
0000
0000
1010
0000
0001
0000
0000
0000
0000
1000
0001
0000
0001
0000
,
0010
0000
0000
0000
1100
0000
0001
0000
0000
0000
0000
1000
0001
0000
1000
0000
,
0010
0000
0101
0001
1000
0000
1000
0000
,
0001
0000
0000
0000
0000
0000
0001
0000
0000
0000
0000
0000
0010
0000
0000
0100
0000
0000
1000
0000
0000
0100
0000
0000
0010
0000
0000
0000
00M0
0000
0000
0000
0000
1000
0000
0000
0010
0000
0000
0100
0000
0000
0001
0000
0000
0000
0000
0000
,
1000
0100
1000
0100
0010
0001
0010
0001
0100
0010
0100
0010
1000
0001
1000
0001
,
1000
0000
0000
0000
0001
0100
0001
1000
0001
0010
0100
1000
0001
0000
1000
0000
,
0010
0100
0010
0100
0001
0010
0001
0010
0100
1000
0001
0100
0010
1000
0010
0100
,
0001
0000
0100
0000
0001
0000
0001
0000
1000
0100
0010
0100
1000
0000
1000
0000
,
0010
0100
0010
0100
0001
0010
0001
0010
0100
1000
0001
0100
0010
1000
0010
0100
,
0001
0000
0000
0000
1010
0000
0001
0000
0000
0000
0000
1000
0001
0000
1000
0000
,
0100
0000
0000
0000
0010
0001
1000
0001
0100
0010
1000
0001
1000
0100
0010
0001
,
1000
0000
0000
0000
0000
0000
1000
0000
0000
0000
0000
0000
0010
0000
0000
0100
0000
0000
0001
0000
0000
0100
0000
0000
0010
0000
0000
0000
00M0
0000
0000
0000
0000
0001
0000
0000
0010
0000
0000
0100
0000
0000
1000
0000
0000
0000
0000
0000
,
0001
0100
0001
0100
0010
1000
0010
1000
0100
0010
0100
0010
0001
1000
0001
1000
,
0004
0000
0000
0000
,
0000
0000
0000
0000
0000
0000
1MM3
0010
,
0201
0000
0301
1000
1001
0000
0021
0000
,
0130
1000
0020
0100
0000
0130
0001
0001
,
1000
0110
1001
0110
,
1001
0000
0110
0110
1001
0000
0001
0100
,
1020
0000
1030
0001
1001
0000
1200
0000
,
0310
0001
0200
0010
0000
0310
1000
0001
,
0020
0000
0130
1000
1000
0000
0001
0100
,
0020
0000
0130
0002
2000
0000
0010
3003
,
2000
0010
0000
0010
0010
0000
0100
0000
,
3001
0000
1000
0001
0000
0001
1000
0001
,
0200
0000
0310
1000
1000
0000
0001
0010
,
0200
0000
0310
0002
2000
0000
0010
3003
,
0002
0000
0010
0100
,
1003
0000
0001
1000
0000
1000
0010
0100
,
0001
0000
0000
0000
0000
0000
0001
0000
0000
0000
0000
0000
0010
0000
0000
0100
0000
0000
1000
0000
0000
0100
0000
0000
0010
0000
0000
0000
00M0
0000
0000
0000
0000
1000
0000
0000
0010
0000
0000
0100
0000
0000
0001
0000
0000
0000
0000
0000
,
1000
0100
1000
0100
0010
0001
0010
0001
0100
0010
0100
0010
1000
0001
1000
0001
,
1000
0000
0000
0000
0000
0000
1001
1000
,
0010
0000
0000
0000
0101
0000
0001
0000
0000
0000
0000
1000
0001
0000
0010
0000
,
0100
0000
0000
0000
1001
0000
1000
0000
0000
0000
0000
0001
1000
0000
0010
0000
,
0100
0000
0000
0000
1010
0000
0001
0000
0000
0000
0000
1000
0001
0000
0001
0000
,
0010
0000
0000
0000
1100
0000
0001
0000
0000
0000
0000
1000
0001
0000
1000
0000
,
0010
0000
0101
0001
1000
0000
1000
0000
,
0001
0000
0000
0000
0000
0000
0001
0000
0000
0000
0000
0000
0010
0000
0000
0100
0000
0000
1000
0000
0000
0100
0000
0000
0010
0000
0000
0000
00M0
0000
0000
0000
0000
1000
0000
0000
0010
0000
0000
0100
0000
0000
0001
0000
0000
0000
0000
0000
,
2000
0200
0020
0002
,
3333
0000
0000
0000
1000
0100
1000
0001
1000
0010
0100
0001
1000
0000
0001
0000
,
0010
0100
0010
0100
1000
0010
1000
0010
0100
0001
1000
0100
0010
0001
0010
0100
,
1000
0000
0100
0000
1000
0000
1000
0000
0001
0100
0010
0100
0001
0000
0001
0000
,
0010
0100
0010
0100
1000
0010
1000
0010
0100
0001
1000
0100
0010
0001
0010
0100
,
1000
0000
0000
0000
0011
0000
1000
0000
0000
0000
0000
0001
1000
0000
0001
0000
,
0100
0000
0000
0000
0010
1000
0001
1000
0100
0010
0001
1000
0001
0100
0010
1000
,
0001
0000
0000
0000
0000
0000
0001
0000
0000
0000
0000
0000
0010
0000
0000
0100
0000
0000
1000
0000
0000
0100
0000
0000
0010
0000
0000
0000
00M0
0000
0000
0000
0000
1000
0000
0000
0010
0000
0000
0100
0000
0000
0001
0000
0000
0000
0000
0000
,
1000
0100
1000
0100
0010
0001
0010
0001
0100
0010
0100
0010
1000
0001
1000
0001
,
4000
0000
0000
0000
,
0000
0000
0000
0000
0000
0000
3MM1
0010
,
1200
0000
1300
0001
1001
0000
1020
0000
,
0130
0001
0020
0100
0000
0130
1000
1000
,
0001
0110
1001
0110
,
1001
0000
0110
0110
1001
0000
1000
0100
,
0021
0000
0031
1000
1001
0000
0201
0000
,
0310
1000
0200
0010
0000
0310
0001
1000
,
0020
0000
0130
0001
0001
0000
1000
0100
,
0020
0000
0130
2000
0002
0000
0010
3003
,
0002
0010
0000
0010
0010
0000
0100
0000
,
1003
0000
0001
1000
0000
1000
0001
1000
,
0200
0000
0310
0001
0001
0000
1000
0010
,
0200
0000
0310
2000
0002
0000
0010
3003
,
2000
0000
0010
0100
,
3001
0000
1000
0001
0000
0001
0010
0100
,
1000
0000
0000
0000
0000
0000
1000
0000
0000
0000
0000
0000
0010
0000
0000
0100
0000
0000
0001
0000
0000
0100
0000
0000
0010
0000
0000
0000
00M0
0000
0000
0000
0000
0001
0000
0000
0010
0000
0000
0100
0000
0000
1000
0000
0000
0000
0000
0000
,
0001
0100
0001
0100
0010
1000
0010
1000
0000
0000
0000
0000
MMMM
0000
0000
0000
,
0001
0100
0001
0100
0010
0100
0001
1000
0001
1000
0010
0100
0001
0100
0010
1000
,
0001
0010
0001
0010
0100
0010
0001
1000
0010
0100
0010
0100
0001
0100
0010
1000
,
0001
0010
0001
0010
0100
0010
0001
1000
0001
1000
0100
0010
0001
0010
0100
1000
,
0001
0100
0001
0100
0001
1000
0001
1000
0100
1000
0100
1000
0100
0010
0100
0010
,
0001
0100
0001
0100
0010
0100
0001
1000
0001
1000
0010
0100
0001
0100
0010
1000
,
0001
0010
0001
0010
0100
0010
0001
1000
0010
0100
0010
0100
0001
0100
0010
1000
,
0001
0010
0001
0010
0100
0010
0001
1000
0001
1000
0100
0010
0001
0010
0100
1000
,
0010
0100
0010
0100
0001
0100
0001
0100
0001
1000
0001
1000
0100
1000
0100
1000
,
0040
0000
0000
0430
0000
0000
0304
0000
,
2003
3000
1100
0002
0003
0400
0000
0000
,
0301
0000
0000
0000
,
0000
0000
0000
0000
0000
0001
0001
0001
,
1010
0110
1001
0110
,
1001
0000
0110
0110
1001
0000
0001
0100
,
1020
0000
1030
0001
1001
0000
1200
0000
,
0310
0001
0200
0010
0000
0310
1000
0001
,
0020
0000
0130
1000
1000
0000
0001
0100
,
0020
0000
0130
0002
2000
0000
0010
3003
,
1200
0000
1300
0001
1001
0000
1020
0000
,
0130
0001
0020
0100
0000
0130
1000
1000
,
0001
0110
1001
0110
,
1001
0000
0110
0110
2002
0000
0010
3003
,
0021
0000
0031
1000
1001
0000
0201
0000
,
0310
1000
0200
0010
0000
0310
0001
1000
,
0020
0000
0130
0001
0001
0000
1000
0100
,
0020
0000
0130
2000
0002
0000
0010
3003
,
1001
0000
1000
1000
0010
1000
0002
0000
,
0103
0000
0001
0001
0010
0001
2000
0000
,
3100
0000
1000
1000
0010
1000
0002
0000
,
0103
0000
0000
0000
0001
0000
0010
0000
0100
0000
1000
0001
1000
0001
1000
0001
,
1000
0000
0001
0001
0100
0001
2000
0000
,
3010
0000
1000
1000
0100
1000
0002
0000
,
1003
0000
0000
0000
0000
0000
1000
0000
0000
0000
0000
0000
0010
0000
0000
0100
0000
0000
0001
0000
0000
0100
0000
0000
0010
0000
0000
0000
00M0
0000
0000
0000
0000
0001
0000
0000
0010
0000
0000
0100
0000
0000
1000
0000
0000
0000
0000
0000
,
0002
0200
0020
2000
,
3333
0000
0000
0000
;
