#TITLE:Facebreaker;
#SUBTITLE:;
#ARTIST:Divine Heresy;
#TITLETRANSLIT:;
#SUBTITLETRANSLIT:;
#ARTISTTRANSLIT:;
#CREDIT:MURDER.V01DKeng07;
#BANNER:Facebreaker-bn.png;
#BACKGROUND:Facebreaker-bg.png;
#LYRICSPATH:;
#CDTITLE:Murder-cd-title.png;
#MUSIC:Facebreaker.ogg;
#OFFSET:-0.356;
#SAMPLESTART:106.000;
#SAMPLELENGTH:11.880;
#SELECTABLE:YES;
#BPMS:0.000=238.000;
#STOPS:112.000=2.017
;
#BGCHANGES:0.000=Facebreaker-bg.png=1.000=0=0=1,
99999=-nosongbg-=1.000=0=0=0 // don't automatically add -songbackground-
;
// cache tags:
#FIRSTBEAT:16.000;
#LASTBEAT:859.000;
#SONGFILENAME:Songs/SSSC Pack 2/Facebreaker - [VO1D]/Facebreaker.sm;
#HASMUSIC:1;
#HASBANNER:1;
#MUSICLENGTH:220.160;
// end cache tags

//---------------dance-single - V01DKeng07----------------
#NOTES:
     dance-single:
     V01DKeng07:
     Challenge:
     17:
     1.000,1.000,0.150,0.145,1.000,2598.000,33.000,32.000,52.000,0.000:

0000
0000
0000
0000
,
0000
0000
0000
0000
,
0000
0000
0000
0000
,
0000
0000
0000
0000
,
1000
0001
1000
0001
1000
0001
1000
0001
0020
0000
0000
0000
0031
1000
0001
1000
,
0001
0100
0010
0100
0010
1000
0001
1000
0002
0000
0000
0000
0013
0100
1000
0100
,
1000
0100
0010
0100
0010
0001
0010
0001
2000
0000
0000
0000
3010
0100
0010
0100
,
0001
1000
0001
1000
0001
1000
0100
0010
0001
1000
0100
0010
0001
1000
0001
1000
,
0001
0100
0001
0100
0001
1000
0010
1000
0020
0000
0000
0000
0130
0001
0100
0001
,
1000
0001
1000
0001
1000
0001
1000
0001
0020
0000
0000
0000
0130
1000
0100
1000
,
0001
1000
0001
0100
0001
0100
0010
1000
0010
0100
0001
0100
0002
0000
0000
0000
,
M003
0M00
00M0
000M
00M0
0M00
M000
000M
,
1000
0001
1000
0001
0010
0100
1000
0100
0010
0001
1000
0001
0100
0000
0010
0000
,
1000
0001
0010
0100
1000
0100
0010
0001
1000
0001
1000
0010
0100
0000
0001
0000
,
0100
0010
1000
0010
0100
0001
1000
0001
1000
0001
0010
0100
1000
0000
0100
0000
,
0010
0001
0010
0100
1000
0100
0010
0001
1000
0001
1000
0001
0010
0100
1000
0100
,
0010
0001
0010
0001
1000
0001
0100
0010
1000
0010
0100
0001
1000
0000
0001
0000
,
0010
0001
1000
0001
1000
0010
0100
0001
1000
0001
0010
0100
1000
0000
0001
0000
,
0100
0010
1000
0010
0100
0001
1000
0001
1000
0001
0010
0100
1000
0001
0100
0010
,
1000
0001
1000
0001
0010
0100
0010
0100
1000
0001
1000
0001
0100
0000
0000
0000
,
0010
1000
0001
1000
0001
0010
0100
1000
0100
0010
0001
1000
0001
1000
0010
0100
,
0001
0100
0010
1000
0010
0100
0001
1000
0001
0010
0100
1000
0001
0010
0100
1000
,
0100
0010
0100
1000
0100
0010
0001
1000
0001
0100
0010
1000
0010
0100
0001
1000
,
0001
0010
0001
0010
0100
1000
0100
1000
0001
1000
0001
0100
0010
1000
0010
0100
,
0001
1000
0100
0010
0001
1000
0100
0010
0001
0010
0100
1000
0001
0100
0001
1000
,
0010
0100
0001
1000
0001
0010
0100
1000
0100
1000
0001
1000
0100
0010
0001
1000
,
0001
0100
0001
0100
0010
1000
0010
0100
0001
1000
0001
0010
0100
1000
0001
1000
,
0010
1000
0001
1000
0001
0010
0100
1000
0100
1000
0100
1000
0001
1000
0001
0100
,
0010
M000
000M
00M0
,
1000
0100
1000
0100
0010
0001
0010
0001
1000
0001
1000
0001
0100
0010
0100
0010
,
1000
0001
1000
0001
1000
0000
0001
0010
0001
0000
0000
0000
1000
0001
1000
0000
,
0000
0000
0010
0100
0010
0000
0000
0000
1000
0001
1000
0001
1000
0001
1000
0001
,
1000
0001
1000
0001
0010
0000
0100
1000
0100
0000
0000
0000
1000
0001
1000
0000
,
0010
0100
0001
0100
0001
1000
0001
0010
0100
1000
0100
0010
0001
1000
0001
1000
,
0010
0100
0001
0100
0001
0000
1000
0001
1000
0000
0000
0000
0001
0010
0001
0000
,
0000
0000
0100
0001
0100
0000
0000
0000
0010
1000
0010
1000
0010
1000
0001
1000
,
0001
1000
0001
1000
0100
0000
0010
0001
0010
0000
0000
0000
0001
1000
0001
0000
,
0100
0001
0100
0010
1000
0010
1000
0001
1000
0100
0010
0001
0010
0100
1000
0001
,
1000
0001
0200
0000
0000
0000
0310
1000
0002
0000
0000
0000
0013
0100
2000
0000
,
0000
0000
3001
0100
0020
0000
0000
0000
0130
0001
1000
0001
1000
0001
0010
0100
,
1000
0100
2000
0000
0000
0000
3001
0100
0020
0000
0000
0000
1030
0010
0100
0000
,
0001
1000
0001
1000
0100
0010
0001
1000
0001
0000
0100
0010
1000
0010
0100
0001
,
1000
0100
0010
0001
1000
0000
0010
0100
0010
0000
0000
0000
1000
0001
1000
0000
,
0000
0000
0001
0010
0001
0000
0000
0000
0100
0001
0100
0001
1000
0001
1000
0001
,
1000
0100
1000
0100
0010
0000
0001
0010
0001
0000
0000
0000
1000
0001
1000
0001
,
1000
0010
0100
0001
0100
0010
1000
0001
1000
0100
1000
0100
0010
0001
0010
0001
,
1000
0010
0100
0001
1001
1000
0100
0010
,
0001
0010
0001
0010
0001
0010
0001
0010
0001
0010
0001
0010
0001
0010
0001
0010
,
0001
1000
0001
0100
0110
0010
1000
0001
,
1000
0001
1000
0001
1000
0001
1000
0001
1000
0001
1000
0001
1000
0001
1000
0001
,
1000
0001
0010
0001
0101
0100
0010
1000
,
0010
1000
0010
1000
0010
1000
0010
1000
0010
1000
0010
1000
0010
1000
0010
1000
,
0010
0000
0000
0000
1000
0001
1000
0001
0010
0100
1000
0100
0010
0001
1000
0001
,
0100
0000
0000
0000
0010
0100
0001
0100
0010
1000
0001
1000
0001
0010
0100
1000
,
0001
1000
0100
0010
0011
0001
0010
0100
,
1000
0100
1000
0100
1000
0100
1000
0100
1000
0100
1000
0100
1000
0100
1000
0100
,
1000
0001
0100
0010
1010
0100
0001
1000
,
0001
0010
0001
0010
0001
0010
0001
0010
0001
0010
0001
0010
0001
0010
0001
0010
,
0001
1000
0100
1000
1010
0010
0100
0001
,
1000
0001
1000
0001
1000
0001
1000
0001
1000
0001
1000
0001
1000
0001
1000
0001
,
1000
0000
0000
0000
0001
0010
0100
1000
0100
0010
0001
0010
0100
1000
0001
1000
,
0001
0000
0000
0000
1000
0010
0100
0001
0100
0010
1000
0010
0100
0001
1000
0001
,
1000
0000
0100
0010
0001
0010
0100
1000
0001
1000
0010
0100
0001
1000
0001
1000
,
0100
0000
0000
0000
0011
0000
0000
0000
1000
0001
1000
0001
1000
0000
0000
0000
,
0010
0100
0001
1000
0001
1000
0100
0010
0001
0010
0100
1000
0001
0000
0100
0000
,
0010
1000
0010
1000
0001
1000
0100
0010
0001
1000
0100
0010
0001
0000
0100
0000
,
0010
1000
0010
0100
0001
0100
0001
1000
0001
0010
0100
1000
0100
0000
0010
0000
,
0001
0010
0100
1000
0100
0010
0001
1000
0001
0100
0010
1000
0010
0000
0100
0000
,
0010
1000
0001
1000
0100
0010
0001
0010
0100
1000
0100
1000
0001
0000
0010
0000
,
0001
0100
0010
1000
0010
0100
0001
1000
0010
0100
0001
1000
0001
0000
1000
0000
,
0010
0100
0001
0100
0010
1000
0001
1000
0010
0100
0001
0100
0010
1000
0001
0010
,
0100
1000
0100
0010
0001
0010
0100
1000
0001
0100
0010
1000
0010
1000
0001
0000
,
1000
0100
1000
0100
0010
0000
0001
0010
0001
0000
0000
0000
0100
0001
0100
0000
,
0000
0000
0010
1000
0010
0000
0000
0000
0100
0001
0100
0001
1000
0010
1000
0010
,
0100
0001
1000
0001
1000
0000
0001
0010
0001
0000
0000
0000
1000
0100
1000
0000
,
0010
0100
0001
1000
0001
1000
0100
0010
0001
1000
0001
0010
0100
1000
0001
1000
,
0001
1000
0100
1000
0100
0000
1000
0001
1000
0000
0000
0000
0001
0100
0001
0000
,
0000
0000
1000
0100
1000
0000
0000
0000
0010
1000
0010
1000
0001
0100
0001
0100
,
0010
1000
0001
1000
0100
0000
0010
0001
0010
0000
0000
0000
0100
1000
0100
0000
,
1000
0001
1000
0001
0100
0010
1000
0001
1000
0100
0010
0001
1000
0001
1000
0001
,
0100
0010
2000
0000
0000
0000
3001
0010
0200
0000
0000
0000
1300
0100
0020
0000
,
0000
0000
0031
1000
0002
0000
0000
0000
0103
0010
1000
0010
0100
0001
1000
0001
,
1000
0001
0020
0000
0000
0000
0130
1000
0002
0000
0000
0000
0103
0010
1000
0001
,
1000
0001
0010
0100
1000
0100
0010
0001
1000
0001
1000
0100
1000
0001
1000
0010
,
0100
0001
1000
0001
1000
0000
0010
1000
0010
0000
0000
0000
0100
0001
0100
0000
,
0000
0000
0001
1000
0001
0000
0000
0000
1000
0100
1000
0100
0010
0001
0010
0001
,
1000
0001
1000
0001
0100
0000
0010
1000
0010
0000
0000
0000
0100
0001
1000
0001
,
1000
0001
0010
0100
1000
0100
0010
0001
1000
0100
0010
0001
1000
0001
1000
0001
,
1000
0010
0100
0001
1001
0001
0010
0100
,
1000
0100
1000
0100
1000
0100
1000
0100
1000
0100
1000
0100
1000
0100
1000
0100
,
1000
0001
1000
0010
0110
0100
0001
1000
,
0001
1000
0001
1000
0001
1000
0001
1000
0001
1000
0001
1000
0001
1000
0001
1000
,
0001
1000
0100
1000
1010
0010
0100
0001
,
0100
0001
0100
0001
0100
0001
0100
0001
0100
0001
0100
0001
0100
0001
0100
0001
,
0100
0000
0000
0000
0001
1000
0001
1000
0100
0010
0001
0010
0100
1000
0001
1000
,
0010
0000
0000
0000
0100
0010
1000
0010
0100
0001
1000
0001
1000
0100
0010
0001
,
1000
0001
0010
0100
1100
1000
0100
0010
,
0001
0010
0001
0010
0001
0010
0001
0010
0001
0010
0001
0010
0001
0010
0001
0010
,
0001
1000
0010
0100
0101
0010
1000
0001
,
1000
0100
1000
0100
1000
0100
1000
0100
1000
0100
1000
0100
1000
0100
1000
0100
,
1000
0001
0010
0001
0101
0100
0010
1000
,
0001
1000
0001
1000
0001
1000
0001
1000
0001
1000
0001
1000
0001
1000
0001
1000
,
0001
0000
0000
0000
1000
0100
0010
0001
0010
0100
1000
0100
0010
0001
1000
0001
,
1000
0000
0010
0100
0001
1000
0001
1000
0100
0010
0001
0010
0100
1000
0001
1000
,
0001
0100
0010
1000
0010
0100
0001
1000
0100
0010
0001
1000
0100
0010
0001
0010
,
0100
1000
0001
0100
0001
1000
0010
0100
0001
1000
0010
0100
0001
1000
0001
0010
,
0100
1000
0100
1000
0100
0010
0001
0010
0001
0010
0100
1000
0100
1000
0001
1000
,
0001
0100
0010
1000
0010
0100
0001
0010
0100
1000
0100
0010
0001
1000
0100
1000
,
0001
1000
0001
0100
0010
1000
0010
0100
0001
0100
0010
1000
0001
0010
0100
1000
,
0001
1000
0100
0010
0001
1000
0001
0010
0100
1000
0001
0100
0010
1000
0010
0100
,
0001
1000
0001
0100
0010
1000
0001
0010
0100
0010
0001
1000
0100
0010
0001
0010
,
0100
1000
0001
1000
0001
1000
0010
0100
0001
1000
0001
1000
0100
0010
0001
0010
,
0100
1000
0100
1000
0001
1000
0010
0100
0001
0100
0010
1000
0001
0010
0100
1000
,
0100
0010
0100
1000
0100
0010
0001
1000
0001
1000
0100
1000
0001
1000
0010
0100
,
0001
1000
0001
1000
0001
0010
0001
0010
0100
1000
0100
1000
0001
1000
0001
1000
,
0001
0100
0010
1000
0010
0100
0001
1000
0100
0010
0001
1000
0100
0010
0001
1000
,
0100
0010
0001
1000
0001
1000
0001
0100
0010
1000
0010
0100
0001
1000
0100
0010
,
0001
1000
0001
1000
0010
0100
0010
0100
0001
1000
0001
1000
0001
0010
0100
1000
,
0001
1000
0100
0010
0001
1000
0001
0010
0100
1000
0001
1000
0100
0010
0001
1000
,
0001
1000
0010
0100
0010
1000
0001
1000
0001
0100
0010
1000
0001
0100
0001
1000
,
0100
0010
0001
1000
0100
0010
0100
1000
0100
0010
0001
1000
0001
1000
0001
0100
,
0010
1001
0110
1001
,
M000
0M00
00M0
000M
,
00M0
0M00
M000
000M
,
0M00
00M0
M000
000M
,
1000
0001
1000
0001
0010
0000
0000
0000
0100
1000
0100
1000
0001
0000
0000
0000
,
0M00
00M0
M000
000M
,
00M0
0M00
M000
000M
,
0M00
00M0
0110
M000
,
1000
0100
0010
0001
1000
0000
0000
0000
0001
0010
0100
1000
0001
0000
0000
0000
,
0100
0010
0100
0010
1000
0001
1000
0001
1000
0000
0100
0000
0110
0000
0010
0000
,
0001
0010
0001
0010
0100
1000
0100
1000
0001
1000
0001
0100
0010
1000
0010
0100
,
0001
1000
0100
1000
0100
0010
0001
0010
0001
1000
0001
1000
0001
0100
0010
1000
,
0010
0100
0001
0100
0010
1000
0010
1000
0001
1000
0001
1000
0100
1000
0100
1000
,
0100
0010
0100
0010
0001
0010
0001
0010
0001
1000
0001
1000
0001
1000
0001
0100
,
0010
1000
0010
0100
0001
1000
0100
0010
0001
0010
0100
1000
0001
1000
0001
1000
,
0010
0100
0010
0100
0001
0100
0001
1000
0001
1000
0001
1000
0001
0010
0100
1000
,
0001
1000
0100
0010
0001
1000
0100
0010
0100
1000
0100
0010
0001
1000
0001
0100
,
0010
1000
0001
1000
0100
0010
0001
0010
0100
1000
0001
1000
0100
0010
0001
1000
,
0001
0100
0010
1000
0010
0100
0001
1000
0001
0100
0010
1000
0010
0100
0001
0010
,
0100
1000
0001
0010
0100
1000
0001
1000
0100
0010
0001
1000
0100
0010
0001
1000
,
0001
1000
0100
1000
0001
1000
0001
0100
0010
1000
0010
0100
0001
1000
0001
0100
,
0010
1000
0001
0010
0100
1000
0100
0010
0001
1000
0100
1000
0001
0100
0010
1000
,
0010
0100
0001
1000
0001
0010
0100
0010
0001
1000
0100
0010
0001
1000
0001
1000
,
0010
0100
0010
1000
0001
1000
0001
0100
0010
1000
0010
0100
0001
1000
0001
0010
,
0100
1000
0100
0010
0001
0100
0010
0100
0001
0010
0100
1000
0001
1000
0001
1000
,
0010
1000
0001
1000
0010
0000
0000
0000
1000
0001
1000
0001
0010
0000
0000
0000
,
0100
1000
0001
1000
0002
0000
0000
0000
0000
0000
0000
0000
0103
0010
1000
0010
,
2000
0000
0000
0000
0000
0000
0000
0000
3001
0010
0001
0010
0200
0000
0000
0000
,
0000
0000
0000
0000
1300
0001
1000
0001
0200
0000
0000
0000
0000
0000
0000
0000
,
0310
1000
0001
1000
0001
0000
0000
0000
0010
0001
0010
0001
1000
0000
0000
0000
,
0010
0100
0001
1000
0002
0000
0000
0000
0000
0000
0000
0000
0013
0100
1000
0100
,
0020
0000
0000
0000
0000
0000
0000
0000
0130
1000
0001
1000
0002
0000
0000
0000
,
0000
0000
0000
0000
0103
0010
1000
0010
2000
0000
0000
0000
0000
0000
0000
0000
,
3001
1000
0001
1000
0001
0000
0000
0000
1000
0001
1000
0001
1000
0000
0000
0000
,
0010
1000
0001
1000
0100
0010
0001
1000
0100
0010
0001
0010
0100
1000
0001
1000
,
0001
0100
0010
1000
0010
1000
0001
1000
0100
1000
0100
0010
0001
0010
0001
1000
,
0001
1000
0100
1000
0001
1000
0001
0100
0010
1000
0010
0100
0001
1000
0001
0010
,
0100
1000
0100
0010
0100
1000
0100
0010
0001
1000
0001
1000
0010
0100
0001
0100
,
0010
1000
0001
1000
0001
0010
0001
1000
0001
1000
0001
0100
0010
1000
0001
0010
,
0100
1000
0100
0010
0001
1000
0001
1000
0100
1000
0001
1000
0010
0100
0001
0100
,
0010
1000
0001
1000
0100
0010
0100
1000
0100
0010
0001
1000
0001
1000
0001
0100
,
0010
1000
0001
1000
0010
0100
0001
1000
0001
0010
0100
1000
0001
1000
0001
1000
,
0020
M000
000M
0M00
,
M000
0M00
000M
M000
,
0130
0001
1000
0001
1000
0000
0000
0000
00M0
0000
0000
0000
M000
0000
0000
0000
,
0010
1000
0001
1000
0001
0000
0100
0000
0110
0000
0010
0000
M000
0000
0000
0000
,
200M
0M00
00M0
000M
,
00M0
0M00
00M0
000M
,
3100
0000
0010
0001
0010
0100
1000
0001
1000
0001
0100
0010
1000
0001
1000
0100
,
0010
0001
0010
0100
1000
0001
1000
0001
0100
0010
1000
0001
1000
0001
0010
0100
,
1000
0010
1000
0001
0100
0010
1000
0001
0010
0100
1000
0100
0010
0001
1000
0100
,
0010
0001
0010
0100
1000
0001
0100
0010
1000
0010
0100
0001
1000
0001
1000
0100
,
1000
0100
0010
0001
0010
0001
1000
0001
1000
0001
1000
0010
0100
0010
0100
0001
,
1000
0001
0010
0100
1000
0001
0010
0100
0010
0001
1000
0100
0010
0100
1000
0001
,
1000
0001
0100
0010
1000
0001
1000
0100
0010
0001
1000
0001
1000
0001
0100
0010
,
1000
0001
0100
0010
1000
0001
1000
0001
0010
0100
1000
0100
1000
0001
1000
0100
,
0010
0001
0010
0100
1000
0001
1000
0100
1000
0001
1000
0010
0100
0001
0100
0010
,
1000
0001
0100
0010
0100
0010
1000
0001
1000
0001
1000
0001
0010
0000
0001
0000
,
1001
0100
0010
1000
1010
0010
0100
0001
,
1000
0001
0010
0000
0000
0000
0010
0001
1000
0000
0000
0000
0010
0100
0001
0000
,
1001
1000
0010
0100
0110
0010
1000
0001
,
1000
0100
0010
0000
0000
0000
0010
0100
1000
0000
0000
0000
0001
0100
0010
0000
,
0110
0010
1000
0001
1001
1000
0100
0010
,
0001
0010
0100
0000
0000
0000
0100
0010
0001
0000
0000
0000
1000
0001
1000
0000
,
1001
0000
0000
0000
0010
0100
0010
0100
0010
0100
0010
0100
0010
0100
0010
0100
,
0010
0000
0000
0000
1000
0001
1000
0001
1000
0001
1000
0001
1000
0001
1000
0001
,
1000
0001
0010
0100
0110
0010
0100
1000
,
0001
0100
0010
0000
0000
0000
0010
1000
0001
0000
0000
0000
1000
0100
0010
0000
,
0011
0001
0010
0100
1100
1000
0001
0100
,
0010
1000
0010
0000
0000
0000
0100
0001
0100
0000
0000
0000
0010
1000
0010
0000
,
1010
1000
0001
0010
0011
0001
0010
0100
,
1000
0001
0100
0000
0000
0000
0100
0001
1000
0000
0000
0000
0010
0100
0001
0000
,
1001
0000
0000
0000
1000
0100
1000
0100
1000
0100
1000
0100
1000
0100
1000
0100
,
1000
0000
0000
0000
0001
0100
0001
0100
0001
0100
0001
0100
0001
0100
0001
0100
,
0001
1000
0001
0010
0100
1000
0100
0010
0001
1000
0001
1000
0010
0100
0001
1000
,
0001
0000
0000
0000
0011
0000
0000
0000
0010
0100
1000
0001
1000
0000
0000
0000
,
0010
0100
0001
0100
0010
1000
0001
1000
0002
0000
0000
0000
0013
0100
1000
0100
,
0010
0001
1000
0001
1000
0010
0100
0010
0200
0000
0000
0000
0301
1000
0001
1000
,
0010
0100
0001
0100
0010
1000
0001
1000
0200
0000
0000
0000
0310
0001
0010
0100
,
1000
0100
0010
0001
1000
0001
0100
0010
1000
0001
1000
0100
0010
0000
0000
0000
,
0001
0010
0100
1000
0001
1000
0001
1000
0010
0100
0001
0100
0010
0000
1000
0000
,
0001
0010
0100
1000
0100
0010
0001
1000
0001
1000
0010
0100
0001
0000
1000
0000
,
0010
0100
0001
0100
0010
1000
0010
0100
0001
1000
0001
1000
0100
0010
0001
1000
,
0001
0010
0100
0010
0001
1000
0100
0010
0001
1000
0001
0100
0010
0000
1000
0000
,
0100
1000
0001
1000
0001
0100
0010
1000
0001
0100
0001
1000
0100
0000
0010
0000
,
0001
1000
0001
1000
0010
0100
0001
1000
0100
1000
0100
0010
0001
0000
0010
0000
,
0100
1000
0100
1000
0001
1000
0001
0100
0010
1000
0001
0100
0001
1000
0001
1000
,
0100
0010
0001
0010
0100
1000
0001
1000
0100
1000
0001
1000
0001
0000
0000
0000
,
0100
0010
1000
0001
1000
0100
0010
0001
0010
0100
1000
0001
1000
0100
0010
0001
,
1000
0010
0100
0001
0100
0010
1000
0010
0100
0001
1000
0001
0010
0100
1000
0100
,
0010
0001
1000
0100
1000
0100
0010
0001
0010
0001
1000
0001
1000
0001
0100
0010
,
1000
0010
0100
0001
0100
0010
1000
0100
1000
0001
0100
0010
1000
0001
0020
0000
,
0030
0000
0000
0000
,
0000
0000
0000
1000
;
