#TITLE:Ducking No.9;
#SUBTITLE:;
#ARTIST:Pico;
#TITLETRANSLIT:;
#SUBTITLETRANSLIT:;
#ARTISTTRANSLIT:;
#CREDIT:;
#BANNER:DNo9-bn.png;
#BACKGROUND:DNO9(2)-bg.png;
#LYRICSPATH:;
#CDTITLE:;
#MUSIC:pico_ducking_no9.mp3;
#OFFSET:-1.535;
#SAMPLESTART:35.821;
#SAMPLELENGTH:12.000;
#SELECTABLE:YES;
#BPMS:0.000=176.000,256.000=130.000,263.000=160.000,272.000=190.000;
#STOPS:;
#BGCHANGES:;
// cache tags:
#FIRSTBEAT:0.000;
#LASTBEAT:294.000;
#SONGFILENAME:Songs/IzzySM Keyboard Mega Pack/Ducking No. 9/Duck9.sm;
#HASMUSIC:1;
#HASBANNER:1;
#MUSICLENGTH:103.372;
// end cache tags

//---------------dance-single - ----------------
#NOTES:
     dance-single:
     :
     Hard:
     11:
     1.000,1.000,1.000,0.155,0.401,492.000,344.000,16.000,0.000,1.000:  // measure 1
1001
0011
0110
1100
0110
1001
0011
0110
,  // measure 2
0011
1100
0110
0101
1100
0011
1001
1010
,  // measure 3
0101
0110
1001
0110
0011
1010
0101
0110
,  // measure 4
1001
0000
0011
0000
0011
0100
1000
0100
1000
0000
0010
0000
1001
0000
0000
0000
,  // measure 5
1001
0011
0110
1001
0110
0011
1100
0110
,  // measure 6
1001
0101
1010
0011
1100
1001
0110
0011
,  // measure 7
1001
0110
1001
1010
0101
0110
0011
1100
,  // measure 8
1001
0000
0110
0000
1001
0010
0100
1000
0100
0000
1000
0000
1001
0000
0000
0000
,  // measure 9
1001
0011
0101
1001
1010
0110
1001
0011
,  // measure 10
1100
0011
0110
1100
0011
0110
0011
1100
,  // measure 11
0011
0110
1001
0011
1100
0110
1001
0101
,  // measure 12
1010
0000
0101
0000
1001
0010
0100
1000
0100
0000
0010
0000
1001
0000
0000
0000
,  // measure 13
1001
0101
1010
0101
0011
1100
0110
1001
,  // measure 14
0011
0110
0011
1001
0110
1001
0110
1100
,  // measure 15
0011
0101
0011
1010
0101
0110
1001
0011
,  // measure 16
1100
0000
0011
0000
0011
0100
1000
0010
0001
0000
0110
0000
0011
0000
0000
0000
,  // measure 17
1001
1001
0110
0110
,  // measure 18
0011
0011
1100
1100
,  // measure 19
1001
1001
0110
1001
,  // measure 20
1001
0010
0100
1000
0100
0010
0001
0010
0100
1000
0100
0010
0001
0010
0100
1000
,  // measure 21
1001
0110
0011
1001
,  // measure 22
0110
1100
0011
1010
,  // measure 23
0101
1010
0101
0110
,  // measure 24
1001
0000
0000
0110
0102
0000
0000
0000
,  // measure 25
1013
0120
0000
0030
0000
0000
0000
0000
,  // measure 26
1001
0000
0001
0010
0100
1000
0100
1000
0100
1010
0000
0000
,  // measure 27
1001
0000
0010
0100
1000
0100
1000
0100
0010
0001
0010
0100
,  // measure 28
0101
0000
1000
0100
1000
0010
0100
0001
0100
0010
0100
1000
,  // measure 29
1001
0011
1100
0110
,  // measure 30
1001
0110
0011
1100
,  // measure 31
0110
0000
0000
0001
0010
0100
1000
0100
0010
0100
0001
0100
,  // measure 32
1001
0000
0000
0001
1000
0001
0010
0100
0001
1000
0010
0100
,  // measure 33
1001
0011
1100
0110
,  // measure 34
1001
0000
0011
1100
0011
0000
1001
0000
,  // measure 35
0110
0000
1001
0110
0011
0000
1100
0000
,  // measure 36
0011
0110
1002
2003
,  // measure 37
0000
3001
0110
1001
,  // measure 38
0011
0000
1100
0011
1100
0000
0101
0000
,  // measure 39
1010
0000
0101
1010
1001
0000
0110
0000
,  // measure 40
0011
1100
1001
2001
,  // measure 41
0000
3001
0101
0110
,  // measure 42
1001
1001
0110
0011
,  // measure 43
1100
0011
0110
1010
,  // measure 44
2010
0000
0000
3001
0012
0000
0000
0000
,  // measure 45
1003
1010
0101
0011
,  // measure 46
0110
1001
0011
0101
,  // measure 47
1010
0110
1001
0011
,  // measure 48
1002
0000
0000
1003
1002
0000
2003
0000
,  // measure 49
3001
0011
1100
1100
0011
0011
0110
0110
,  // measure 50
1001
1001
0101
0101
1010
1010
0011
0011
,  // measure 51
1001
1001
0110
0110
1100
1100
0011
0011
,  // measure 52
0102
0000
0000
0103
2010
0000
0000
0000
,  // measure 53
3001
0011
1100
1100
0101
0101
1010
1010
,  // measure 54
0110
0110
1001
1001
0011
0011
1100
1100
,  // measure 55
0110
0110
0101
0101
1010
1010
0011
0011
,  // measure 56
2001
0000
0000
3001
0002
0000
0000
0000
,  // measure 57
1003
0110
0011
1010
1001
1100
0110
1001
,  // measure 58
0011
1010
0011
0101
0011
1001
1100
1010
,  // measure 59
0101
0011
1100
0110
1001
0011
1001
1010
,  // measure 60
0110
0000
0011
0000
1001
0010
0100
0001
0010
0000
1100
0000
0110
0000
0000
0000
,  // measure 61
1001
0101
1010
0101
0110
0011
1100
0110
,  // measure 62
1001
0011
0110
0011
1100
0110
1001
1010
,  // measure 63
1001
0011
0101
0110
1100
0110
1001
0011
,  // measure 64
0110
0000
1010
0000
1100
0010
0001
0010
0100
0000
1010
0000
0101
0000
0000
0000
,  // measure 65
1001
0010
0100
1000
0101
0000
0001
1000
0000
0001
0010
0000
0000
0000
0001
0000
,  // measure 66
0010
0000
1000
0010
0000
0100
0000
1001
0000
0110
0000
0000
0000
1001
0000
1000
,  // measure 67
0000
0001
0010
0000
0000
1000
0000
0011
0000
0000
0011
0000
0000
0000
1001
0000
,  // measure 68
1000
0000
0001
0010
0000
1000
0000
0001
0000
0010
0100
0000
1001
0000
0110
0000
,  // measure 69
1001
0000
0000
0000
0100
0000
0000
0000
1000
0000
0000
0000
0100
0000
0000
0001
0000
0000
0000
0000
0000
1000
0000
0000
0001
0000
0000
0000
0000
0000
0010
0000
0000
0100
0000
0000
0000
0000
0000
0000
0000
0000
0000
0000
0000
0000
0000
0000
,  // measure 70
1001
0000
0001
0000
1000
0010
0000
0001
0000
1001
0000
0000
0001
0100
1000
0100
,  // measure 71
0010
0000
1001
0000
0000
0001
0010
0000
1100
0000
0011
0000
1100
0001
0000
1001
,  // measure 72
0000
0000
1001
0000
1001
0000
0011
0000
1000
0000
0001
0000
1001
0000
0000
0001
,  // measure 73
0010
0100
2002
0000
0000
0000
0000
0000
0000
0000
0000
0000
0000
0000
0000
0000
,  // measure 74
0000
0000
3003
0000
;
