#TITLE:Bleach The Tongue;
#SUBTITLE:;
#ARTIST:m1dy;
#TITLETRANSLIT:;
#SUBTITLETRANSLIT:;
#ARTISTTRANSLIT:;
#CREDIT:Rynker;
#BANNER:Bn-Bleach.png;
#BACKGROUND:Bg-Bleach.png;
#LYRICSPATH:;
#CDTITLE:;
#MUSIC:Bleach The Tongue.ogg;
#OFFSET:-1.039;
#SAMPLESTART:112.858;
#SAMPLELENGTH:12.000;
#SELECTABLE:YES;
#BPMS:0.000=210.000;
#STOPS:;
#BGCHANGES:;
// cache tags:
#FIRSTBEAT:0.000;
#LASTBEAT:452.000;
#SONGFILENAME:Songs/SPEEEDCOOOORE/Bleach The Tongue - [Rynker]/Bleach The Tongue.sm;
#HASMUSIC:1;
#HASBANNER:1;
#MUSICLENGTH:131.586;
// end cache tags

//---------------dance-single - Rynker----------------
#NOTES:
     dance-single:
     Rynker:
     Challenge:
     16:
     1.000,1.000,0.099,0.076,1.000,1293.000,13.000,10.000,19.000,0.000:

2002
0000
0000
0000
,
0000
0000
3003
0000
,
2002
0000
0000
0000
,
0000
0000
3003
0000
,
2002
0000
0000
3003
,
1001
0000
0000
0000
,
1000
0000
0000
0000
0000
0000
0100
0000
0000
0000
0000
0000
1000
0000
0000
0000
0000
0000
0010
0000
0000
0000
0000
0000
0100
0000
0000
0001
0000
0000
1000
0000
0000
0001
0000
0000
1000
0000
0000
0001
0000
0000
1000
0000
0001
0000
4000
0000
,
0004
0000
0000
0000
,
0000
0000
0000
0000
,
0000
0000
0000
3003
,
1001
0000
0000
0000
0000
0000
0101
0000
0000
0000
0000
0000
0000
0110
0000
0000
0000
0000
0000
0010
0000
0000
0000
0000
1000
0000
0000
0000
0001
0000
0000
0000
,
0001
0000
0000
0000
0000
0000
0000
0000
0000
0000
0000
0000
0000
0000
0000
0000
0000
0000
0000
0000
0000
0000
0000
0000
0010
0000
0000
0000
0000
0000
0000
0000
0000
0000
0000
0000
0000
0000
0000
0000
0000
0000
0100
0000
0000
0000
0000
0000
0000
0000
0000
0000
0000
0000
0000
0000
0000
0000
0000
0000
1000
0000
0000
0000
0000
0000
0000
0000
0000
0000
0000
0000
0000
0000
0000
0000
0000
0000
0000
0000
0001
0000
0000
0000
0000
0000
0000
0000
0000
0000
0000
0000
0000
0000
0000
0000
1000
0000
0000
0000
0000
0000
0000
0000
0000
0000
0000
0000
0001
0000
0000
0000
0000
0000
0000
0000
0000
0000
0000
0000
1000
0000
0000
0000
0000
0000
0000
0000
0000
0000
0000
0000
0001
0000
0000
0000
0000
0000
0000
0000
0000
0000
0000
0000
1000
0000
0000
0000
0000
0000
0000
0000
0000
0000
0000
0000
0001
0000
0000
0000
0000
0000
0000
0000
0000
0000
0000
0000
1000
0000
0000
0000
0000
0000
0000
0000
0001
0000
0000
0000
0000
0000
0000
0000
1000
0000
0000
0000
0000
0000
0000
0000
,
0004
0043
0430
4300
3040
0430
0304
4003
,
3001
0100
0010
0000
1000
0001
0010
0100
1000
0000
0001
0100
0010
0100
0001
0000
,
1000
0001
0010
0000
0100
1000
0010
0100
0010
0000
1000
0001
0010
0100
1000
0001
,
0100
0001
0100
0000
0001
0010
0100
1000
0001
0000
0100
0010
1000
0001
0010
0000
,
0100
0010
0001
0000
1000
0010
0100
0010
0100
0000
0010
1000
0001
1000
0100
0010
,
0100
1000
0001
0000
1000
0010
1000
0001
0010
0000
0100
1000
0100
0010
0001
0000
,
1000
0010
0100
0000
0010
1000
0100
0010
0001
0000
0010
0100
1000
0001
0100
0000
,
0010
1000
0001
0000
1000
0010
0100
0010
1000
0000
0001
0010
0100
0010
0001
0000
,
0100
0000
0000
0010
0000
0000
0100
0000
0000
0000
0000
0000
0001
0000
0000
1000
0000
0000
0100
0000
0000
0010
0000
0000
0100
0000
0000
1000
0000
0000
0001
0000
0000
0100
0000
0000
0010
0000
0000
1000
0000
0000
0001
0000
1000
0000
0001
0000
,
1000
0010
0100
0000
0001
1000
0100
0010
0001
0000
1000
0010
0100
0010
1000
0000
,
0001
1000
0100
0000
0010
0001
0100
0010
0100
0000
0001
1000
0100
0010
0001
0000
,
0100
0001
0100
0000
0001
0010
0100
1000
0001
0000
0100
0010
1000
0001
0010
0000
,
0100
0010
0001
0000
1000
0010
0100
0010
0100
0000
0010
1000
0001
1000
0100
0010
,
0001
0100
0010
0000
1000
0001
0010
0100
1000
0000
0001
0100
0010
0100
0001
0000
,
1000
0001
0010
0000
0100
1000
0010
0100
0010
0000
1000
0001
0010
0100
1000
0000
,
0010
1000
0010
0000
1000
0100
0010
0001
1000
0000
0010
0100
0001
1000
0100
0000
,
0010
0000
0000
0100
0000
0000
1000
0000
0000
0000
0000
0000
0001
0000
0000
0100
0000
0000
0010
0000
0000
0100
0000
0000
0010
0000
0000
1000
0000
0000
0001
0000
0000
0010
0000
0000
0100
0000
0000
0010
0000
0000
0001
0000
1000
0000
0001
0000
,
1000
0001
0100
0001
0100
0001
0100
0001
1000
0100
1000
0100
1000
0100
1000
0100
,
1000
0000
0001
0000
0100
0000
0001
0000
1000
0100
0010
0001
1000
0000
0001
0100
,
0001
0000
1000
0000
0010
0100
0010
0100
0010
0000
1000
0100
1000
0000
0001
0000
,
0010
0000
0001
0000
0010
0000
0001
0000
0000
0010
0000
0000
0001
0000
0000
1000
0000
0000
0001
0000
0000
0M00
0000
0000
00M0
0000
0000
0M00
0000
0000
00M0
0000
0000
M000
0000
0000
000M
0000
0000
M000
0000
0000
000M
0000
0000
0000
0000
0000
,
1000
0000
0100
0000
0010
0001
0010
0000
0001
0000
0100
0010
1000
0000
0001
0100
,
0001
0000
0000
0000
0000
0000
1000
0000
0000
0000
0000
0000
0001
0000
0000
0000
0000
0000
0100
0000
0000
0000
0000
0000
0001
0000
1000
0000
0001
0000
1000
0000
0000
0001
0000
0000
1000
0000
0000
0000
0000
0000
0010
0000
0000
1000
0000
0000
,
0010
0000
1000
0000
0100
0010
0100
0000
0010
0000
0001
0100
0010
1000
0001
0010
,
0100
0000
1000
0000
0100
0000
1000
0000
0000
0100
0000
0000
1000
0000
0000
0001
0000
0000
0100
0000
0000
0001
0000
0000
0100
0000
0000
0010
0000
0000
0100
0000
0000
0010
0000
0000
0100
0000
0000
0000
0000
0000
0000
0000
0000
0000
0000
0000
,
0010
0000
1000
0000
0001
0010
0001
0010
0100
0000
1000
0001
0100
0001
0100
0000
,
0010
1000
0010
0000
1000
0000
0001
0010
0001
0010
0100
1000
0100
1000
0100
0000
,
1000
0000
0001
0000
0100
0001
0100
0001
1000
0000
0100
0010
0100
0010
0001
0000
,
1000
0010
0100
0001
1000
0100
0010
0001
0010
0001
0100
0010
0100
0001
1000
0100
,
0010
0001
0010
0100
1000
0001
0100
0010
0100
0001
0010
0100
1000
0100
0010
0001
,
0100
0010
0100
0001
1000
0100
1000
0001
0010
0001
0010
0100
1000
0100
1000
0001
,
0100
0010
0100
0010
1000
0001
0010
0100
0010
0001
0100
0010
0100
0010
1000
0001
,
1000
0001
0010
0100
1000
0100
1000
0001
0100
0010
0100
0001
1000
0100
0010
0001
,
1000
0001
0100
0010
0100
0001
1000
0100
1000
0001
0100
0010
1000
0001
0010
0100
,
0010
0001
1000
0001
0100
0010
1000
0010
0100
0010
1000
0001
0010
0100
0010
0001
,
1000
0001
0100
0001
1000
0100
1000
0001
0010
0100
1000
0010
0100
0010
1000
0100
,
0010
0100
0010
0000
0100
1000
0100
1000
0100
0000
1000
0001
1000
0001
1000
0000
,
0001
0100
0010
0000
1000
0001
0010
0100
1000
0000
0001
0100
0010
0100
0001
0000
,
1000
0001
0010
0000
0100
1000
0010
0100
0010
0000
1000
0001
0010
0100
1000
0000
,
0010
1000
0010
0000
1000
0100
0010
0001
1000
0000
0010
0100
0001
1000
0100
0000
,
0010
0000
0000
0100
0000
0000
1000
0000
0000
0001
0000
0000
1000
0000
0000
0010
0000
0000
1000
0000
0000
0001
0000
0000
0010
0000
0001
0000
0010
0000
0001
0000
0000
0010
0000
0000
0001
0000
0000
1000
0000
0000
0010
0000
0000
0100
0000
0000
,
0010
1000
0001
0000
1000
0001
0010
0100
1000
0000
0001
0100
0010
0100
0001
0000
,
1000
0000
0000
0001
0000
0000
0010
0000
0000
0000
0000
0000
0100
0000
0000
1000
0000
0000
0010
0000
0000
0100
0000
0000
0010
0000
1000
0000
0010
0000
1000
0000
0000
0010
0000
0000
1000
0000
0000
0001
0000
0000
1000
0000
0000
0010
0000
0000
,
0100
0010
1000
0000
0001
0010
0100
1000
0001
0000
0100
0010
1000
0001
0010
0000
,
0100
0000
0000
0010
0000
0000
0001
0000
0000
0000
0000
0000
1000
0000
0000
0010
0000
0000
0100
0000
0000
0010
0000
0000
0100
0000
0001
0000
0100
0000
0001
0000
0000
0100
0000
0000
0001
0000
0000
0010
0000
0000
0100
0000
0000
1000
0000
0000
,
0001
0100
0010
0000
1000
0001
0010
0100
1000
0000
0001
0100
0010
0100
0001
0000
,
1000
0000
0000
0001
0000
0000
0010
0000
0000
0000
0000
0000
0100
0000
0000
1000
0000
0000
0010
0000
0000
0100
0000
0000
0010
0000
1000
0000
0010
0000
1000
0000
0000
0001
0000
0000
0010
0000
0000
0100
0000
0000
1000
0000
0000
0000
0000
0000
,
0010
1000
0010
0000
1000
0100
0010
0001
1000
0000
0010
0100
0001
1000
0100
0000
,
1000
0000
0001
0000
1000
0000
0001
0000
0000
1000
0000
0000
0100
0000
0000
0010
0000
0000
0001
0000
0000
M000
0000
0000
0M00
0000
0000
00M0
0000
0000
000M
0000
0000
M000
0000
0000
0M00
0000
0000
00M0
0000
0000
0000
0000
0000
0000
0000
0000
,
2002
0000
0000
0000
,
0000
3003
0000
0000
,
0110
0000
0000
0000
,
0000
0000
0000
0000
0000
0000
0000
0001
,
0011
0000
0000
0000
,
1100
0000
0000
0000
,
0001
0000
0100
0000
0010
1000
0010
1000
0010
0000
1000
0001
1000
0100
0010
0001
,
0100
0000
0001
0000
0100
0000
0001
0000
0000
0100
0000
0000
0001
0000
0000
1000
0000
0000
0001
0000
0000
0000
0000
0000
0000
0000
0000
0000
0000
0000
0000
0000
0000
0000
0000
0000
0000
0000
0000
0000
0000
0000
0000
0000
0000
0000
0000
0000
,
1000
0000
0100
0000
0010
0001
0010
0001
1000
0000
0010
0100
0010
1000
0001
1000
,
0100
0000
0000
0000
0000
0000
0010
0000
0000
0000
0000
0000
0001
0000
0000
0100
0000
0000
0010
0000
0000
1000
0000
0000
0001
0000
1000
0000
0001
0000
1000
0000
0000
0001
0000
0000
0100
0000
0000
0000
0000
0000
0001
0000
0000
0010
0000
0000
,
0001
0000
1000
0000
0010
0100
0010
1000
0001
0000
1000
0100
0010
0001
1000
0001
,
0100
0000
0000
0000
0000
0000
0010
0000
0000
0000
0000
0000
1000
0000
0000
0001
0000
0000
0010
0000
0000
0001
0000
0000
0010
0000
0100
0000
0010
0000
0100
0000
0000
0010
0000
0000
0001
0000
0000
1000
0000
0000
0010
0000
0000
1000
0000
0000
,
0001
0000
0010
0000
0100
1000
0100
1000
0001
0000
0100
0010
0100
0001
1000
0001
,
0010
0000
0000
0000
0000
0000
0100
0000
0000
0000
0000
0000
1000
0000
0000
0010
0000
0000
0100
0000
0000
0001
0000
0000
1000
0000
0001
0000
1000
0000
0001
0000
0000
1000
0000
0000
0010
0000
0000
0000
0000
0000
1000
0000
0000
0100
0000
0000
,
1000
0000
0001
0000
0100
0010
0100
0001
1000
0000
0001
0010
0100
1000
0001
1000
,
0010
0000
1000
0000
0010
0000
1000
0000
0000
0010
0000
0000
1000
0000
0000
0001
0000
0000
0010
0000
0000
0001
0000
0000
0010
0000
0000
0100
0000
0000
1000
0000
0000
0001
0000
0000
1000
0000
0000
0000
0000
0000
0000
0000
0000
0000
0000
0000
,
0001
0000
0010
0000
0100
1000
0100
1000
0001
0000
0100
0010
0100
0001
1000
0001
,
0010
0000
0000
0000
0000
0000
0100
0000
0000
0000
0000
0000
1000
0000
0000
0010
0000
0000
0100
0000
0000
0001
0000
0000
1000
0000
0001
0000
1000
0000
0001
0000
0000
1000
0000
0000
0010
0000
0000
0000
0000
0000
1000
0000
0000
0100
0000
0000
,
1000
0000
0001
0000
0100
0010
0100
0001
1000
0000
0001
0010
0100
1000
0001
1000
,
0010
0000
1000
0000
0010
0000
1000
0000
0000
0010
0000
0000
1000
0000
0000
0001
0000
0000
0010
0000
0000
0001
0000
0000
2000
0000
0000
0000
0000
0000
0000
0000
0000
0000
0000
0000
3000
0000
0000
0000
0000
0000
0000
0000
0000
0000
0000
0000
,
0010
0000
1000
0000
0001
0010
0001
0010
0100
0000
1000
0001
0100
0001
0100
0000
,
0010
1000
0010
0000
1000
0000
0001
0010
0001
0010
0100
1000
0100
1000
0100
0000
,
1000
0000
0001
0000
0100
0001
0100
0001
1000
0000
0100
0010
0100
0010
0001
0000
,
1000
0010
0100
0001
1000
0000
0001
0100
0010
0100
0001
1000
0001
0010
0100
0010
,
0001
0000
1000
0000
0010
0100
0001
0100
0010
0000
1000
0100
0010
0100
1000
0000
,
0001
0100
0010
0000
1000
0000
0001
0010
0100
1000
0100
1000
0001
0100
0001
0000
,
1000
0000
0001
0000
0100
0001
0100
0001
1000
0000
0100
0010
0100
0010
0001
0000
,
1000
0010
0100
0001
1000
0001
0100
0010
1000
0001
0010
0100
1000
0001
0100
0010
,
0100
0001
1000
0100
0010
0100
1000
0001
0010
0100
0010
0001
0100
0010
0100
0010
,
1000
0001
0010
0100
1000
0100
1000
0001
0100
0010
0100
0001
1000
0001
0010
0100
,
0010
0001
1000
0010
1000
0010
0100
0001
1000
0100
0010
0100
0010
0001
1000
0010
,
0100
0001
1000
0001
0010
0100
0010
0001
1000
0001
0100
0010
1000
0001
0010
0100
,
0010
0001
1000
0001
0100
0010
0100
0001
1000
0100
0010
0001
1000
0001
0100
0001
,
0010
0100
0010
0100
1000
0001
0100
0010
0100
0001
1000
0100
0010
0100
1000
0001
,
0200
0000
0000
0000
0000
0300
0000
0000
,
0000
0000
0000
0000
,
1000
0010
0100
0000
0001
1000
0100
0010
0001
0000
1000
0010
0100
0010
1000
0000
,
0001
1000
0100
0000
0010
0001
0100
0010
0100
0000
0001
1000
0100
0010
0001
1000
,
0010
1000
0010
0000
1000
0100
0010
0001
1000
0000
0010
0100
0001
1000
0100
0000
,
0010
0100
1000
0000
0001
0100
0010
0100
0001
0000
0100
0001
1000
0100
1000
0010
,
0100
0001
1000
0000
0001
0100
0001
1000
0100
0000
0010
0001
0010
0100
1000
0000
,
0001
0100
0010
0000
1000
0001
0100
0001
1000
0000
0100
0010
0001
1000
0010
0000
,
0100
0001
1000
0000
0001
0100
0010
0100
0001
0000
1000
0001
0010
0100
1000
0000
,
0010
0000
0000
0100
0000
0000
0010
0000
0000
0000
0000
0000
1000
0000
0000
0001
0000
0000
0010
0000
0000
0100
0000
0000
0010
0000
0000
0001
0000
0000
1000
0000
0000
0010
0000
0000
0100
0000
0000
0001
0000
0000
1000
0000
0001
0000
1000
0000
,
0001
0100
0010
0000
1000
0001
0010
0100
1000
0000
0001
0100
0010
0100
0001
0000
,
1000
0001
0010
0000
0100
1000
0010
0100
0010
0000
1000
0001
0010
0100
1000
0000
,
0010
1000
0010
0000
1000
0100
0010
0001
1000
0000
0010
0100
0001
1000
0100
0000
,
0010
0100
1000
0000
0001
0100
0010
0100
0010
0000
0100
0001
1000
0001
0010
0100
,
0010
0001
1000
0000
0001
0100
0001
1000
0100
0000
0010
0001
0010
0100
1000
0000
,
0001
0100
0010
0000
0100
0001
0010
0100
1000
0000
0100
0010
0001
1000
0010
0000
,
0100
0001
1000
0000
0001
0100
0010
0100
0001
0000
1000
0100
0010
0100
1000
0000
,
0001
0000
1000
0000
0001
0000
1000
0000
0000
0001
0000
0000
1000
0000
0000
0001
0000
0000
0010
0000
0000
0100
0000
0000
0010
0000
0000
0001
0000
0000
1000
0000
0000
0010
0000
0000
0100
0000
0000
0001
0000
0000
1000
0000
0000
0000
0000
0000
,
MMMM
0000
0000
0000
;
