#TITLE:Eve of Seduction;
#SUBTITLE:;
#ARTIST:Symphony X;
#TITLETRANSLIT:;
#SUBTITLETRANSLIT:;
#ARTISTTRANSLIT:;
#CREDIT:;
#BANNER:eve bn.png;
#BACKGROUND:eve bg.png;
#LYRICSPATH:;
#CDTITLE:;
#MUSIC:06 Eve of Seduction.ogg;
#OFFSET:-0.297;
#SAMPLESTART:0.285;
#SAMPLELENGTH:20.000;
#SELECTABLE:YES;
#BPMS:0.000=142.000,202.000=71.000,213.000=142.000,381.000=71.000,392.000=142.000;
#STOPS:;
#BGCHANGES:;
// cache tags:
#FIRSTBEAT:4.000;
#LASTBEAT:687.500;
#SONGFILENAME:Songs/SSSC Pack 2/Eve of Seduction - [Xynn]/sm.sm;
#HASMUSIC:1;
#HASBANNER:1;
#MUSICLENGTH:105.000;
// end cache tags

//---------------dance-single - ]Xynn[----------------
#NOTES:
     dance-single:
     ]Xynn[:
     Challenge:
     15:
     1.000,1.000,0.410,0.905,1.000,2460.000,43.000,95.000,41.000,1.000:

0000
0000
0000
0000
,
1001
0000
0001
0100
0000
0010
1000
0100
0010
0001
1000
0001
0100
0001
0010
0001
,
0100
0000
0100
0010
0000
0010
0100
0001
1000
0001
0010
0001
0100
0001
0010
0001
,
1000
0000
1000
0010
0000
0010
0100
0001
1000
0001
0010
0100
1000
0001
0100
0001
,
0010
0100
0010
0100
0000
0100
0010
0100
1000
0001
1000
0001
0000
0001
0100
0000
,
0110
0000
0010
1000
0000
1000
0001
0100
0010
1000
0001
1000
0100
1000
0010
1000
,
0100
0000
0100
0010
0000
0010
0100
1000
0001
1000
0010
1000
0100
1000
0010
1000
,
0001
0000
0001
0100
0000
0100
0001
1000
0100
0010
0001
1000
0001
0100
0010
0100
,
0001
0000
0100
0000
0010
0000
1000
0000
0000
0001
0000
0000
1000
0000
0000
0001
0000
0000
0100
0000
0000
0100
0000
0000
0010
0000
0000
1000
0000
0000
0100
0000
0000
0010
0000
0000
0001
0000
0000
0010
0000
0000
0100
0000
0000
0010
0000
0000
,
0100
1000
0001
0010
0100
0010
0001
1000
0100
0010
0001
1000
0001
0100
0010
1000
,
0001
0010
0001
1000
0100
0010
0100
1000
0001
0010
0100
1000
0001
0010
0100
1000
,
1001
0000
0000
0000
0000
0000
0000
0000
0000
0000
0000
0000
0202
0000
0000
0000
0000
0000
0000
0000
0303
1010
0000
0000
,
0000
0000
0000
0000
0000
0000
0000
0000
0000
0000
0000
0000
0220
0000
0000
0000
0000
0330
1001
0000
0000
0000
0000
0000
,
0000
0000
0000
0000
0000
0000
0022
0000
0000
0000
0000
0000
0000
0000
0033
1100
0000
0000
0000
0000
0000
0000
0000
0000
,
0000
0000
0110
0110
0110
0110
1001
0000
,
0000
0000
0000
0000
0000
0000
0202
0000
0000
0000
0000
0000
0000
0000
0303
1010
0000
0000
0000
0000
0000
0000
0000
0000
,
0000
0000
0000
0000
0000
0000
0220
0000
0000
0000
0000
0330
1001
0000
0000
0000
0000
0000
0000
0000
0000
0000
0000
0000
,
0022
0000
0000
0000
0000
0000
0000
0000
0033
1100
0000
0000
0000
0000
0000
0000
0000
0000
0010
0000
0000
0010
0000
0000
,
0100
0000
0100
0000
0001
0010
0100
1000
0001
0100
0010
1000
0001
1000
0001
1000
,
0100
0010
0100
1000
0010
0100
0001
0100
0001
1000
0010
0100
0001
0010
0100
0010
,
0100
1000
0001
0100
0010
0100
0001
1000
0100
1000
0100
0010
0001
1000
0001
0010
,
0100
0010
0001
1000
0010
0100
0010
1000
0001
0010
0001
0010
0100
1000
0001
0100
,
0010
1000
0010
0100
0001
1000
0100
0010
0001
0010
0001
0100
0001
1000
0010
0100
,
0001
1000
0010
0100
0001
0010
0001
1000
0100
0010
0100
1000
0010
0100
0010
1000
,
0100
0010
0001
1000
0001
0010
0001
1000
0001
0100
0001
1000
0010
0100
0010
1000
,
0001
0000
0000
1000
0000
0000
0100
0000
0000
0010
0000
0000
0001
0000
0000
1000
0000
0000
0001
0000
0010
0000
0100
0000
1000
0000
0000
1000
0000
0000
0010
0000
0000
0100
0000
0000
0001
0000
0100
0000
0010
0000
1000
0000
0010
0000
0100
0000
,
0010
0000
0000
0000
0000
0000
2020
0000
0000
0000
0000
0000
0000
0000
0000
0000
0000
0000
0030
0000
0000
0000
3000
0000
0110
0000
0000
0000
0000
0000
0100
0000
0000
0000
0000
0000
0001
0000
0000
0100
0000
0000
0020
0000
0000
0000
0000
0000
,
0M00
0000
1030
0000
0001
0010
0200
0000
00M0
0000
0310
0000
0001
1000
0020
0000
,
M000
0000
0000
0000
0000
0000
0130
0000
0000
0001
0000
0000
1000
0000
0100
0000
0010
0000
0001
0000
0000
1000
0000
0000
0001
0000
0000
0000
0000
0000
0100
0000
0000
0000
0000
0000
0010
0000
0000
1000
0000
0000
0200
0000
0000
0000
0000
0000
,
M000
0000
0310
0000
0001
0100
0010
0100
0002
0000
1003
0000
0010
0100
0001
1000
,
0100
0010
0001
1000
0001
0010
0100
1000
0010
0000
0100
0000
0010
0100
0002
0000
,
0M00
0000
1003
0000
0010
1000
0200
0000
M000
0000
0310
0000
0100
1000
0020
0000
,
M000
0000
0000
0000
0000
0000
0130
0000
0000
0001
0000
0000
1000
0000
0100
0000
0010
0000
0001
0000
0000
1000
0000
0000
0020
0000
0000
0000
0000
0000
0100
0000
0000
0000
0000
0000
0130
0000
0000
0001
0000
0000
1000
0000
0001
0000
1000
0000
,
0010
0000
0000
0100
0000
0000
0001
0010
0100
1000
0000
0000
0001
0010
0001
0010
0100
1000
0001
0010
0001
0010
0100
1000
,
0001
0000
2002
0000
0000
0000
3003
0000
0110
0000
0010
0000
1000
0010
0200
0000
,
00M0
0000
0301
0000
1000
0100
0020
0000
0M00
0000
0130
0000
1000
0001
0200
0000
,
000M
0000
0000
0000
0000
0000
0310
0000
0000
1000
0000
0000
0001
0000
0010
0000
0100
0000
1000
0000
0000
0001
0000
0000
1000
0000
0000
0000
0000
0000
0010
0000
0000
0000
0000
0000
0100
0000
0000
0001
0000
0000
0020
0000
0000
0000
0000
0000
,
000M
0000
0130
0000
1000
0010
0100
0010
2000
0000
3001
0000
0100
0010
1000
0001
,
0010
0100
1000
0001
1000
0100
0010
0001
0100
0000
0010
0000
0100
0010
2000
0000
,
00M0
0000
3001
0000
0100
0001
0020
0000
000M
0000
0130
0000
0010
0001
0200
0000
,
000M
0000
0000
0000
0000
0000
0310
0000
0000
1000
0000
0000
0001
0000
0010
0000
0100
0000
1000
0000
0000
0001
0000
0000
0200
0000
0000
0000
0000
0000
0000
0000
0000
0000
0000
0000
0010
0000
0000
0000
0000
0000
0010
0000
0000
0000
0000
0000
,
0000
0000
0000
0001
0000
0000
0001
0000
0000
0000
0000
0000
2310
0000
0000
3010
0100
0001
0100
0000
0000
0010
0000
0000
,
0000
0000
0210
0000
0301
0000
1000
0010
0100
0000
0001
0000
1000
0100
0020
0000
,
0M00
0000
0031
0000
1000
0010
0200
0000
00M0
0000
0301
0000
0100
0010
2000
0000
,
00M0
0000
0000
0000
0000
0000
3001
0000
0000
0100
0000
0000
0010
0000
1000
0000
0001
0000
1000
0000
0000
0100
0000
0000
0010
0000
0000
0000
0000
0000
0100
0000
0000
0000
0000
0000
1000
0000
0000
0001
0000
0000
0200
0000
0000
0000
0000
0000
,
000M
0000
0310
0000
0100
0001
1000
0100
2000
0000
3001
0000
1000
0010
0100
0001
,
1000
0100
0010
0001
1000
0100
1000
0010
0100
0000
0010
0000
0100
0001
2000
0000
,
000M
0000
3001
0000
0010
0100
2000
0000
0M00
0000
3010
0000
0100
0001
0020
0000
,
000M
0000
0000
0000
0000
0000
0130
0000
0000
1000
0000
0000
0001
0000
0010
0000
0100
0000
1000
0000
0000
0001
0000
0000
0200
0000
0000
0000
0000
0000
0000
0000
0000
0000
0000
0000
0001
0000
0000
0000
0000
0000
0010
0000
0000
0000
0000
0000
,
0000
0000
0000
0010
0000
0000
0301
0000
0000
1000
0010
0100
0010
0000
0000
0100
0000
0000
0001
0000
0000
1001
0000
0000
,
1000
0000
0100
0000
0010
0100
1000
0010
M20M
0310
1000
0001
0010
0100
0002
0103
,
1000
0001
0100
0010
0002
0013
1000
0100
0010
0100
0002
0103
1000
0001
0100
0100
,
0020
0130
0001
1000
0100
0010
2000
3010
0001
1000
0010
0100
2000
3100
0010
1000
,
0001
0010
0001
0010
0100
1000
0100
1000
00M1
0000
0100
0000
0010
0000
1000
0000
0001
0000
0100
0000
0001
0000
0100
0000
0001
0000
0100
0000
0010
0000
1000
0000
,
0001
0100
0001
0100
0001
0100
0010
1000
0001
0100
0001
0100
0001
0010
0100
1000
,
0100
1000
0100
1000
0001
0010
0100
1000
0100
1000
0100
1000
0010
0100
0001
1000
,
0010
0100
0010
0100
0001
0100
0010
1000
0001
0100
0001
0100
0001
0100
0010
1000
,
0001
0100
0001
0100
0001
0010
0100
0010
0001
1000
0100
1000
0001
0010
0100
0010
,
0001
1000
0100
1000
0010
1000
0010
0100
0001
1000
0001
1000
0010
1000
0010
0100
,
0001
1000
0001
1000
0010
0100
0001
1000
0010
0100
0010
0100
0010
1000
0001
0100
,
0010
1000
0001
0100
0010
0000
0100
0000
0100
0000
1001
0000
0100
0000
0010
1000
,
0100
0010
0001
0010
0100
1000
0100
1000
0001
0010
0100
0010
0100
1000
0100
1000
,
0001
0010
0100
0010
0100
1000
0100
1000
0001
0010
0100
0010
0001
0100
0001
0100
,
0001
0100
0010
1000
0001
0100
0001
0100
0001
0100
0010
1000
0001
0010
0100
0010
,
0001
1000
0100
1000
0001
0010
0100
0010
0100
1000
0100
1000
0001
0010
0100
0010
,
0100
1000
0100
1000
0010
1000
0001
0100
0010
0100
0010
0100
0010
1000
0001
0100
,
0010
0100
0010
0100
0001
0100
0010
1000
0001
1000
0001
1000
0001
0100
0010
1000
,
0001
1000
0001
1000
0001
1000
0100
0010
0001
0010
0001
0010
0001
1000
0100
0010
,
0001
0010
0001
0010
0100
1000
0001
0100
0010
1000
0001
0100
0001
1000
0100
0010
,
0001
0010
0100
1000
1001
0000
1000
0010
0000
0100
0001
0010
0100
1000
0001
1000
,
0010
1000
0100
1000
0010
0000
0010
0100
0000
0100
0010
1000
0001
1000
0100
1000
,
0010
1000
0100
1000
0001
0000
0001
0100
0000
0100
0010
1000
0001
1000
0100
0010
,
0001
1000
0010
1000
0100
0010
0100
0010
0000
0010
0100
0010
0001
1000
0001
1000
,
0000
1000
0010
0000
0110
0000
0100
0001
0000
0001
1000
0010
0100
0001
1000
0001
,
0010
0001
0100
0001
0010
0000
0010
0100
0000
0100
0010
0001
1000
0001
0100
0001
,
0010
0001
0100
0001
1000
0000
1000
0010
0000
0010
1000
0001
0010
0100
1000
0001
,
1000
0000
0000
0001
0000
0000
0100
0000
0000
0010
0000
0000
1000
0000
0000
0000
0000
0000
0010
0000
0100
0000
0010
0000
1000
0000
0000
0100
0000
0000
0010
0000
0000
0001
0000
0000
0100
0000
0000
0010
0000
0000
0100
0000
0000
0010
0000
0000
,
1000
0010
0100
0001
1000
0100
1000
0100
0010
0001
0010
0001
1000
0010
1000
0010
,
0100
0000
0000
0001
0000
0000
0100
0000
0000
0001
0000
0000
1000
0000
0000
0001
0000
0000
0010
0000
0000
0100
0000
0000
1000
0000
0100
0000
0010
0000
0001
0000
0010
0000
0001
0000
0010
0000
0100
0000
1000
0000
0100
0000
0010
0000
0001
0000
,
0010
0000
0100
0000
0010
0000
0100
0000
1000
0000
0001
0000
0100
0000
0000
0000
0000
0000
0010
0000
0000
0000
0000
0000
1000
0000
0000
0100
0000
0000
0020
0000
0000
0000
0000
0000
0M00
0000
0000
0000
0000
0000
0031
0000
0000
0000
0000
0000
,
1000
0010
0200
0000
00M0
0000
0301
0000
0100
0010
2000
0000
00M0
0000
3001
0100
,
0010
0000
1000
0000
0001
0000
1000
0000
0000
0001
0000
0000
0010
0000
0000
0000
0000
0000
0100
0000
0000
0000
0000
0000
1000
0000
0000
0001
0000
0000
0200
0000
0000
0000
0000
0000
00M0
0000
0000
0000
0000
0000
0301
0000
0000
0000
0000
0000
,
1000
0100
0010
0001
2000
0000
3001
0000
0100
0010
1000
0100
0010
0001
1000
0001
,
0100
0010
0100
0001
1000
0000
0001
0000
0010
0100
2000
0000
0M00
0000
3010
0000
,
0100
0001
0020
0000
000M
0000
0130
0000
1000
0001
0200
0000
000M
0000
0310
1000
,
0001
0000
0010
0000
0100
0000
1000
0000
0000
0001
0000
0000
0200
0000
0000
0000
0000
0000
0000
0000
0000
0000
0000
0000
0001
0000
0000
0000
0000
0000
0010
0000
0000
0000
0000
0000
0010
0000
0000
0000
0300
0000
0001
0000
0100
0000
0001
0000
,
0010
0000
0000
0000
0000
0000
0100
0000
0000
0000
0000
0000
0120
0000
0000
0000
0000
0000
0130
0000
1000
0000
0001
0000
1000
0000
0000
0000
0000
0000
0010
0000
0000
0000
0000
0000
0010
0000
0000
0000
0000
0000
0100
0000
0000
0010
0000
0000
,
1000
0000
0001
0010
0100
0000
0010
0000
0100
1000
0002
0000
M000
0000
0103
0000
,
0010
1000
0200
0000
M000
0000
0310
0000
0001
1000
0020
0000
M000
0000
0130
0001
,
1000
0000
0100
0000
0010
0000
0001
0000
0000
1000
0000
0000
0001
0000
0100
0000
0001
0000
0100
0000
0010
0000
1000
0000
0001
0000
0100
0000
0010
0000
1000
0000
0010
0000
1000
0000
0001
0000
1000
0000
0001
0000
0010
0000
0100
0000
0010
0000
,
0001
0010
0100
1000
0100
1000
0001
0010
0100
1000
0100
1000
0001
0010
0100
1000
0100
0010
0001
1000
0001
1000
0001
0100
,
0002
0000
0000
0000
1003
0000
0010
0000
0100
0001
2000
0000
000M
0000
3100
0000
,
0010
0001
0200
0000
000M
0000
0310
0000
1000
0100
0020
0000
0M00
0000
0130
1000
,
0001
0000
0100
0000
0010
0000
1000
0000
0000
0001
0000
0000
2000
0000
0000
0000
0000
0000
0000
0000
0000
0000
0000
0000
0001
0000
0000
0000
0000
0000
0010
0000
0000
0000
0000
0000
0000
0000
0000
0000
0000
0000
0100
0000
0000
0000
0000
0000
,
3001
0000
0000
1000
0010
0100
0010
0000
0000
0100
0000
0000
0001
0000
0000
0101
0000
0000
1000
0000
0000
0100
0000
0000
,
0010
0100
1000
0010
M20M
0310
1000
0100
0010
0100
0002
0103
1000
0010
0100
0010
,
0002
0013
1000
0100
0010
0100
0002
0103
1000
0001
0100
0100
0020
1030
0001
0100
,
0010
0000
0100
0000
2000
0000
3100
0000
0001
0000
1000
0000
0100
0000
0010
0000
2000
0000
3010
0000
0001
0000
0001
0000
1000
0010
1000
0010
0100
0001
0100
0001
,
10M0
0010
0100
0001
1000
0010
1000
0010
1000
0010
0100
0001
1000
0010
1000
0010
,
1000
0010
0100
0001
1000
0010
1000
0010
1000
0100
0010
0001
0010
0001
0010
0001
,
1000
0100
0010
0001
0010
0001
0010
0001
0100
0010
1000
0001
0100
0010
0100
0010
,
1000
0010
0100
0001
1000
0010
1000
0010
1000
0010
0100
0001
1000
0010
1000
0010
,
1000
0100
0010
0100
1000
0001
0010
0001
1000
0100
0010
0100
1000
0001
0010
0001
,
0100
0001
0100
0010
1000
0001
1000
0001
0100
0001
0100
0010
1000
0001
1000
0001
,
0100
0010
1000
0001
0100
0010
0100
0010
0100
0001
1000
0010
0100
0001
1000
0010
,
0100
0000
0010
0000
0010
0000
1001
0000
0010
0000
0100
0001
0010
0100
1000
0100
,
0010
0001
0010
0001
1000
0100
0010
0100
0010
0001
0010
0001
1000
0100
0010
0100
,
0010
0001
0010
0001
1000
0100
0010
0100
1000
0010
1000
0010
1000
0010
0100
0001
,
1000
0010
1000
0010
1000
0010
0100
0001
1000
0100
0010
0100
1000
0001
0010
0001
,
1000
0100
0010
0100
0010
0001
0010
0001
1000
0100
0010
0100
0010
0001
0010
0001
,
0100
0001
1000
0010
0100
0010
0100
0010
0100
0001
1000
0010
0100
0010
0100
0010
,
1000
0010
0100
0001
1000
0001
1000
0001
1000
0010
0100
0001
1000
0001
1000
0001
,
1000
0001
0010
0100
1000
0100
1000
0100
1000
0001
0010
0100
1000
0100
1000
0001
,
1001
0001
0100
0110
0010
1000
1001
0001
,
1000
0100
1000
0100
0010
0100
0010
0001
0010
0100
1000
0100
0010
0001
0010
0001
0010
0100
0010
0001
0010
0100
1000
0100
,
0010
0001
0010
0001
1000
0001
1000
0001
1000
0010
0100
0001
1000
0001
0100
0001
0100
0010
1000
0001
1000
0001
1000
0001
,
1000
0010
0100
0001
0100
0001
1000
0010
1000
0001
0100
0010
1000
0010
0100
0010
0100
0001
1000
0010
0100
0001
1000
0001
,
1000
0010
0100
0001
0100
0001
0100
0010
1000
0010
1000
0001
1000
0001
0010
0100
1000
0100
0020
0000
0000
0000
0000
0000
,
0130
1000
0100
0010
0001
0010
0001
1000
0001
0010
0100
1000
0100
1000
0100
0010
0001
0010
0001
1000
0001
0010
0100
1000
,
0100
0010
0001
1000
0001
1000
0010
0100
0010
0100
0001
1000
0010
0100
0010
0100
0001
1000
0010
0100
0010
0100
0001
0100
,
0010
1000
0010
0100
0001
1000
0010
1000
0010
0100
0001
0100
0010
1000
0001
0100
0001
0100
0010
1000
0010
1000
0001
0100
,
0010
1000
0010
1000
0001
1000
0001
0010
0100
1000
0001
0010
0100
1000
0100
0010
0100
0010
0002
0000
0000
0000
0000
0000
,
1003
0100
1000
0001
0010
0001
1000
0100
0010
0001
0010
0100
1000
0100
1000
0001
0010
0001
1000
0100
0010
0001
0010
0100
,
1000
0001
1000
0010
0100
0010
1000
0010
1000
0010
0100
0001
1000
0010
1000
0010
0100
0001
1000
0010
1000
0010
0100
0001
,
1000
0001
0010
0100
0010
0001
1000
0001
0010
0100
1000
0001
1000
0001
0010
0100
0010
0001
1000
0001
0010
0100
1000
0001
,
1000
0100
0010
0001
0010
0001
0010
0100
1000
0100
0010
0001
1000
0100
0010
0001
0010
0100
2000
0000
0000
0000
0000
0000
,
3001
0100
0001
1000
0010
1000
0001
0100
0010
1000
0010
0100
0001
0100
0001
1000
0010
1000
0001
0100
0010
1000
0010
0100
,
0001
1000
0001
0010
0100
1000
0100
0010
0100
0010
0001
1000
0100
0010
0100
0010
0001
1000
0100
0010
0100
0010
0001
1000
,
0001
0010
0100
0010
0001
1000
0100
0010
0001
1000
0100
1000
0001
0010
0100
0010
0001
1000
0100
0010
0001
1000
0100
1000
,
0001
0010
0100
1000
0001
0010
0100
1000
0001
1000
0001
0100
0001
1000
0010
0100
0010
0100
0020
0000
0000
0000
0000
0000
,
0130
0001
1000
0200
1300
0020
1030
0002
,
0000
0000
0000
0000
0000
0003
0010
0001
0200
0000
0000
0000
0000
0000
0000
0000
,
0310
0000
1000
0100
0010
0001
1000
0100
0010
0001
1000
0010
0100
0001
1000
0010
,
0100
0000
0000
0001
0000
0000
1000
0000
0000
0001
0000
0000
1000
0000
0100
0000
0010
0000
0001
0000
0010
0000
0100
0000
1000
0000
0001
0000
0010
0000
0001
0000
0010
0000
0100
0000
1000
0000
0100
0000
1000
0000
0001
0000
0100
0000
0001
0000
,
1000
0001
0100
0010
0100
0001
1000
0001
0100
0010
0100
0001
1000
0001
1000
0100
0010
0100
1000
0001
0010
0100
1000
0001
,
1000
0000
0001
0000
0010
0000
0100
0000
0010
0000
0001
0000
2000
0000
0000
0000
3000
0000
2000
0000
0000
0000
0000
0000
0000
0000
0000
0000
0000
0000
0000
0000
0000
0000
0000
0000
3000
0000
0000
0000
0000
0000
0001
0000
0000
0100
0000
0000
,
0020
0000
0000
0000
0000
0000
0000
0000
0000
0030
0000
0000
0100
0000
0001
0000
1000
0000
0100
0000
0010
0000
0001
0000
,
0002
0000
0000
0000
0000
0000
0000
0000
0000
0000
0000
0000
0000
0000
0000
0000
0003
0000
0010
0000
0000
0100
0000
0000
0010
0000
0000
0001
0000
0000
1000
0000
0000
0010
0000
0000
0100
0000
0000
0001
0000
0000
1000
0000
0000
0001
0000
0000
,
0200
0000
0000
0000
0310
1000
0002
0000
0000
0000
0013
0100
2000
0000
3010
0100
,
0002
0000
0000
0000
0000
0000
1003
0000
0000
0100
0000
0000
0010
0000
0000
0100
0000
0000
0000
0000
0000
1000
0000
0000
0000
0000
0000
0001
0000
0000
0000
0000
0000
0100
0000
0000
0000
0000
0000
0010
0000
0000
0100
0000
0010
0000
0100
0000
,
0001
0100
0001
0100
0010
1000
0010
1000
0001
0100
0010
1000
0010
0100
0001
1000
0001
1000
0100
1000
0100
0010
0001
1000
,
0100
1000
0100
0010
0001
0010
0100
1000
0100
0010
0001
1000
0100
0010
0001
0010
0001
0010
0001
1000
0001
1000
0010
0100
,
0010
0100
0001
0100
0001
1000
0010
0100
0001
0100
0001
0100
0001
0100
0001
1000
0100
0010
0001
0010
0100
1000
0100
0010
,
0001
0010
0100
1000
0100
1000
0100
1000
0100
1000
0100
1000
0100
1000
0100
1000
0100
1000
0100
0010
0001
1000
0001
1000
,
0020
0000
0000
0030
,
0100
0000
0000
0001
0000
0000
1000
0000
0100
0000
0010
0000
0001
0000
0000
0000
0000
0000
1000
0000
0000
0001
0000
0000
1000
0000
0000
0010
0000
0000
0100
0000
0000
0001
0000
0000
1000
0000
0000
0100
0000
0000
0010
0000
0000
0001
0000
0000
,
1M00
0010
0100
0001
1000
0010
1000
0010
1000
0010
0100
0001
1000
0010
1000
0010
,
1000
0010
0100
0001
1000
0010
1000
0010
1000
0100
0010
0001
0010
0001
0010
0001
,
1000
0100
0010
0001
0010
0001
0010
0001
0100
0010
1000
0001
0100
0010
0100
0010
,
1000
0010
0100
0001
1000
0010
1000
0010
1000
0010
0100
0001
1000
0010
1000
0010
,
1000
0100
0010
0100
1000
0001
0010
0001
1000
0100
0010
0100
1000
0001
0010
0001
,
0100
0001
0100
0010
1000
0001
1000
0001
0100
0001
0100
0010
1000
0001
1000
0001
,
0100
0010
1000
0001
0100
0010
0100
0010
0100
0001
1000
0010
0100
0001
1000
0010
,
0100
0000
0010
0000
0010
0000
1001
0000
0010
0000
0100
0001
0010
0100
1000
0100
,
0010
0001
0010
0001
1000
0100
0010
0100
0010
0001
0010
0001
1000
0100
0010
0100
,
0010
0001
0010
0001
1000
0100
0010
0100
1000
0010
1000
0010
1000
0010
0100
0001
,
1000
0010
1000
0010
1000
0010
0100
0001
1000
0100
0010
0100
1000
0001
0010
0001
,
1000
0100
0010
0100
0010
0001
0010
0001
1000
0100
0010
0100
0010
0001
0010
0001
,
0100
0001
1000
0010
0100
0010
0100
0010
0100
0001
1000
0010
0100
0010
0100
0010
,
1000
0010
0100
0001
1000
0001
1000
0001
1000
0010
0100
0001
1000
0001
1000
0001
,
1002
0000
0000
0000
0000
0000
0000
0000
0000
0000
0000
0000
0103
0000
0000
0000
0000
0000
0010
0000
1000
0000
0001
0000
1000
0000
0000
0010
0000
0000
0100
0000
0000
0001
0000
0000
1000
0000
0000
0100
0000
0000
0010
0000
0000
0001
0000
0000
,
0100
0000
0000
0000
0000
0000
0001
0100
0010
1000
0001
0100
0010
0100
0010
1000
0001
1000
0100
0000
0000
0000
0000
0000
,
1001
0000
0001
0100
0000
0010
1000
0100
0010
0001
1000
0001
0100
0001
0010
0001
,
0100
0000
0100
0010
0000
0010
0100
0001
1000
0001
0010
0001
0100
0001
0010
0001
,
1000
0000
1000
0010
0000
0010
0100
0001
1000
0001
0010
0100
1000
0001
0100
0001
,
0010
0100
0010
0100
0000
0100
0010
0100
1000
0001
1000
0001
0000
0001
0100
0000
,
0110
0000
0010
1000
0000
1000
0001
0100
0010
1000
0001
1000
0100
1000
0010
1000
,
0100
0000
0100
0010
0000
0010
0100
1000
0001
1000
0010
1000
0100
1000
0010
1000
,
0001
0000
0001
0100
0000
0100
0001
1000
0100
0010
0001
1000
0001
0100
0001
0100
,
0101
0000
0100
0010
0000
0010
1000
0000
1100
0000
0100
0010
0000
0010
0001
0000
,
1000
0100
1000
0100
0010
0001
0010
0001
0100
0010
0100
0010
1000
0001
1000
0001
,
1000
0000
0100
0000
0010
0000
0001
0000
0010
0000
0100
0000
1000
0000
0000
0001
0000
0000
0010
0000
0000
0100
0000
0000
1000
0000
0000
0010
0000
0000
0100
0000
0000
0001
0000
0000
1000
0000
0000
0001
0000
0000
1001
0000
0000
0000
0000
0000
;
