#TITLE:Animegabbattle;
#SUBTITLE:;
#ARTIST:DJ Sharpnel;
#TITLETRANSLIT:;
#SUBTITLETRANSLIT:;
#ARTISTTRANSLIT:;
#CREDIT:;
#BANNER:animegabbattle bn.png;
#BACKGROUND:animegabbattle bg.png;
#LYRICSPATH:;
#CDTITLE:;
#MUSIC:Animegabbattle.ogg;
#OFFSET:-0.060;
#SAMPLESTART:18.620;
#SAMPLELENGTH:18.549;
#SELECTABLE:YES;
#BPMS:0.000=207.000;
#STOPS:;
#BGCHANGES:;
// cache tags:
#FIRSTBEAT:32.000;
#LASTBEAT:1000.000;
#SONGFILENAME:Songs/Index Tournament 1/Animegabbattle/Animegabbattle.sm;
#HASMUSIC:1;
#HASBANNER:1;
#MUSICLENGTH:290.481;
// end cache tags

//---------------dance-single - 18- (CTalon)----------------
#NOTES:
     dance-single:
     18- (CTalon):
     Challenge:
     18:
     1.000,1.000,0.255,0.090,1.000,3276.000,74.000,26.000,0.000,0.000:

0000
0000
0000
0000
,
0000
0000
0000
0000
,
0000
0000
0000
0000
,
0000
0000
0000
0000
,
0000
0000
0000
0000
,
0000
0000
0000
0000
,
0000
0000
0000
0000
,
0000
0000
0000
0000
,
1001
0000
0000
1001
0000
0000
1100
0000
,
0101
0000
0000
0101
0000
0000
1001
0000
,
1010
0000
0000
1010
0000
0000
0101
0000
,
0110
0110
0000
0110
0000
0000
1010
0000
,
1001
0000
0000
1001
0000
0000
1010
0000
,
0011
0000
0000
0011
0000
0000
0110
0000
,
1001
0000
0000
1001
0000
0000
1100
0000
,
1000
0001
1000
0001
1000
0010
1000
0010
0100
0001
0100
0001
1000
0001
1000
0001
,
1000
0100
0010
0001
1000
0001
0100
0010
1000
0001
0010
0001
0100
0010
0100
0001
,
1000
0100
1000
0100
0010
0001
1000
0010
0100
0001
0010
0100
1000
0010
0100
0001
,
1000
0001
1000
0100
0010
0001
0100
0010
1000
0001
1000
0100
0010
0001
1000
0001
,
1000
0100
1000
0010
1000
0001
1000
0010
1000
0001
0010
0100
1000
0010
0100
0001
,
1000
0100
0010
0001
0100
0010
1000
0100
0010
0001
1000
0001
1000
0010
0100
0001
,
0100
0001
0010
0100
1000
0001
1000
0100
0010
0001
1000
0010
0100
0010
1000
0100
,
0010
0001
0010
0001
1000
0010
1000
0100
0010
0001
0010
0100
1000
0010
0100
0001
,
1000
0000
0000
0000
0000
0000
0100
0000
1000
0000
0100
0000
1000
0000
0000
0000
0000
0000
0001
0000
1000
0000
0001
0000
1000
0000
0000
0100
0000
0000
0010
0000
0000
0001
0000
0000
1000
0000
0000
0000
0000
0000
0040
0000
0000
0000
0000
0000
,
1030
0001
1000
0100
0010
0001
0100
0010
1000
0010
0100
0001
0010
0100
1000
0001
,
1000
0001
1000
0010
0100
0001
0010
0100
1000
0100
0010
0001
0100
0010
1000
0001
,
1000
0100
1000
0100
0010
0001
1000
0001
1000
0010
1000
0010
0100
0001
0010
0100
,
1000
0010
1000
0001
1000
0100
0010
0001
1000
0100
0010
0001
0100
0001
1000
0001
,
1000
0010
0100
0001
0010
0100
1000
0010
0100
0001
1000
0001
1000
0100
0010
0001
,
0010
0100
0010
0001
1000
0010
1000
0010
0100
0001
0010
0100
1000
0001
1000
0010
,
1000
0100
1000
0001
0100
0010
1000
0100
0010
0100
1000
0001
0100
0010
0100
0001
,
1000
0000
0010
0100
0010
0000
0100
0000
0001
0000
0010
0000
0001
1000
0001
1000
,
0001
0010
0100
1000
0010
0100
0010
1000
0001
0010
0100
1000
0010
0100
0010
1000
,
0001
0010
0100
1000
0100
1000
0010
0100
0001
1000
0010
0100
0001
0010
0100
1000
,
0001
0100
0010
1000
0100
0010
0100
1000
0001
0100
0010
1000
0100
0010
0100
1000
,
0001
0100
0010
1000
0010
1000
0100
0010
0001
1000
0100
0010
0001
0100
0010
1000
,
0001
0010
0001
1000
0001
1000
0010
0100
0001
1000
0001
0010
0001
0100
0010
1000
,
0001
0010
0001
1000
0001
1000
0010
0100
0001
0010
0001
0100
0010
1000
0100
1000
,
0001
0010
0100
0010
0001
1000
0010
0100
0010
1000
0001
0100
0010
1000
0100
0010
,
0001
0000
0000
0000
0000
0000
1000
0000
0010
0000
1000
0000
0010
0000
0000
0000
0000
0000
1000
0000
0001
0000
1000
0000
0001
0000
0000
0010
0000
0000
0100
0000
0000
1000
0000
0000
0010
0000
0000
0000
0000
0000
4000
0000
0000
0000
0000
0000
,
3001
0010
0100
1000
0010
0100
0010
1000
0001
0010
0100
1000
0010
0100
0010
1000
,
0001
0010
0100
1000
0100
1000
0010
0100
0001
1000
0010
0100
0001
0010
0100
1000
,
0001
0100
0010
1000
0100
0010
0100
1000
0001
0100
0010
1000
0100
0010
0100
1000
,
0001
0100
0010
1000
0010
1000
0100
0010
0001
1000
0100
0010
0001
0100
0010
1000
,
0001
0010
0001
1000
0001
1000
0010
0100
0001
1000
0001
0010
0001
0100
0010
1000
,
0001
0010
0001
1000
0001
1000
0010
0100
0001
0010
0001
0100
0010
1000
0100
1000
,
0001
0010
0100
0010
0001
1000
0010
0100
0010
1000
0001
0100
0010
1000
0100
0010
,
0001
0000
0000
0000
0000
0000
1000
0000
0010
0000
1000
0000
0010
0000
0000
0000
0000
0000
1000
0000
0001
0000
1000
0000
0001
0000
0000
0010
0000
0000
0100
0000
0000
1000
0000
0000
0010
0000
0000
0000
0000
0000
4000
0000
0000
0000
0000
0000
,
3001
0100
0010
1000
0100
0010
0100
1000
0001
0100
0010
1000
0100
0010
0100
1000
,
0001
0100
0010
1000
0010
1000
0100
0010
0001
1000
0100
0010
0001
0100
0010
1000
,
0001
0010
0100
1000
0010
0100
0010
1000
0001
0010
0100
1000
0010
0100
0010
1000
,
0001
0010
0100
1000
0100
1000
0010
0100
0001
1000
0010
0100
0001
0010
0100
1000
,
0001
0100
0001
1000
0001
1000
0100
0010
0001
1000
0001
0100
0001
0010
0100
1000
,
0001
0100
0001
1000
0001
1000
0100
0010
0001
0100
0001
0010
0100
1000
0010
1000
,
0001
0100
0010
0100
0001
1000
0100
0010
0100
1000
0001
0010
0100
1000
0010
0100
,
0001
0000
0000
0000
0000
0000
1000
0000
0100
0000
1000
0000
0100
0000
0000
0000
0000
0000
1000
0000
0001
0000
1000
0000
0001
0000
0000
0100
0000
0000
0010
0000
0000
1000
0000
0000
0100
0000
0000
0000
0000
0000
4000
0000
0000
0000
0000
0000
,
3001
0100
0010
1000
0100
0010
0100
1000
0001
0100
0010
1000
0100
0010
0100
1000
,
0001
0100
0010
1000
0010
1000
0100
0010
0001
1000
0100
0010
0001
0100
0010
1000
,
0001
0010
0100
1000
0010
0100
0010
1000
0001
0010
0100
1000
0010
0100
0010
1000
,
0001
0010
0100
1000
0100
1000
0010
0100
0001
1000
0010
0100
0001
0010
0100
1000
,
0001
0100
0001
1000
0001
1000
0100
0010
0001
1000
0001
0100
0001
0010
0100
1000
,
0001
0100
0001
1000
0001
1000
0100
0010
0001
0100
0001
0010
0100
1000
0010
1000
,
0001
0100
0010
0100
0001
1000
0100
0010
0100
1000
0001
0010
0100
1000
0010
0100
,
0001
0000
0000
0000
0000
0000
1000
0000
0100
0000
1000
0000
0100
0000
0000
0000
0000
0000
1000
0000
0001
0000
1000
0000
0001
0000
0000
0100
0000
0000
0010
0000
0000
1000
0000
0000
0100
0000
0000
0000
0000
0000
4000
0000
0000
0000
0000
0000
,
3001
0010
0001
0010
0100
1000
0100
1000
0001
0100
0001
0010
0100
0010
0001
0100
,
0001
1000
0100
1000
0010
0100
0010
1000
0100
0010
0001
0100
0010
1000
0100
1000
,
0001
0010
0001
0010
0100
1000
0100
1000
0001
0100
0001
0010
0100
0010
0001
0100
,
0001
1000
0100
1000
0010
0100
0010
1000
0100
0010
0001
0100
0010
1000
0100
1000
,
0001
0010
0001
0010
0100
1000
0100
1000
0001
0100
0001
0010
0100
0010
0001
0100
,
0001
1000
0100
1000
0010
0100
0010
1000
0100
0010
0001
0100
0010
1000
0100
1000
,
0001
0010
0100
1000
0001
0100
0010
1000
0001
0010
0001
1000
0010
1000
0001
0010
,
0100
0000
0000
0000
0000
0000
1000
0000
0001
0000
1000
0000
0001
0000
0000
0000
0000
0000
1000
0000
0100
0000
1000
0000
0100
0000
0000
0010
0000
0000
0001
0000
0000
1000
0000
0000
0001
0000
0000
0000
0000
0000
0040
0000
0000
0000
0000
0000
,
0031
0100
0001
0100
0010
1000
0010
1000
0001
0010
0001
0100
0010
0100
0001
0010
,
0001
1000
0010
1000
0100
0010
0100
1000
0010
0100
0001
0010
0100
1000
0010
1000
,
0001
0100
0001
0100
0010
1000
0010
1000
0001
0010
0001
0100
0010
0100
0001
0010
,
0001
1000
0010
1000
0100
0010
0100
1000
0010
0100
0001
0010
0100
1000
0010
1000
,
0001
0100
0001
0100
0010
1000
0010
1000
0001
0010
0001
0100
0010
0100
0001
0010
,
0001
1000
0010
1000
0100
0010
0100
1000
0010
0100
0001
0010
0100
1000
0010
1000
,
0001
0100
0010
1000
0001
0010
0100
1000
0001
0100
0001
1000
0100
1000
0001
0100
,
0010
0000
0000
0000
0000
0000
1000
0000
0001
0000
1000
0000
0001
0000
0000
0000
0000
0000
1000
0000
0010
0000
1000
0000
0010
0000
0000
0100
0000
0000
0001
0000
0000
1000
0000
0000
0001
0000
0000
0000
0000
0000
0400
0000
0000
0000
0000
0000
,
0301
0001
1000
0100
0010
0010
0001
1000
,
0100
0000
0100
0000
1000
0000
0001
0000
1000
0000
1000
0000
0010
0000
0100
0001
,
1000
1000
0001
0100
0010
0010
1000
0100
,
1000
0000
1000
0000
0001
0000
1000
0000
0010
0000
0010
0000
0100
0000
0001
1000
,
0100
0100
1000
0001
1000
1000
0100
0010
,
0001
0000
0001
0000
1000
0000
0010
0000
0100
0000
0100
0000
0001
0000
1000
0100
,
0010
0010
0001
1000
0001
0001
0010
0110
,
0000
0000
1100
0000
0000
0000
1001
0000
0000
0000
1000
0000
0100
0010
0100
1000
,
0001
0010
0001
1000
0001
0010
0100
1000
0010
0100
0001
1000
0001
0010
0100
0010
,
0001
1000
0010
1000
0001
1000
0010
0100
0001
0010
0100
1000
0010
1000
0100
0010
,
0001
1000
0001
0100
0001
1000
0100
1000
0100
0010
0001
0100
0010
1000
0001
1000
,
0010
0100
0001
0010
0001
1000
0100
1000
0010
0100
0001
0010
0001
1000
0010
1000
,
0001
0010
0100
1000
0001
0100
0010
0100
0001
1000
0001
0010
0100
1000
0010
0100
,
0001
1000
0100
0010
0001
0100
0010
1000
0001
1000
0100
0010
0100
1000
0001
0010
,
0001
1000
0001
1000
0100
1000
0100
1000
0010
0100
0010
0100
0001
0010
0100
1000
,
0001
0000
0000
0000
0000
0000
1000
0000
0100
0000
1000
0000
0100
0000
0000
0000
0000
0000
0010
0000
0001
0000
0010
0000
0001
0000
0000
1000
0000
0000
0010
0000
0000
0100
0000
0000
0010
0000
0000
0000
0000
0000
4000
0000
0000
0000
0000
0000
,
3001
0100
0001
1000
0001
0100
0010
1000
0100
0010
0001
1000
0001
0100
0010
0100
,
0001
1000
0100
1000
0001
1000
0100
0010
0001
0100
0010
1000
0100
1000
0010
0100
,
0001
1000
0001
0010
0001
1000
0010
1000
0010
0100
0001
0010
0100
1000
0001
1000
,
0100
0010
0001
0100
0001
1000
0010
1000
0100
0010
0001
0100
0001
1000
0100
1000
,
0001
0100
0010
1000
0001
0010
0100
0010
0001
1000
0001
0100
0010
1000
0100
0010
,
0001
1000
0010
0100
0001
0010
0100
1000
0001
1000
0010
0100
0010
1000
0001
0100
,
0001
1000
0001
1000
0010
1000
0010
1000
0100
0010
0100
0010
0001
0100
0010
1000
,
0001
0000
0000
0000
0000
0000
1000
0000
0010
0000
1000
0000
0010
0000
0000
0000
0000
0000
0100
0000
0001
0000
0100
0000
0001
0000
0000
1000
0000
0000
0100
0000
0000
0010
0000
0000
0100
0000
0000
0000
0000
0000
4000
0000
0000
0000
0000
0000
,
3001
0010
0001
1000
0001
0010
0100
1000
0010
0100
0001
1000
0001
0010
0100
0010
,
0001
1000
0010
1000
0001
1000
0010
0100
0001
0010
0100
1000
0010
1000
0100
0010
,
0001
1000
0001
0100
0001
1000
0100
1000
0100
0010
0001
0100
0010
1000
0001
1000
,
0010
0100
0001
0010
0001
1000
0100
1000
0010
0100
0001
0010
0001
1000
0010
1000
,
0001
0010
0100
1000
0001
0100
0010
0100
0001
1000
0001
0010
0100
1000
0010
0100
,
0001
1000
0100
0010
0001
0100
0010
1000
0001
1000
0100
0010
0100
1000
0001
0010
,
0001
1000
0001
1000
0100
1000
0100
1000
0010
0100
0010
0100
0001
0010
0100
1000
,
0001
0000
0000
0000
0000
0000
1000
0000
0100
0000
1000
0000
0100
0000
0000
0000
0000
0000
0010
0000
0001
0000
0010
0000
0001
0000
0000
1000
0000
0000
0010
0000
0000
0100
0000
0000
0010
0000
0000
0000
0000
0000
4000
0000
0000
0000
0000
0000
,
3001
0010
0100
1000
0001
1000
0010
0100
0001
1000
0100
1000
0010
0100
0010
1000
,
0001
0010
0001
0010
0100
1000
0001
0100
0010
1000
0100
0010
0001
0100
0010
1000
,
0001
1000
0001
0010
0100
1000
0010
0100
0001
1000
0001
0010
0100
1000
0001
1000
,
0001
0010
0001
0100
0001
1000
0001
0100
0001
1000
0100
0010
0001
0100
0010
1000
,
0001
0010
0100
1000
0010
0100
0001
0010
0100
1000
0001
1000
0001
0100
0010
1000
,
0010
1000
0100
0010
0001
1000
0001
0010
0100
1000
0001
0100
0010
0100
0001
0010
,
0100
1000
0100
1000
0001
0100
0001
0010
0100
1000
0100
0010
0001
0100
0010
1000
,
0001
1000
0010
0100
0000
0001
0010
0100
,
1000
0100
0010
0001
1000
0001
0100
0010
1000
0001
0010
0001
0100
0010
0100
0001
,
1000
0100
1000
0100
0010
0001
1000
0010
0100
0001
0010
0100
1000
0010
0100
0001
,
1000
0001
1000
0100
0010
0001
0100
0010
1000
0001
1000
0100
0010
0001
1000
0001
,
1000
0100
1000
0010
1000
0001
1000
0010
1000
0001
0010
0100
1000
0010
0100
0001
,
1000
0100
0010
0001
0100
0010
1000
0100
0010
0001
1000
0001
1000
0010
0100
0001
,
0100
0001
0010
0100
1000
0001
1000
0100
0010
0001
1000
0010
0100
0010
1000
0100
,
0010
0001
0010
0001
1000
0010
1000
0100
0010
0001
0010
0100
1000
0010
0100
0001
,
1000
0001
1000
0001
1000
0100
1000
0100
0010
0001
0010
0001
1000
0001
1000
0001
,
1000
0010
1000
0010
1000
0010
1000
0010
,
0100
0002
0000
0000
0000
0000
0003
0000
,
2000
3200
0320
0032
,
2003
0000
0000
0000
3020
0000
0000
0000
0130
0001
0100
0001
0100
0000
0040
0000
,
1030
0100
1000
0100
1000
0100
1000
0100
,
0010
0002
0000
0000
0000
0000
0003
0000
,
2000
3020
0230
0302
,
2003
0000
0000
0000
3200
0000
0000
0000
0310
0001
0010
0001
0010
0000
0400
0000
,
2300
0000
0000
0000
0000
0000
3000
1001
,
0000
0101
0000
1001
0000
1100
0000
0101
,
0001
0010
0100
1000
0010
0100
0001
1000
0001
0010
0100
1000
0010
0100
0001
1000
,
0001
0010
0100
1000
0010
0100
0001
1000
0001
0010
0100
1000
0010
0100
0001
1000
,
0001
0100
0010
1000
0100
0010
0001
1000
0001
0100
0010
1000
0100
0010
0001
1000
,
0001
0100
0010
1000
0100
0010
0001
1000
0001
0100
0010
1000
0100
0010
0001
1000
,
0001
0010
0100
1000
0010
0100
0001
1000
0001
0010
0100
1000
0010
0100
0001
1000
,
0001
0010
0100
1000
0010
0100
0001
1000
0001
0010
0100
1000
0010
0100
0001
1000
,
0001
0100
0010
1000
0100
0010
0001
1000
0001
0100
0010
1000
0100
0010
0001
1000
,
0001
1000
0001
1000
0010
1000
0010
1000
0001
0100
0001
0100
0001
1000
0001
1000
,
0001
0010
0100
1000
0010
0100
0001
1000
0001
0010
0100
1000
0010
0100
0001
1000
,
0001
0010
0100
1000
0010
0100
0001
1000
0001
0010
0100
1000
0010
0100
0001
1000
,
0001
0100
0010
1000
0100
0010
0001
1000
0001
0100
0010
1000
0100
0010
0001
1000
,
0001
0100
0010
1000
0100
0010
0001
1000
0001
0100
0010
1000
0100
0010
0001
1000
,
0001
0010
0100
1000
0010
0100
0001
1000
0001
0010
0100
1000
0010
0100
0001
1000
,
0001
0010
0100
1000
0010
0100
0001
1000
0001
0010
0100
1000
0010
0100
0001
1000
,
0001
0100
0010
1000
0100
0010
0001
1000
0001
0100
0010
1000
0100
0010
0001
1000
,
0001
1000
0001
1000
0010
1000
0010
1000
0001
0100
0001
0100
0001
1000
0001
1000
,
0001
0100
0010
1000
0100
0010
0001
0200
,
0000
0310
1000
0002
0000
0003
0000
0000
,
1000
0100
1000
0001
0100
0001
1000
0200
,
0000
0300
0000
0000
0000
0000
0020
0000
,
0031
1000
0010
1000
0100
0010
0001
2000
,
0000
3100
0010
0002
0000
1003
0010
2000
,
0000
3100
0020
0000
0031
1000
0010
2000
,
0000
3000
0000
0000
0200
0000
0320
0000
,
0031
1000
0010
1000
0001
1000
0100
1000
,
0001
0010
0100
1000
0001
0100
0010
1000
,
0100
0010
0001
0010
0001
0100
0010
1000
,
0001
0010
0001
1000
0010
0100
0010
1000
,
0001
1000
0100
1000
0010
0100
0001
0010
,
0001
0100
0010
1000
0100
1000
0001
0100
,
0010
1000
0100
0010
0001
1000
0100
1000
,
0010
0000
0100
0000
0010
0000
1000
0000
0001
1000
0001
0100
0001
0000
4000
0000
,
3001
0100
0001
1000
0001
0010
0100
1000
0100
0010
0001
0100
0001
0010
0100
1000
,
0001
0100
0010
1000
0010
0100
0001
0010
0100
1000
0100
0010
0100
1000
0001
1000
,
0010
0100
0010
0100
0001
1000
0001
0010
0100
0010
0001
1000
0001
0010
0100
1000
,
0010
0100
0001
0010
0001
1000
0100
0010
0001
0100
0010
1000
0100
0010
0001
1000
,
0001
0010
0001
0010
0100
1000
0100
1000
0001
0100
0010
1000
0100
1000
0001
0010
,
0100
0010
0001
1000
0100
1000
0010
0100
0010
0100
0001
0010
0100
1000
0010
1000
,
0001
0100
0010
0100
0001
1000
0100
0010
0100
1000
0010
1000
0100
0010
0001
0100
,
0001
0000
0000
0000
0000
0000
1000
0000
0100
0000
1000
0000
0100
0000
0000
0000
0000
0000
0010
0000
0100
0000
0010
0000
0100
0000
0000
1000
0000
0000
0001
0000
0000
1000
0000
0000
0010
0000
0000
0000
0000
0000
4000
0000
0000
0000
0000
0000
,
3001
0100
0001
1000
0001
0010
0100
1000
0100
0010
0001
0100
0001
0010
0100
1000
,
0001
0100
0010
1000
0010
0100
0001
0010
0100
1000
0100
0010
0100
1000
0001
1000
,
0010
0100
0010
0100
0001
1000
0001
0010
0100
0010
0001
1000
0001
0010
0100
1000
,
0010
0100
0001
0010
0001
1000
0100
0010
0001
0100
0010
1000
0100
0010
0001
1000
,
0001
0010
0001
0010
0100
1000
0100
1000
0001
0100
0010
1000
0100
1000
0001
0010
,
0100
0010
0001
1000
0100
1000
0010
0100
0010
0100
0001
0010
0100
1000
0010
1000
,
0001
0100
0010
0100
0001
1000
0100
0010
0100
1000
0010
1000
0100
0010
0001
0100
,
0001
0000
0000
1001
0000
1100
0100
0010
,
0001
0010
0100
1000
0001
0100
0001
0100
0010
1000
0100
0010
0001
1000
0010
1000
,
0001
0010
0001
1000
0001
0100
0001
1000
0001
0010
0100
1000
0010
1000
0100
0010
,
0001
1000
0010
1000
0010
0100
0001
0010
0100
1000
0010
0100
0001
1000
0001
0010
,
0001
0010
0100
1000
0010
0100
0010
1000
0001
0010
0100
0010
0001
1000
0010
1000
,
0001
1000
0100
0010
0001
1000
0001
1000
0100
0010
0100
1000
0010
1000
0001
0010
,
0001
1000
0100
0010
0001
1000
0001
1000
0100
0010
0100
1000
0010
1000
0001
0010
,
0001
0100
0001
1000
0001
0100
0001
0010
0100
1000
0100
1000
0001
0010
0001
0100
,
0001
0000
1000
0010
1000
0000
0100
0000
0010
0000
0001
1000
0001
0000
0010
0000
,
0001
0100
0010
1000
0001
0010
0001
0010
0100
1000
0010
0100
0001
1000
0100
1000
,
0001
0100
0001
1000
0001
0010
0001
1000
0001
0100
0010
1000
0100
1000
0010
0100
,
0001
1000
0100
1000
0100
0010
0001
0100
0010
1000
0100
0010
0001
1000
0001
0100
,
0001
0100
0010
1000
0100
0010
0100
1000
0001
0100
0010
0100
0001
1000
0100
1000
,
0001
1000
0010
0100
0001
1000
0001
1000
0010
0100
0010
1000
0100
1000
0001
0100
,
0001
1000
0010
0100
0001
1000
0001
1000
0010
0100
0010
1000
0100
1000
0001
0100
,
0001
0010
0001
1000
0001
0010
0001
0100
0010
1000
0010
1000
0001
0100
0001
0010
,
0001
0000
1000
0000
0001
0000
1000
0000
0010
0100
0001
0100
0010
1000
0010
0100
,
0001
0010
0001
0010
0100
1000
0001
1000
0010
0100
0001
0010
0100
1000
0001
0010
,
0001
0100
0010
1000
0100
1000
0100
0010
0001
1000
0001
0010
0100
1000
0010
0100
,
0001
1000
0001
1000
0010
1000
0010
0100
0001
0010
0100
0010
0001
0100
0010
1000
,
0010
0100
0001
1000
0100
0010
0001
0100
0010
1000
0001
1000
0100
0010
0100
1000
,
0001
0100
0010
0100
0001
0010
0100
1000
0001
0100
0010
0100
0001
0010
0100
0010
,
0001
1000
0010
1000
0100
0010
0001
1000
0001
1000
0010
1000
0100
0010
0001
1000
,
0001
0100
0010
1000
0100
1000
0001
0010
0001
0100
0010
1000
0001
0010
0100
1000
,
0001
0000
0000
0000
0000
0000
1000
0000
0010
0000
1000
0000
0010
0000
0000
0000
0000
0000
1000
0000
0001
0000
1000
0000
0001
0000
0000
0010
0000
0000
0100
0000
0000
1000
0000
0000
0001
0000
0000
0000
0000
0000
0040
0000
0000
0000
0000
0000
,
0031
0100
0001
0100
0010
1000
0001
1000
0100
0010
0001
0100
0010
1000
0001
0100
,
0001
0010
0100
1000
0010
1000
0010
0100
0001
1000
0001
0100
0010
1000
0100
0010
,
0001
1000
0001
1000
0100
1000
0100
0010
0001
0100
0010
0100
0001
0010
0100
1000
,
0100
0010
0001
1000
0010
0100
0001
0010
0100
1000
0001
1000
0010
0100
0010
1000
,
0001
0010
0100
0010
0001
0100
0010
1000
0001
0010
0100
0010
0001
0100
0010
0100
,
0001
1000
0100
1000
0010
0100
0001
1000
0001
1000
0100
1000
0010
0100
0001
1000
,
0001
0010
0100
1000
0010
1000
0001
0100
0001
0010
0100
1000
0001
0100
0010
1000
,
0001
0000
0000
0000
0000
0000
1000
0000
0100
0000
1000
0000
0100
0000
0000
0000
0000
0000
1000
0000
0001
0000
1000
0000
0001
0000
0000
0100
0000
0000
0010
0000
0000
1000
0000
0000
0001
0000
0000
0000
0000
0000
0400
0000
0000
0000
0000
0000
,
0301
0010
0100
1000
0001
1000
0010
0100
0001
1000
0100
1000
0010
0100
0010
1000
,
0001
0010
0001
0010
0100
1000
0001
0100
0010
1000
0100
0010
0001
0100
0010
1000
,
0001
1000
0001
0010
0100
1000
0010
0100
0001
1000
0001
0010
0100
1000
0001
1000
,
0001
0010
0001
0100
0001
1000
0001
0100
0001
1000
0100
0010
0001
0100
0010
1000
,
0001
0010
0100
1000
0010
0100
0001
0010
0100
1000
0001
1000
0001
0100
0010
1000
,
0010
1000
0100
0010
0001
1000
0001
0010
0100
1000
0001
0100
0010
0100
0001
0010
,
0100
1000
0100
1000
0001
0100
0001
0010
0100
1000
0100
0010
0001
0100
0010
1000
,
0001
0000
0000
0000
0000
0000
0010
0000
0001
0000
0010
0000
0001
0000
0000
0000
0000
0000
1000
0000
0001
0000
1000
0000
0001
0000
0000
0010
0000
0000
0100
0000
0000
1000
0000
0000
0001
0000
0000
0000
0000
0000
0400
0000
0000
0000
0000
0000
,
0301
1000
0001
0010
0100
1000
0010
0100
0001
0100
0010
1000
0100
0010
0001
1000
,
0001
1000
0001
0100
0010
1000
0100
0010
0001
0010
0100
1000
0010
0100
0001
1000
,
0001
0010
0001
0010
0100
1000
0001
1000
0001
0100
0001
0100
0010
1000
0100
0010
,
0001
0100
0001
1000
0001
0010
0100
1000
0001
0010
0100
1000
0010
1000
0001
1000
,
0001
0100
0010
1000
0100
0010
0001
0100
0010
1000
0001
1000
0001
0010
0100
1000
,
0100
0010
0100
1000
0001
0100
0001
0100
0010
1000
0100
0010
0001
1000
0001
0100
,
0001
0010
0001
1000
0010
0100
0001
0010
0100
0010
0001
1000
0010
0100
0010
1000
,
0001
0000
0000
0000
0000
0000
1000
0000
0010
0000
1000
0000
0010
0000
0000
0000
0000
0000
0100
0000
0001
0000
0100
0000
0001
0000
0000
1000
0000
0000
0001
0000
0000
0010
0000
0000
0100
0000
0000
0000
0000
0000
4000
0000
0000
0000
0000
0000
,
3001
0010
0100
1000
0001
1000
0010
0100
0001
1000
0100
1000
0010
0100
0010
1000
,
0001
0010
0001
0010
0100
1000
0001
0100
0010
1000
0100
0010
0001
0100
0010
1000
,
0001
1000
0001
0010
0100
1000
0010
0100
0001
1000
0001
0010
0100
1000
0001
1000
,
0001
0010
0001
0100
0001
1000
0001
0100
0001
1000
0100
0010
0001
0100
0010
1000
,
0001
0010
0100
1000
0010
0100
0001
0010
0100
1000
0001
1000
0001
0100
0010
1000
,
0010
1000
0100
0010
0001
1000
0001
0010
0100
1000
0001
0100
0010
0100
0001
0010
,
0100
1000
0100
1000
0001
0100
0001
0010
0100
1000
0100
0010
0001
0100
0010
1000
,
0001
0010
0001
1000
0001
0010
0001
1000
0001
0010
0100
1000
0001
0100
0010
1000
,
0001
0000
0000
1001
0000
0000
1100
0000
,
0101
0000
0000
0101
0000
0000
1001
0000
,
1100
0000
0000
1100
0000
0000
0110
0000
,
0011
0000
0000
0011
0000
0000
1010
0000
,
1100
0000
0000
1100
0000
0000
1001
0000
,
0101
0000
0000
0101
0000
0000
0110
0000
,
1001
0000
0000
1001
0000
0000
1100
0000
,
0110
0000
0000
0110
0000
0000
1001
0000
,
1100
0000
0000
0000
;
