#TITLE:Future Invasion;
#SUBTITLE:;
#ARTIST:YMCK;
#TITLETRANSLIT:;
#SUBTITLETRANSLIT:;
#ARTISTTRANSLIT:;
#CREDIT:;
#BANNER:bn.JPG;
#BACKGROUND:bg.jpg;
#LYRICSPATH:;
#CDTITLE:CDTitle.png;
#MUSIC:07 Future Invasion.mp3;
#OFFSET:-0.498;
#SAMPLESTART:103.085;
#SAMPLELENGTH:15.130;
#SELECTABLE:YES;
#BPMS:0.000=99.977,1.000=150.000,4.000=150.017,5.000=150.034,6.000=150.000,8.000=150.051,9.000=150.000,13.000=150.051,14.000=150.000;
#STOPS:;
#BGCHANGES:;
// cache tags:
#FIRSTBEAT:0.000;
#LASTBEAT:655.188;
#SONGFILENAME:Songs/IcyWorld MiniPack/Future Invasion IcyWorld/Future Invasion.sm;
#HASMUSIC:1;
#HASBANNER:1;
#MUSICLENGTH:264.913;
// end cache tags

//---------------dance-single - ----------------
#NOTES:
     dance-single:
     :
     Hard:
     15:
     1.000,1.000,0.781,1.000,1.000,2570.000,207.000,335.000,0.000,35.000:
0100
0000
0001
0000
0000
0000
0010
0000
0000
0000
0000
0000
0010
0000
0000
0100
0000
0000
1000
0000
0000
0100
0000
0000
,
0001
0000
0010
0000
0010
0100
1000
0100
,
0001
0000
0010
0000
0010
0100
1000
0100
,
0001
0000
0000
0000
0000
0000
0000
0000
0000
0000
0000
0000
0010
0000
0000
0000
0000
0000
0000
0000
0000
0000
0000
0000
0010
0000
0000
0000
0000
0000
0100
0000
0000
0000
0000
0000
1000
0000
0000
0000
0000
0000
1000
0100
0010
0001
0100
0010
,
1000
0100
0010
0001
1000
0010
0200
0300
0020
0030
0002
0003
1000
0000
0000
0000
0000
0000
1000
0100
0010
0001
1000
0100
0010
0000
0000
0000
0000
0000
0100
0000
0000
0000
0000
0000
1000
0000
0000
0000
0000
0000
0100
0000
0000
0000
0000
0000
,
0001
0000
0000
0000
0000
0000
0000
0000
0000
0000
0000
0000
0010
0000
0000
0000
0000
0000
0000
0000
0000
0000
0000
0000
0010
0000
0000
0000
0000
0000
0100
0000
0000
0000
0000
0000
1000
0000
0000
0000
0000
0000
1000
0100
0010
0001
0100
0010
,
1000
0100
0010
0001
1000
0010
0200
0300
0020
0030
0002
0003
1000
0000
0000
0000
0000
0000
0000
0000
0000
0000
0000
0000
1001
0000
0000
0100
0000
0000
0001
0000
0000
0000
0000
0000
0010
0000
0000
0000
0000
0000
1000
0000
0000
0000
0000
0000
,
0001
0000
0010
0000
0010
0100
1000
0100
,
0001
0000
0002
0000
0013
0000
0200
0000
0310
0000
0100
0000
1002
0003
0120
0030
,
0201
0000
0000
0000
0000
0000
0000
0000
0000
0000
0000
0000
0000
0000
0000
0000
0000
0000
0000
0000
0000
0000
0000
0000
0000
0000
0000
0000
0000
0000
0000
0000
0000
0000
0000
0000
0000
0000
0000
0000
0300
0000
0000
0000
0000
0000
0000
0000
0012
0000
0000
0000
0000
0000
0000
0000
0000
0000
0000
0000
0000
0000
0000
0000
0000
0000
0000
0000
0000
0000
0000
0000
0000
0000
0000
0000
0000
0003
0000
0000
0000
0000
0000
0000
0000
0000
0000
0000
0000
0000
0000
0000
0000
0000
0000
0000
2010
0000
0000
0000
0000
0000
0000
0000
0000
0000
0000
0000
3000
0000
0000
0000
0000
0000
0000
0000
0000
0000
0000
0000
0100
0000
0000
0000
0000
0000
0000
0000
0000
0000
0000
0000
0000
0000
0000
0000
0000
0000
0000
0000
0000
0000
0000
0000
1020
0000
0000
0000
0000
0000
0000
0000
0000
0000
0000
0000
0030
0000
0000
0000
0000
0000
0000
0000
0000
0000
0000
0000
0100
0000
0000
0000
0000
0000
0000
0000
0000
0000
0000
0000
0000
0000
0000
0000
0000
0000
0000
0000
0000
0000
0000
0000
,
0201
0300
0020
0030
0010
0000
0002
0003
0210
0300
2100
3000
1020
0030
0100
0000
,
0021
0030
0000
0000
0010
0000
0000
0000
0010
0000
0100
0000
1000
0000
0010
0000
,
0001
0000
0002
0003
0010
0000
0200
0000
0310
0000
0100
0000
1200
0300
0120
0030
,
0002
0000
0000
0000
0000
0000
0000
0000
0000
0000
0000
0000
0000
0000
0000
0000
0000
0000
0000
0000
0000
0000
0000
0000
0000
0000
0000
0000
0000
0000
0000
0000
0003
0000
0000
0000
0000
0000
0000
0000
0000
0000
0000
0000
0000
0000
0000
0000
0020
0000
0000
0000
0000
0000
0000
0000
0000
0000
0000
0000
0000
0000
0000
0000
0000
0000
0000
0000
0000
0000
0000
0000
0000
0000
0000
0030
0000
0000
0000
0000
0000
0000
0000
0000
0000
0000
0000
0000
0000
0000
0000
0000
0000
0000
0000
0000
0012
0000
0000
0000
0000
0000
0000
0000
0000
0000
0000
0000
0000
0000
0000
0000
0000
0000
0000
0000
0000
0000
0000
0000
0100
0000
0000
0000
0000
0000
0000
0000
0000
0000
0000
0000
0003
0000
0000
0000
0000
0000
0000
0000
0000
0000
0000
0000
1020
0000
0000
0000
0000
0000
0000
0000
0000
0000
0000
0000
0030
0000
0000
0000
0000
0000
0000
0000
0000
0000
0000
0000
0200
0000
0000
0000
0000
0000
0000
0000
0000
0000
0000
0000
0300
0000
0000
0000
0000
0000
0000
0000
0000
0000
0000
0000
,
0001
0000
0000
0000
0000
0000
0000
0000
0000
0000
0000
0000
0000
0000
0000
0000
0000
0000
0000
0000
0000
0000
0000
0000
0020
0000
0000
0000
0000
0000
0000
0000
0000
0000
0000
0030
0000
0000
0000
0000
0000
0000
0000
0000
0000
0000
0000
0000
2010
0000
0000
0000
0000
0000
0000
0000
0000
0000
0000
0000
3000
0000
0000
0000
0000
0000
0000
0000
0000
0000
0000
0000
0000
0000
0000
0000
0000
0000
0000
0000
0000
0000
0000
0000
0000
0000
0000
0000
0000
0000
0000
0000
0000
0000
0000
0000
0020
0000
0000
0000
0000
0000
0000
0000
0000
0000
0000
0000
0030
0000
0000
0000
0000
0000
0000
0000
0000
0000
0000
0000
0200
0000
0000
0000
0000
0000
0000
0000
0000
0000
0000
0000
0300
0000
0000
0000
0000
0000
0000
0000
0000
0000
0000
0000
1002
0000
0000
0000
0000
0000
0000
0000
0000
0000
0000
0000
0000
0000
0000
0000
0000
0000
0000
0000
0000
0000
0000
0000
0103
0000
0000
0000
0000
0000
0000
0000
0000
0000
0000
0000
0000
0000
0000
0000
0000
0000
0000
0000
0000
0000
0000
0000
,
0021
0000
0000
0000
0000
0000
0000
0000
0000
0000
0000
0000
0000
0030
0000
0000
0000
0000
0000
0000
0000
0000
0000
0000
0010
0000
0000
0000
0000
0000
0000
0000
0000
0000
0000
0000
0000
0000
0000
0000
0000
0000
0000
0000
0000
0000
0000
0000
0010
0000
0000
0000
0000
0000
0000
0000
0000
0000
0000
0000
0100
0000
0000
0000
0000
0000
0000
0000
0000
0000
0000
0000
1000
0000
0000
0000
0000
0000
0000
0000
0000
0000
0000
0000
0100
0000
0000
0000
0000
0000
0000
0000
0000
0000
0000
0000
,
0002
0000
0000
0000
0000
0000
0000
0000
0023
0000
0000
0000
0000
0000
0030
0000
0010
0000
0000
0000
0000
0000
0000
0000
0002
0000
0000
0000
0000
0003
0000
0000
0120
0000
0000
0000
0000
0000
0000
0000
0130
0000
0000
0000
0000
0000
0000
0000
1000
0000
0000
0000
0000
0000
0000
0000
0201
0000
0000
0000
0000
0000
0000
0000
,
0001
0300
0000
0000
0020
0000
0000
0030
0210
0000
0000
0000
0000
0000
0300
0000
0120
0000
0000
0000
0100
0030
0000
0000
2000
0000
0000
0000
0100
0000
0000
0000
,
0001
0000
0000
0000
0000
0000
0000
0000
0000
0000
0000
0000
0000
0000
0000
0000
0010
0000
0000
0000
0000
0000
0000
0000
0000
0000
0000
0000
0000
0000
0000
0000
0010
0000
0000
0000
0000
0000
0000
0000
0100
0000
0000
0000
0000
3000
0000
0000
1000
0000
0000
0000
0000
0000
0000
0000
0100
0000
0000
0000
0000
0000
0000
0000
,
0001
0000
0010
0000
0010
0100
1000
0100
,
0002
0000
0000
0003
0002
0000
0000
0000
0010
0000
0003
0000
0020
0000
0000
0030
0020
0000
0000
0000
0100
0030
0000
0000
1000
0000
0000
0000
0200
0000
0000
0000
,
0001
0000
0000
0000
0000
0000
0000
0000
0000
0000
0000
0000
0000
0000
0300
0000
0000
0000
0000
0000
0000
0000
0000
0000
0020
0000
0000
0000
0000
0000
0000
0000
0000
0000
0000
0000
0000
0030
0000
0000
0000
0000
0000
0000
0000
0000
0000
0000
0210
0000
0000
0000
0000
0000
0000
0000
0000
0000
0000
0000
0000
0000
0000
0000
0000
0000
0000
0000
0000
0000
0000
0000
0000
0000
0000
0300
0000
0000
0000
0000
0000
0000
0000
0000
0000
0000
0000
0000
0000
0000
0000
0000
0000
0000
0000
0000
0020
0000
0000
0000
0000
0000
0000
0000
0000
0000
0000
0000
0000
0000
0000
0000
0000
0000
0000
0030
0000
0000
0000
0000
0100
0000
0000
0000
0000
0000
0000
0000
0000
0000
0000
0000
0000
0000
0000
0000
0000
0000
0000
0000
0000
0000
0000
0000
2000
0000
0000
0000
0000
0000
0000
0000
0000
0000
0000
0000
0000
0000
0000
0000
0000
0000
0000
0000
0000
0000
0000
0000
0100
0000
0000
0000
0000
0000
0000
0000
0000
0000
0000
0000
0000
0000
0000
0000
0000
0000
0000
0000
0000
0000
0000
0000
,
0001
0000
0000
0000
0010
0000
0000
0000
0001
0000
0010
3000
0100
0000
1000
0000
,
1000
0000
0000
0000
0000
0000
1000
0000
0000
0000
0000
0000
1000
0000
0000
0000
0000
0000
1000
0100
0010
0001
0100
0010
1000
0100
0010
0001
1000
0100
0010
0000
0000
0100
0000
0000
0010
0000
0000
0000
0000
0000
0101
0000
0000
1000
0000
0000
,
0010
0000
0001
0100
0010
0000
0010
0100
0010
0000
1000
0100
1010
0001
1100
0010
,
1100
0000
1000
0001
0010
0100
0010
0001
0100
0000
0010
0010
1100
0001
0010
0100
,
0010
0000
0100
0010
0100
0000
0010
0010
0100
0000
0010
0010
0001
0100
0010
1000
,
0010
0000
0100
0100
0010
1000
0100
0100
0010
0000
0100
0100
0010
1000
0100
0010
,
0100
0000
0011
0100
0010
0000
1010
0100
0010
0000
0100
0100
0011
0100
1010
0100
,
0011
0000
0000
0000
1001
0010
0100
1000
0101
0000
0010
0010
1100
0010
0101
0010
,
1001
0000
0011
0010
0101
1000
0010
0100
0011
0000
1100
0100
0011
0100
0010
0100
,
0011
0000
1000
1000
0101
0010
0001
0010
0101
0000
0010
0010
0100
0010
1000
0100
,
0011
0000
1010
1000
0101
0010
0101
0010
0101
0000
0010
0010
0100
0010
1001
0100
,
0010
0000
0011
0010
0101
1000
0010
0100
0011
0000
0010
0010
0101
0010
1000
0100
,
0011
0000
0100
0100
0010
0100
0001
0100
0011
0000
0010
0010
0100
0001
0100
0010
,
1100
0000
0100
0100
0010
0100
0001
0010
0101
0000
0110
0100
1000
0010
1000
0100
,
0011
0000
0000
0000
0000
0000
1010
0000
0000
0010
0000
0000
1100
0000
0000
0010
0000
0000
1001
0000
0000
0100
0000
0000
0011
0000
0000
0000
0000
0000
0010
0000
0000
0010
0000
0000
0100
0000
0000
0010
0000
0000
1000
0000
0100
0000
0100
0000
,
0011
0000
0110
0100
0011
0000
0000
0000
0110
1000
0100
0010
0101
0010
0001
0100
,
0011
0000
0010
0010
0100
1000
0010
0100
0011
0000
0100
0100
0010
1000
0010
0100
,
0011
0000
0100
0100
0010
0100
0001
0100
0011
0000
0100
0100
1000
0010
1000
0100
,
0010
0100
0001
0100
0010
0001
1000
0100
0010
0100
0001
0100
0010
0001
1000
0100
,
0010
0000
0000
0100
0000
0000
1001
0000
0100
0000
0010
0000
0001
0000
1000
0000
0100
0000
0001
0000
0010
0000
0100
0000
1000
0000
0001
0000
0010
0000
1100
0000
0000
0010
0000
0000
1001
0000
0000
0100
0000
0000
1010
0000
0100
0000
0010
0000
,
0101
0000
0000
1000
0000
0000
0101
0000
0000
0010
0000
0000
1100
0000
0000
0010
0000
0000
0001
0000
0000
1000
0000
0000
0101
0000
0000
0010
0000
0000
1100
0000
0000
0000
0000
0000
0101
0000
0000
0010
0000
0000
0100
0000
1000
0000
0100
0000
,
0011
0000
0000
0010
0000
0000
0000
0000
0000
0100
0000
0000
1010
0000
0000
0010
0000
0000
0010
0000
0000
1000
0000
0000
0010
0000
0000
1000
0000
0000
0011
0000
0000
0100
0000
0000
1010
0000
0000
0100
0000
0000
1001
0000
0100
0000
0010
0000
,
1001
0000
0000
0100
0000
0000
0010
0000
0000
0100
0000
0000
0011
0000
0000
0100
0000
0000
0010
0000
0000
0001
0000
0000
1010
0000
0000
0100
0000
0000
1001
0000
0000
1000
0000
0000
0101
0000
0000
0010
0000
0000
0100
0000
0010
0000
0001
0000
,
1100
0000
0000
0010
0000
0000
1001
0000
0000
0010
0000
0000
0101
0000
0000
0010
0000
0000
0000
0000
0000
0001
0000
0000
0100
0000
0000
0010
0000
0000
1100
0000
0000
0010
0000
0000
0101
0000
0000
0010
0000
0000
1001
0000
0010
0000
0100
0000
,
1001
0000
0000
0010
0000
0000
1100
0000
0000
0010
0000
0000
0101
0000
0000
1000
0000
0000
0100
0000
0000
0001
0000
0000
0110
0000
0000
0001
0000
0000
1010
0000
0000
0100
0000
0000
1010
0000
0000
0001
0000
0000
0010
0000
0100
0000
1000
0000
,
0011
0000
0000
0100
0000
0000
0011
0000
0000
0100
0000
0000
1010
0000
0000
0100
0000
0000
0001
0000
0000
0100
0000
0000
0001
0000
0000
0010
0000
0000
1001
0000
0000
0100
0000
0000
1001
0000
0000
0010
0000
0000
1001
0000
0100
0000
0010
0000
,
1001
0000
0000
0010
0000
0000
1100
0000
0000
0010
0000
0000
0101
0000
0000
0001
0000
0000
0010
0000
0100
0010
0000
0000
0101
0000
0000
0000
0000
0000
1001
0000
0000
0000
0000
0000
1001
0000
0100
0010
0000
0000
0001
0000
0010
0000
0100
0000
,
1000
0000
0000
0000
0000
0000
0100
0000
0000
0000
0000
0000
0000
0000
0000
0000
0000
0000
0010
0000
0000
0000
0000
0000
0001
0000
0000
0000
0000
0000
0010
0000
0000
0000
0000
0000
0100
0000
0000
0000
0010
0000
0000
0000
0100
0000
0000
0000
0010
0000
0000
0000
0000
0000
0001
0000
0000
0000
0000
0000
0100
0000
0000
0000
0000
0000
0010
0000
0000
0000
0000
0000
1000
0000
0000
0000
0000
0000
0100
0000
0000
0000
0000
0000
0010
0000
0000
1000
0000
0000
0010
0000
0000
1000
0000
0000
,
0010
0000
0100
0000
0000
0000
0000
0000
0001
0100
0001
0100
0001
0000
0010
0000
0000
0000
0000
0000
0010
0001
0010
0001
0010
0000
0100
0000
0000
0000
0000
0000
,
0010
0100
0010
0100
0010
0100
0010
0100
0010
0000
0100
0000
1000
0000
0010
0000
0100
0000
0010
0000
1000
0000
0100
0000
0010
0000
0100
0000
0010
1000
0010
1000
,
0010
0000
0100
0000
0000
0000
0000
0000
0001
0100
0001
0100
0001
0000
0010
0000
0000
0000
0000
0000
0010
0001
0010
0001
0010
0000
0100
0000
0000
0000
0000
0000
,
0010
0100
0010
0100
0010
0100
0010
0100
0010
0000
0100
0000
1000
0000
0010
0000
0100
0000
0010
0000
1000
0000
0100
0000
0010
0000
0100
0000
2002
0000
0100
0000
,
3013
0001
0010
0001
2020
0001
3130
0010
0001
0010
2200
0001
3310
0001
0010
0100
,
2020
0000
0000
3130
0000
0000
0010
0000
0000
0202
0000
0000
0313
0000
0000
0100
0000
0000
2020
0000
0100
3030
0001
0000
0100
0000
0000
1000
0000
0000
0010
0000
0000
0100
0010
0000
0001
0000
0010
0000
0100
0000
2002
0000
0000
0000
0000
0000
,
3103
0000
0010
0000
0001
0000
0010
0000
0100
0000
1000
0000
0100
0000
1000
0100
0010
0000
0100
0000
0010
0000
0100
0000
1000
0000
0100
0000
0010
0000
1000
0000
,
0100
0000
0000
0010
0000
0000
0001
0000
0000
0100
0000
0000
0001
0000
0000
1000
0000
0000
0010
0000
0100
0001
0010
0000
0100
0000
0000
0010
0000
0000
0001
0000
0000
0010
0000
0000
0100
0000
0000
1000
0000
0000
0010
0000
0000
0100
0000
0000
,
1000
0000
0010
0100
0001
0000
0010
0100
0001
0010
0001
0100
1000
0010
0100
1000
,
0001
0010
0100
1000
0100
0010
1000
0100
0010
0001
0100
0001
0010
0001
0010
0000
,
0100
0000
0000
0010
0000
0000
0000
0000
0000
0000
0000
0000
0000
0000
0000
0000
0000
0000
0000
0000
0000
0010
0000
0000
0100
0000
0000
1000
0000
0000
0010
0000
0000
0100
0000
0000
0001
0000
0000
0010
0000
0000
0100
0000
0010
0000
0001
0000
,
0100
0010
0100
1000
0001
0010
0100
1000
0010
1000
0100
0010
0001
0100
1000
0100
,
0010
0001
0100
0010
0100
0001
1000
0100
0010
0001
0010
0100
1000
0001
1000
0010
,
1000
0100
0001
0010
0100
1000
0100
0010
0100
1000
0010
0100
0010
0001
0100
0010
,
0001
0010
0100
0000
0000
0100
1000
0010
0100
0000
1000
0100
0010
0001
0010
0000
,
0010
0100
0000
0010
0100
1000
0000
0100
1000
0100
0010
0001
0100
0010
0001
0000
,
0010
0100
1000
0000
0100
0000
0010
0000
0100
0000
1000
0000
0100
0000
1000
0000
0100
0010
0001
0010
0100
0000
1000
0000
0010
0000
0100
0000
0010
0000
0001
0000
,
0010
0100
0001
0100
1000
0100
0010
0001
0010
0001
0010
0100
0010
0100
0002
0000
,
0000
0023
0000
0200
0000
0330
0000
0001
0010
0100
1000
0010
1000
0001
0100
0010
,
1000
0000
0000
0010
0000
0000
0001
0000
0000
0010
0000
0000
0100
0000
0000
1000
0000
0000
0100
0000
0001
0000
0100
0000
0001
0000
0000
0010
0000
0000
0100
0000
0000
1000
0000
0000
0100
0000
0000
1000
0000
0000
0020
0000
0000
0000
0000
0000
,
0130
0000
0000
0000
0000
0000
0100
0000
0000
1000
0000
0000
0100
0000
0000
0010
0000
0000
0001
0000
0000
0000
0100
0000
0000
0000
0001
0000
0000
0000
1000
0000
0000
0000
0100
0000
0000
0000
0010
0000
0000
0000
0001
0000
0100
0000
0001
0000
,
0100
0001
0100
0001
0100
0001
0100
0001
0100
0001
0100
0001
0100
0001
0100
0001
0010
0001
0010
0001
0010
0001
0100
0001
,
0100
0001
0100
0001
0100
0001
0100
0001
0100
0001
1000
0001
1000
0001
1000
0001
1000
0001
1000
0001
1000
0001
0100
0001
,
0100
0001
0100
0001
0100
0001
0100
0001
0100
0001
1000
0001
1000
0001
1000
0001
1000
0001
1000
0001
1000
0001
0010
0001
,
0010
0001
0010
0001
0010
0001
0010
0001
0010
0001
1000
0001
1000
0001
1000
0001
1000
0001
1000
0001
1000
0001
0100
0001
,
0100
0000
0001
0000
0100
0000
0001
0000
0100
0000
0001
0000
0100
0000
0001
0000
0100
0000
0001
0000
1000
0000
0001
0000
1000
0000
0001
0000
1000
0000
0001
0000
1000
0000
0001
0000
1000
0000
0001
0000
1000
0000
0001
0000
0000
0100
0000
0000
,
0001
0000
1000
0000
0100
1000
0100
1000
0100
1000
0100
1000
0001
0100
0001
0100
0001
0100
0001
0100
0010
1000
0010
1000
0010
1000
0010
1000
0100
1000
0100
1000
,
0010
0100
0010
0100
0001
0010
0001
0010
0100
0010
0100
0010
1000
0010
1000
0010
1000
0100
1000
0100
0010
0100
0010
0100
1000
0100
1000
0100
2000
0000
3010
0000
,
0000
0000
0000
0000
0100
1000
0100
1000
0100
1000
0100
1000
0001
0100
0001
0100
0001
0100
0001
0100
0010
1000
0010
1000
0010
1000
0010
1000
0100
1000
0100
1000
,
0010
0100
0010
0100
0001
0010
0001
0010
0100
0010
0100
0010
1000
0010
1000
0010
1000
0100
1000
0100
0010
0100
0010
0100
1000
0100
1000
0100
1000
0100
0010
0001
,
0010
0100
1000
0000
0100
1000
0100
1000
0100
1000
0100
1000
0001
0100
0001
0100
0001
0100
0001
0100
0010
1000
0010
1000
0010
1000
0010
1000
0100
1000
0100
1000
,
0010
0100
0010
0100
0001
0010
0001
0010
0100
0010
0100
0010
1000
0010
1000
0010
1000
0100
1000
0100
0010
0100
0010
0100
0001
0010
0001
0010
0100
0000
0000
0000
,
0010
0000
0000
0000
0001
0000
0000
0000
0010
0000
0000
0000
0100
0000
0000
0000
1000
0000
0000
0000
0100
0000
0000
0000
1000
0000
0000
0000
0010
0100
0010
0100
,
0001
0100
0001
0100
0010
0001
0010
0001
0100
0010
0100
0010
1000
0010
1000
0010
0100
0010
0100
0010
0001
0100
0001
0100
0010
0100
0010
0100
0020
0000
0000
0000
,
0130
0000
0000
0000
1000
0000
0000
0000
0010
0000
0000
0000
0002
0000
0000
0000
0103
0000
0000
0000
0010
0000
0000
0000
0001
0000
0000
0000
0100
1000
0100
1000
,
0010
0100
0010
0100
0001
0100
0001
0100
0010
1000
0010
1000
0100
1000
0100
1000
0010
0100
0010
0100
0001
0100
0001
0100
0010
1000
0010
1000
0010
0000
0000
0000
,
0100
1000
0100
0010
0001
0100
0001
1000
,
0000
0000
0000
0000
0100
0000
0000
0000
0000
0000
0000
0000
1000
0100
1000
0100
1000
0100
1000
0100
0010
1000
0010
1000
0010
1000
0010
1000
0001
0100
0001
0100
,
0001
0100
0001
0100
0001
0100
0001
0100
0001
0100
0001
0100
0001
0100
0001
0100
0001
0100
0001
0100
0001
0100
0001
0100
0001
0100
0001
0100
0001
0100
0001
0100
,
0001
0100
0001
0100
0001
0100
0001
0100
0001
0100
0001
0100
0001
0100
0001
0100
0001
0100
0001
0100
0001
0100
0001
0100
0001
0010
0100
1000
0001
1000
0001
1000
,
0001
1000
0001
1000
0001
1000
0001
1000
0001
1000
0001
1000
0001
1000
0001
1000
0001
1000
0001
1000
0001
1000
0001
1000
0001
1000
0001
1000
0001
1000
0001
1000
,
0010
0000
0000
1000
0000
0000
0001
0000
0000
1000
0000
0000
0001
0000
0000
0010
0000
0000
0100
0000
0000
1000
0000
0000
0001
0000
0000
0010
0000
0000
0100
0000
0000
1000
0000
0000
0011
0000
0000
1000
0000
0000
0001
0000
0010
1000
0000
0000
0101
0000
0000
1000
0010
0000
0001
0000
0000
1000
0000
0000
0211
0000
0000
0000
0000
0000
0000
0000
0010
0000
0000
0000
1302
0000
0000
0000
0010
0000
0000
0000
0000
0000
0000
0000
0213
0000
0000
0000
0000
0000
0000
0000
0000
0000
0000
0000
,
2310
3000
0012
0003
0200
2300
3020
0032
,
0023
0030
0200
0300
0020
0230
0302
2003
,
3020
0030
0200
0300
2000
3200
0302
0203
,
0320
0030
2000
3000
0200
0320
0230
0302
,
0023
0030
0200
0300
0002
0023
2030
3020
,
2030
3000
0200
0300
0020
2030
3020
0230
,
0302
0003
0020
0030
2000
3200
0302
0203
,
0320
0000
0000
0000
0000
0000
0030
0000
0000
0000
0000
0000
0200
0000
0000
0000
0000
0000
0300
0000
0000
0000
0000
0000
1000
0000
0000
0000
0000
0000
0100
0000
0000
0000
0000
0000
0010
0000
0000
0000
0000
0000
1000
0100
0010
0001
0100
0010
,
1000
0100
0010
0001
0100
0010
2000
0000
0000
0010
0000
0000
3002
0000
0000
0013
0000
0000
0001
0000
0000
0100
0000
0000
0021
0000
0000
0030
0000
0000
0200
0000
0000
1000
0000
0000
0320
0000
0000
0100
0000
0000
0032
0000
0000
0100
0000
0000
,
2003
0100
0010
0001
0100
0010
3001
0000
0000
0100
0000
0000
0020
0000
0000
1000
0000
0000
0130
0000
0000
1000
0000
0000
0010
0000
0000
0000
0000
0000
0100
0000
0000
0100
0000
0000
0010
0000
0000
0001
0000
0000
1000
0100
0010
0001
0100
0010
,
1000
0100
0010
0001
1000
0010
0100
0000
0000
0100
0000
0000
1000
0000
0000
0010
0000
0000
0001
0000
0000
0100
0000
0000
0001
0000
0000
0000
0000
0000
0100
0000
0000
1000
0000
0000
0010
0000
0000
0100
0000
0000
0010
0000
0000
0001
0000
0000
,
0020
0000
0000
0230
0000
0000
0300
0000
0000
0020
0000
0000
0230
0000
0000
0301
0000
0000
0100
0000
0000
1000
0000
0000
0200
0000
0000
0000
0000
0000
1320
0000
0000
1000
0000
0000
0132
0000
0000
0010
0000
0000
1003
0100
0010
0001
0100
0010
,
1000
0100
0010
0001
1000
0010
0200
0000
0000
0010
0000
0000
0302
0000
0000
0103
0000
0000
0001
0000
0000
0100
0000
0000
2000
0000
0000
3000
0000
0000
0100
0000
0000
0010
0000
0000
1000
0000
0000
0100
0000
0000
0010
0000
0000
0100
0000
0000
,
1001
0100
0010
0001
0100
1000
0010
0000
0000
0010
0000
0000
1000
0000
0000
0100
0000
0000
0001
0000
0000
0100
0000
0000
0010
0000
0000
0000
0000
0000
0100
0000
0000
0100
0000
0000
0010
0000
0000
0100
0000
0000
0001
0000
0000
0100
0000
0000
,
0010
0000
0000
1000
0000
0000
0010
0000
0000
0010
0000
0000
0100
0000
0000
0100
0000
0000
1000
0000
0100
0010
0000
0000
1000
0100
0010
0001
0010
0001
1000
0100
0010
0001
0100
0001
1000
0100
0010
0001
1000
0100
0000
0000
0000
0000
0000
0000
,
0000
0000
0000
2000
0000
0000
0000
0000
0000
0000
0000
0000
0000
0000
0000
0000
0000
0000
0000
0000
0000
0000
0000
0000
0000
0000
0000
0000
0000
0000
0000
0000
0000
0000
0000
0000
0000
0000
0000
0000
0000
0000
0000
0000
0000
0000
0000
0000
0000
0000
0000
0000
0000
0000
0000
0000
0000
0000
0000
0000
0000
0000
0000
0000
0000
0000
0000
0000
0000
0000
0000
0000
0000
0000
0000
0000
0000
0000
0000
0000
0000
0000
0000
0000
0000
0000
0000
0000
0000
0000
0000
0000
0000
0000
0000
0000
0100
0000
0000
0000
0000
0000
0000
0000
0010
0000
0000
0000
0000
0000
0000
0000
0001
0000
0000
0000
0000
0000
0000
0000
0100
0000
0000
0000
0000
0000
0000
0000
0000
0000
0000
0000
3020
0000
0000
0000
0000
0000
0000
0000
0000
0000
0000
0000
0230
0000
0000
0000
0000
0000
0000
0000
0000
0000
0000
0000
0300
0000
0000
0000
0000
0000
0000
0000
0000
0000
0000
0000
1000
0000
0000
0000
0100
0000
0000
0000
0010
0000
0000
0000
0001
0000
0000
0000
0100
0000
0000
0000
0010
0000
0000
0000
,
1000
0100
0010
0001
0100
0010
1000
0000
0000
0100
0000
0000
0011
0000
0000
0000
0000
0000
1000
0100
0010
0001
1000
0010
0101
0000
0000
0000
0000
0000
0010
0000
0000
0010
0000
0000
0100
0000
0000
0001
0000
0000
0110
0000
0000
1000
0000
0000
,
0101
0000
0000
0000
0000
0000
0000
0000
0000
0000
0000
0000
0010
0000
0000
0000
0100
0000
0000
0000
1000
0000
0000
0000
0100
0000
0000
0000
0010
0000
0000
0000
0001
0000
0000
0000
0100
0000
0000
0010
0000
0000
0100
0000
0000
0000
0000
0000
0101
0000
0000
0000
0000
0000
0100
0000
0000
0000
0000
0000
2000
0000
0000
0000
0000
0000
0100
0000
0000
0000
0000
0000
3020
0000
0000
0000
0000
0000
0001
0000
0000
0000
0000
0000
1030
0000
0100
0000
0010
0000
0001
0000
0100
0000
0001
0000
,
1000
0100
0010
0001
1000
0010
0100
0000
0010
0000
0001
0000
1010
0000
0000
0100
0000
0000
0100
0010
0001
0100
0010
0001
1100
0000
0000
0000
0000
0000
0100
0000
0000
0010
0000
0000
0100
0000
0000
0001
0000
0000
0010
0000
0000
1000
0000
0000
,
0110
0000
0000
0000
0000
0000
1000
0000
0010
0000
0100
0000
0010
0000
0100
0000
0001
0000
2000
0000
0000
3002
0000
0000
0113
0000
0000
2000
0000
0000
3020
0000
0000
0001
0000
0000
0230
0000
0000
1000
0000
0000
0301
0000
0000
0000
0000
0000
,
0110
0000
0200
0000
0320
0000
2030
0000
3000
0000
0000
0000
0020
0000
2030
0100
,
3020
0000
0000
0000
0000
0000
1000
0000
0000
0001
0000
0000
0130
0000
0000
0000
0000
0000
1000
0000
0000
0000
0000
0000
0110
0000
0000
0000
0000
0000
0000
0000
0000
0000
0000
0000
0100
0000
0000
0000
0010
0000
0000
0000
1000
0000
0000
0000
0011
0000
0000
0000
0000
0000
0100
0000
0000
0000
0000
0000
1000
0000
0000
0000
0000
0000
1000
0000
0000
0000
0000
0000
0010
0000
0000
0000
0000
0000
0100
0000
0000
0000
0000
0000
1001
0000
0100
0000
0010
0000
0001
0000
0100
0000
0010
0000
,
1001
0100
0010
0001
0100
0010
1000
0000
0000
1000
0000
0000
0120
0000
0000
0031
0000
0000
1000
0100
0010
0001
1000
0100
0011
0000
0000
0000
0000
0000
0100
0000
0000
0010
0000
0000
0100
0000
0000
0001
0000
0000
1000
0000
0000
0010
0000
0000
,
0200
0000
0000
0300
0000
0000
1000
0000
0010
0000
0100
0000
1000
0000
0010
0000
0001
0000
2000
0000
0000
0100
0000
0000
3021
0000
0000
0000
0000
0000
1032
0000
0000
0100
0000
0000
1023
0000
0000
0100
0000
0000
2031
0000
0000
0100
0000
0000
,
0012
0003
0002
0003
0002
0003
0002
0003
0012
0000
0003
0000
3020
1000
0230
1000
,
0311
0000
1200
0000
0320
0000
0030
0000
0020
0000
0130
0100
0012
1000
0013
0200
,
0302
0023
0230
2300
3020
2030
3002
0203
0302
0023
0230
0320
2030
3200
2300
3020
,
0230
2300
3200
0320
0230
0302
0003
0020
0230
0302
0023
0230
2300
3200
0302
0000
,
2000
3200
0320
0230
0320
0030
0020
0233
,
0300
0000
0200
0000
0320
0000
0030
0000
0020
0000
0030
0000
0002
0000
0003
1000
,
0100
0010
0001
0010
1000
0100
0010
0001
0100
0010
0000
0010
0100
0010
1000
0001
,
0010
0100
0001
0100
0010
0001
0000
0001
0010
0100
1000
1000
0100
1000
0002
0000
,
0200
0000
0000
0000
0000
0000
0000
0300
0200
0000
0000
0000
0000
0000
0000
0300
0200
0000
0000
0000
0000
0000
0000
0000
0320
0000
0000
0000
0000
0000
0000
0000
0230
0000
0000
0000
0000
0000
0000
0000
0300
0000
0000
0000
0000
0000
0000
0000
0020
0000
0000
0000
0000
0000
0000
0000
0233
0000
0000
0000
0000
0000
0000
0000
,
0300
0000
0200
0000
0320
0000
0030
0000
0020
0000
0030
0000
0010
0100
0010
0000
,
2002
3003
0000
0000
0010
0100
0010
0000
2002
3003
0000
0000
0010
0100
0010
0000
,
2002
3003
0000
0000
0010
0100
0010
0000
2002
3003
0000
0000
0010
0100
0010
0000
,
2002
3003
0000
0000
0010
0100
0010
0000
2002
3003
0000
0000
0010
0100
0010
0000
,
2002
3003
0000
0000
0010
0100
0010
0000
2002
3003
0000
0000
0010
0100
0010
0000
,
2002
0003
3200
0000
0302
0000
0203
0000
0320
0000
0030
0000
0200
0000
0300
0000
,
2000
3020
0230
0302
0023
0030
0200
0300
,
2000
3200
2300
3002
0023
0030
0200
0300
,
2000
0000
0000
0000
0000
0000
3200
0000
0000
0000
0000
0000
0320
0000
0000
0000
0000
0000
0032
0000
0000
0000
0000
0000
0023
0000
0000
0000
0000
0000
0030
0000
0000
0000
0000
0000
0200
0000
0000
0000
0000
0000
1300
0100
0010
0001
0100
0001
,
1000
0010
0100
0001
0010
0100
1000
0000
0000
0000
0000
0000
0010
0000
0000
0100
0000
0000
1000
0100
0010
0001
1000
0100
0022
0000
0000
0033
0000
0000
0000
0000
0000
0000
0000
0000
0010
0000
0000
0100
0000
0000
0010
0000
0000
0000
0000
0000
,
2002
0000
0000
3003
0000
0000
0010
0000
0100
0000
1000
0000
0100
0000
0010
1000
0001
0000
0100
0000
0000
0000
0000
0000
2002
0000
0000
3003
0000
0000
0000
0000
0000
0000
0000
0000
0010
0000
0000
0100
0000
0000
1000
0100
0010
0001
0100
0010
,
2000
0100
0010
3001
0100
0010
0001
0000
0000
0000
0000
0000
0010
0000
0000
0100
0000
0000
1000
0100
0010
0001
1000
0100
0022
0000
0000
0033
0000
0000
0000
0000
0000
0000
0000
0000
0010
0000
0000
0100
0000
0000
0010
0000
0010
0000
0010
0000
,
1010
0000
0000
0000
1000
0000
0000
0000
1000
0000
0000
0000
1011
0000
0000
0000
0101
0000
0000
0000
1001
0000
0000
0000
0101
0000
0000
0000
0110
0000
0000
0000
0101
0000
0000
0000
0110
0000
0000
0000
0010
0000
0000
0000
0010
0000
0000
0000
1010
0000
0000
0000
0010
0000
0000
0000
0010
0000
0000
0000
0001
0000
0000
0000
0000
0000
0001
0000
0000
0000
0000
0000
1000
0000
0000
0000
0000
0000
0100
0000
0000
0000
0000
0000
0010
0000
0000
1000
0000
0000
0010
0000
0000
1000
0000
0000
,
0010
0000
0100
0000
0000
0000
0000
0000
0001
0100
0001
0100
0001
0000
0010
0000
0000
0000
0000
0000
0010
0001
0010
0001
0010
0000
0100
0000
0000
0000
0000
0000
,
0010
0100
0010
0100
0010
0100
0010
0100
0010
0000
0100
0000
1000
0000
0010
0000
0100
0000
0010
0000
1000
0000
0100
0000
0010
0000
0100
0000
0010
1000
0010
1000
,
0010
0000
0100
0000
0000
0000
0000
0000
0001
0100
0001
0100
0001
0000
0010
0000
0000
0000
0000
0000
0010
0001
0010
0001
0010
0000
0100
0000
0000
0000
0000
0000
,
0010
0100
0010
0100
0010
0100
0010
0100
0010
0000
0100
0000
1000
0000
0010
0000
0100
0000
0010
0000
1000
0000
0100
0000
0010
0000
0100
0000
0010
1000
0010
1000
,
0010
0000
0100
0000
0000
0000
0000
0000
0001
0100
0001
0100
0001
0000
0010
0000
0000
0000
0000
0000
1000
0010
1000
0010
1000
0000
0100
0000
0000
0000
0000
0000
,
0010
0100
0010
0100
0010
0000
0001
0000
0010
0000
0100
0000
0010
1000
0010
1000
0010
0000
0100
0000
0000
0000
0000
0000
0001
0100
0001
0100
0001
0000
1000
0000
,
0000
0000
0000
0000
0010
0001
0010
0001
0010
0000
0100
0000
0000
0000
0000
0000
0010
0100
0010
0100
0010
0000
1000
0000
0000
0000
0000
0000
0010
1000
0010
1000
,
0010
0000
0100
0000
0000
0000
0000
0000
0001
0100
0001
0100
0001
1000
0011
1000
0001
1000
0001
1000
0110
1001
0110
1001
0110
1000
0110
1000
0100
1000
0100
1000
,
0011
0000
0000
1100
0000
0000
0011
0000
0000
1100
0000
0000
0011
0000
0000
1000
0000
0000
0101
0000
0000
1000
0000
0000
0001
0000
0000
1000
0000
0000
0001
0000
0000
1000
0000
0000
0010
0000
0000
1000
0000
0000
0010
0000
0000
1000
0000
0000
0010
0000
0000
1000
0000
0000
0010
0000
0000
1000
0000
0000
0100
0000
0000
1000
0000
0000
0100
0000
0000
0010
0000
0000
0001
0000
0000
0100
0000
0000
0010
0000
0000
0001
0010
0000
0100
0000
1000
0000
0001
0000
0010
0000
0100
0000
1000
0000
,
0001
0010
0100
1000
0001
0010
0100
1000
0001
0010
0100
1000
0022
0000
0000
0133
0000
0000
0001
0010
0100
1000
0100
0010
0001
0100
0001
1000
0010
0100
0001
0010
0000
0000
0000
0000
0000
0000
0000
0000
0100
0000
1000
0000
0100
0000
0010
0000
,
0001
0000
0000
0000
0000
0000
0000
0000
0000
0000
0001
0010
0001
0100
0010
0100
0010
1000
0100
1000
0100
1000
0200
0000
0000
0320
0000
0000
0000
0032
0000
0000
0000
0023
0000
0000
0000
0000
0230
0000
0000
0000
0320
0000
0000
0000
0032
0000
,
0000
0000
0000
0000
0003
0000
0010
0000
0000
0000
0000
0000
0001
0000
0000
1000
0000
0000
0001
0000
0000
0000
0000
0000
0010
0000
0000
0000
0000
0000
0100
0000
0000
0000
0000
0000
0001
0000
0000
0010
0000
0000
0100
0000
0000
0000
0000
0000
1000
0000
0000
0000
0000
0000
0010
0000
0000
0000
0000
0000
0002
0000
0000
0000
0000
0000
0000
0000
0000
0000
0000
0000
1003
0000
0000
0000
0000
0000
0100
0000
0000
0000
0000
0000
0010
0000
0000
0000
0000
0000
0001
0000
0000
0000
0000
0000
,
0000
0000
0000
0100
0000
0000
0000
0010
0000
0000
0000
0001
0000
0000
0000
0010
0000
0000
0000
0100
0000
0000
0000
1000
0000
0000
0000
0001
0000
0000
0000
0010
0000
0000
0000
0101
0000
0000
0000
0000
0000
1100
0000
0000
0000
0000
0000
0010
0000
0000
0000
0000
0000
0100
0000
0000
0000
0000
0000
0010
0000
0000
0000
0000
0000
0000
0000
0100
0000
0000
0000
0000
0000
0000
0000
0000
0010
0000
0000
0000
0000
0000
0000
0000
0000
0000
0000
0000
0000
0000
0000
0000
0000
1000
0000
0000
,
0100
0010
0001
1000
0100
0010
0001
1000
0100
0010
0001
1000
0100
0010
0001
0010
0100
1000
0001
0010
0100
1000
0001
0010
0100
1000
0001
0010
0100
1000
0010
0100
,
0010
0000
0100
0000
0010
0000
1000
0000
0001
0000
0010
0000
0100
0000
2000
0100
0000
0000
0010
0000
3000
0100
2000
0000
0011
0000
0000
0100
0001
0000
0010
0000
3001
0100
0000
0000
0011
0000
0000
0100
0000
0000
0001
0000
0000
0100
0000
0000
,
1000
0000
0000
0000
0000
0000
0100
0000
0010
0000
0001
0000
0001
0000
0001
0000
0001
1000
0001
0000
1000
0010
1000
0001
1000
0010
1000
0001
1000
0010
1000
0100
,
1000
0010
1200
0301
1020
0230
0300
0000
0020
0000
0000
0000
0000
0000
0000
0000
0230
0000
0000
0000
0000
0000
0000
0000
0300
0000
0000
0000
2000
0000
0000
0000
,
0000
0000
0000
0000
0000
0000
0010
0000
3000
0000
0100
0000
0000
0000
0001
0000
1000
0000
0001
0000
0000
1000
0000
0000
0001
0000
0000
1000
0000
0000
0001
0000
0000
1000
0000
0000
2001
0000
3000
1000
0200
0000
0301
0000
0020
1000
0030
0000
0002
0000
0003
0000
2000
0000
3000
0000
0200
0000
0300
0000
0020
0000
0030
0000
,
0002
0000
0000
0000
0000
0000
0003
0000
0000
0000
0000
0000
0000
0000
0000
0000
0000
0000
0000
0000
0000
0000
0000
0000
0000
0000
0000
0000
0000
0000
0000
0000
0000
0000
0000
0000
0000
0000
0000
0000
0000
0000
0000
0000
0000
0000
0000
0000
0001
0000
0000
0000
0000
0000
0000
0000
1000
0000
0000
0000
0000
0000
0000
0000
0001
0000
0000
0000
0000
0000
0000
0000
1000
0000
0000
0000
0000
0000
0000
0000
0001
0000
0000
0000
0000
0000
0000
0000
1000
0000
0000
0000
0000
0000
0000
0000
0001
0000
0000
0000
0000
0000
0000
0000
1000
0000
0000
0000
0000
0000
0000
0000
0001
0000
0000
0000
0000
0000
0000
0000
1000
0000
0000
0000
0000
0000
0000
0000
0001
0000
0000
0000
0000
0000
0000
0000
1000
0000
0000
0000
0000
0000
0000
0000
0001
0000
0000
0000
0000
0000
0000
0000
1000
0000
0000
0000
0000
0000
0000
0000
0001
0000
0000
0000
0000
0000
0000
0000
1000
0000
0000
0000
0000
0000
0100
0000
0000
0000
0000
0000
0000
0000
0000
0010
0000
0000
0000
0000
0000
0000
0000
0000
,
0001
0000
0000
0000
0000
0000
1000
0000
0000
0000
0000
0000
0000
0000
0100
0000
0000
0000
0000
0000
0000
0010
0000
0000
0000
0000
0000
0000
0000
0001
0000
0000
0000
0000
0000
0000
1000
0000
0000
0000
0000
0000
0000
0000
0000
0100
0000
0000
0000
0000
0000
0000
0010
0000
0000
0000
0000
0000
0000
0000
0001
0000
0000
0000
0000
0000
0000
0000
0000
0000
1000
0000
0000
0000
0000
0000
0000
0000
0000
0100
0000
0000
0000
0000
0000
0000
0000
0010
0000
0000
0000
0000
0000
0000
0001
0000
0000
0000
0000
0000
0000
0000
1000
0000
0000
0000
0000
0000
0000
0000
0000
0000
0000
0000
0000
0000
0000
0000
0000
0000
0000
0000
0000
0000
0000
0000
0000
0000
0000
0000
0000
0000
0000
0000
0000
0000
0000
0000
0000
0000
0000
0000
0000
0000
0010
0000
0000
0000
0000
0000
0000
0000
1000
0000
0000
0000
0000
0000
0000
0000
0010
0000
0000
0000
0000
0000
0000
0000
1000
0000
0000
0000
0000
0000
0000
0000
0010
0000
0000
0000
0000
0000
0000
0000
1000
0000
0000
0000
0000
0000
0000
0000
,
0010
1000
0010
1000
0010
1000
0001
1000
0001
1000
0001
1000
0001
1000
0001
1000
0001
1000
0100
1000
0100
1000
0000
0100
,
1000
0000
0100
0000
1000
0000
0000
0100
0000
1000
0000
0100
0010
0100
0010
0100
0010
0100
0010
0100
0010
0100
0010
0100
0020
0000
0000
2030
0000
0000
3020
0000
0000
2030
0000
0000
3002
0000
0000
2003
0000
0000
3020
0000
0000
0230
0000
0000
,
2300
0000
0000
0000
3200
0000
0000
0300
0200
0000
0000
0000
2300
0000
0000
0000
3020
0000
0000
0000
2030
0000
0000
0000
3200
0000
0000
0000
0320
0000
0000
0000
0230
0000
0000
0000
2300
0000
0000
0000
3000
0000
0000
0000
0000
0000
0000
0000
0000
0000
0000
0000
0000
0000
0000
0000
0000
0000
0000
0000
0000
0000
0000
0000
,
0000
0000
0000
0000
0000
0000
1000
0100
0010
0001
0100
0010
0002
0000
0023
0000
2030
0000
3200
0000
0320
0000
0230
0000
2300
0000
3200
0000
0320
0000
0230
0000
,
2300
3200
0320
0230
0300
0000
0000
0000
0000
0000
0000
0000
0000
0000
0000
0000
,
0010
0000
0100
0000
0010
0000
0100
0000
0001
0000
0100
0000
0001
0000
0100
0000
0010
0000
0001
0000
0010
0000
0001
0000
0010
0000
0000
0000
0010
0000
0000
0000
0100
0000
0010
0000
0000
0000
0100
0000
0010
0000
0000
0000
0100
0000
0010
0000
0000
0000
0000
1001
0000
0000
0000
0000
0000
0000
0000
0000
0000
0000
0000
0000
,
0000
0000
0000
0000
,
0000
0000
0000
0000
;
