#TITLE:Insect Digestion Melancholy;
#SUBTITLE:;
#ARTIST:Hrvatskil;
#TITLETRANSLIT:;
#SUBTITLETRANSLIT:;
#ARTISTTRANSLIT:;
#CREDIT:;
#BANNER:insect-bn.png;
#BACKGROUND:insect-bg.PNG;
#LYRICSPATH:;
#CDTITLE:!btitle.png;
#MUSIC:idm-edit.mp3;
#OFFSET:-0.061;
#SAMPLESTART:35.369;
#SAMPLELENGTH:12.000;
#SELECTABLE:YES;
#BPMS:0.000=169.640,216.000=42.410,217.000=169.640,229.000=42.410,230.000=169.640;
#STOPS:;
#BGCHANGES:;
// cache tags:
#FIRSTBEAT:0.000;
#LASTBEAT:364.000;
#SONGFILENAME:Songs/Fabulously Fresh Flock of Fantastic Files F5/(Bahamut X) Insect Digestion Melancholy/idm.sm;
#HASMUSIC:1;
#HASBANNER:1;
#MUSICLENGTH:135.340;
// end cache tags

//---------------dance-single - Copied from Copied f----------------
#NOTES:
     dance-single:
     Copied from Copied f:
     Hard:
     13:
     1.000,1.000,0.658,0.584,1.000,795.000,89.000,79.000,0.000,0.000:
2002
0000
3003
0000
,
0000
0000
0020
0000
,
0032
0000
0000
0023
0000
0000
0000
0000
,
0030
0000
0000
0000
,
0220
0000
0330
0000
,
0000
0000
0000
0000
2200
0000
0000
3300
,
2020
0000
3030
0000
,
0000
0000
0200
0000
,
0320
0000
0000
0001
0000
0000
1000
0000
,
0230
0000
0302
0000
,
0023
0000
0030
0000
,
2000
0000
0000
3000
0020
0000
0000
0000
,
0230
0000
0000
0001
0000
0000
1000
0000
,
0320
0000
2030
0000
,
3200
0000
0300
0000
,
0020
0000
0000
0030
2200
0000
3300
0000
,
0011
0000
0000
0001
0000
0000
0001
1000
0001
1000
0001
1000
0100
0000
0000
0001
0000
1000
0100
0000
0010
0001
0000
0010
,
0200
0000
0000
0000
0000
0000
0301
0000
0010
0100
0000
1000
0100
0000
0001
0100
0000
0000
0010
0001
0010
0100
1000
0100
,
0020
0000
0000
0000
0000
0230
0000
0000
0000
0000
2300
0000
0000
0000
0000
0000
,
3200
0000
0320
0000
,
0032
0000
0000
0203
0000
0000
2300
0000
,
3020
0000
0032
0000
,
0023
0000
0000
2030
0000
0000
3002
0000
,
1003
0000
0000
0000
0000
0000
0100
0000
0000
0000
0000
0000
0010
0000
0000
0000
0000
0000
0001
0000
0000
0000
0000
0000
1000
0000
0000
0000
0000
0000
0100
0000
0000
0000
0000
0000
0010
0000
0000
0000
0000
0000
0001
0000
0000
0000
0000
0000
1000
0000
0000
0000
0000
0000
0100
0000
0000
0000
0000
0000
0010
0000
0000
0000
0000
0000
0001
0000
0000
0000
0000
0000
0000
0000
0000
0000
0000
0000
0000
0000
0000
0000
0000
0000
0000
0000
0000
0000
1000
0000
0000
0000
0000
0000
0000
0000
0100
0000
0000
0000
0000
0000
0000
0000
0000
0000
0000
0000
0000
0000
0000
0000
1000
0000
0000
0000
0000
0000
0000
0000
0100
0000
0000
0000
0000
0000
0000
0000
0000
0000
0000
0000
0000
0000
0000
0000
1000
0000
0000
0000
0000
0000
0000
0000
0100
0000
0000
0000
0000
0000
0000
0000
0010
0000
0000
0000
0000
0000
0000
0000
0001
0000
0000
0000
0000
0000
0000
0000
1000
0000
0000
0000
0000
0000
0000
0000
0100
0000
0000
0000
0000
0000
0000
0000
0010
0000
0000
0000
0000
0000
0000
0000
,
0002
0000
0000
0023
0000
0000
0230
0000
,
2300
0000
3002
0000
,
0023
0000
0000
2030
0000
0000
3200
0000
,
0310
0000
0000
0000
0001
0000
0010
0000
0100
0000
0000
0000
1000
0000
0100
0000
0000
0000
0010
0000
0000
0000
0001
0000
0010
0000
0000
0100
0000
0000
1000
0000
0100
0000
0000
0000
0001
0000
0010
0000
0100
0000
1000
0000
0001
0000
0010
0000
,
0200
0000
2300
0000
,
3200
0000
0320
0000
,
0032
0000
0023
0000
,
0230
0000
0320
0000
,
0130
0000
0000
0000
1000
0000
0000
0000
0100
0000
0000
0000
0010
0000
0000
0000
0001
0000
0000
0000
0000
0000
0000
0000
0100
0000
0000
0000
0000
0000
0000
0000
0001
0000
0000
0000
0010
0000
0000
0000
0001
0000
0000
0000
0100
0000
0000
0000
0001
0000
0000
0000
0000
0000
0000
0000
0000
0000
0000
0010
0000
0000
0000
0000
,
0100
0000
1000
0000
0100
0000
0010
0000
0001
0010
0100
1000
0001
0000
0010
0000
0100
0000
1000
0000
0100
0000
0010
0000
0101
0000
0000
0000
0101
0000
0000
0000
,
1000
0100
0010
0001
1000
0100
1000
0001
0010
0100
1000
0010
0100
0001
0100
0010
,
1000
0100
0010
0001
0100
0001
0010
0100
0010
0100
1000
0010
0100
0001
1000
0100
,
1010
0000
0000
0000
0100
0010
0001
0010
1100
0000
0100
0000
1010
0000
0100
0000
,
1001
0000
0000
0000
0000
0000
0000
0000
0000
0000
0000
0000
0000
0000
0000
0000
0000
0000
0000
0000
0000
0000
0000
0000
0010
0000
0000
0000
0000
0000
0000
0000
0000
0000
0000
0000
0100
0000
0000
0000
0000
0000
0000
0000
0000
0000
0000
0000
0001
0000
0000
0000
0000
0000
0010
0000
0000
0000
0000
0000
0100
0000
0000
0000
0000
0000
1000
0000
0000
0000
0000
0000
0100
0000
0000
0000
0000
0000
0000
0000
0000
0000
0000
0000
0010
0000
0000
0000
0000
0000
0000
0000
0000
0000
0000
0000
0100
0000
0000
0000
0000
0000
0000
0000
0000
0000
0000
0000
1000
0000
0000
0000
0000
0000
0000
0000
0000
0000
0000
0000
0100
0000
0000
0000
0000
0000
0000
0000
0000
0000
0000
0000
0000
0000
0000
0000
0000
0000
0000
0000
0000
0000
0000
0000
1000
0000
0000
0000
0000
0000
0000
0000
0100
0000
0000
0000
0000
0000
0000
0000
0010
0000
0000
0000
0000
0000
0000
0000
0001
0000
0000
0000
0000
0000
0000
0000
0010
0000
0000
0000
0000
0000
0000
0000
0100
0000
0000
0000
0000
0000
0000
0000
,
1000
0000
0000
0001
0000
0000
0010
0000
0000
0001
0000
0000
0100
0000
0000
0000
0000
0000
0010
0000
0000
1000
0000
0000
0100
0000
0000
0010
0000
0000
0001
0000
0000
0100
0000
0000
0010
0000
0000
0000
0010
0000
0000
0000
0010
0000
0000
0000
,
1000
0100
0010
0000
0001
0010
0100
0000
0011
0100
0001
1000
0110
0000
0010
0000
,
0100
0000
0000
0100
0000
0000
1010
0000
0000
1010
0000
0000
0001
0010
0100
1000
0100
0010
0001
0000
0000
1000
0000
0000
,
0101
0000
1000
0100
0010
0100
1000
0000
0011
0000
1010
0000
1000
0100
1001
0000
,
0100
0100
0100
0100
0010
0001
0010
0100
1010
0000
1001
0000
0220
0000
0330
0000
,
0001
0000
0000
0010
0000
0000
0100
0000
0000
1000
0000
0000
0001
0000
0000
0010
0000
0000
0100
0000
0000
1000
0000
0000
0010
0000
0100
0000
0010
0000
0100
0000
0010
0000
0100
0000
0020
0000
0000
0000
0000
0000
0030
0000
0000
0000
0000
0000
,
0001
0000
0000
0000
0000
0000
0000
0000
0010
0000
0000
0000
0000
0000
0000
0100
0000
0000
0000
0000
0000
0000
1000
0000
0000
0000
0000
0000
0001
0000
0000
0000
,
0000
0000
0000
0000
0000
0000
0010
0000
0000
0000
0000
0000
0000
0000
0000
0000
0000
0000
0000
0000
0000
0000
0000
0000
0000
0000
0000
0000
0000
0000
0000
0000
0000
0000
0000
0000
0100
0000
0000
0000
0000
0000
0000
0000
0000
0000
0000
0000
0000
0000
0000
0000
0000
0000
0000
0000
0000
0000
0000
0000
1000
0000
0000
0000
0000
0000
0000
0000
0000
0000
0000
0000
0000
0000
0000
0000
0000
0000
0000
0000
0000
0000
0000
0000
0001
0000
0000
0000
0000
0000
0000
0000
0000
0000
0000
0000
0000
0000
0000
0000
0000
0000
0000
0000
0000
0000
0000
0000
0100
0000
0000
0000
0000
0000
0000
0000
0000
0000
0000
0000
0000
0000
0000
0000
0000
0000
0000
0000
1000
0000
0000
0000
0000
0000
0000
0000
0000
0000
0000
0000
0000
0000
0000
0000
0100
0000
0000
0000
0000
0000
0000
0000
0000
0000
0000
0000
0001
0000
0000
0000
0000
0000
0000
0000
0000
0000
0000
0000
0100
0000
0000
0000
0000
0000
0000
0000
0000
0000
0000
0000
0010
0000
0000
0000
0000
0000
0000
0000
0000
0000
0000
0000
,
0100
1000
0101
0010
0000
1010
0100
0000
2001
0000
0001
0000
0001
0000
0001
0000
,
3001
0010
0001
0100
0010
0000
1000
0100
1000
0010
1000
0000
0202
0000
0303
0000
,
1001
0000
0000
0000
0000
0000
0100
0000
0000
0000
0000
0000
1001
0000
0000
0000
0000
0000
0100
0000
0000
0000
0000
0000
0010
0000
0100
0000
0010
0000
0100
0000
0010
0000
0100
0000
0010
0000
0000
0100
0000
0000
0001
0000
0000
0010
0000
0000
,
0101
0000
0000
0010
0000
0000
1100
0000
0000
1010
0000
0000
1100
0000
0000
0100
0000
0000
0011
0000
0011
0000
0011
0000
,
1001
0000
0000
0000
0000
1010
0000
0000
0000
0000
0110
0000
0000
0000
0000
0000
,
2001
3000
0000
0000
0000
0000
0000
0000
2000
3000
0000
0000
2000
3000
0000
0000
0000
0000
0000
0000
2000
3000
0000
0000
0000
0000
0000
0000
2000
3000
0000
0000
,
0001
0000
0010
0000
0100
0000
1000
0000
0001
0000
0100
0000
0010
0000
1000
0000
0001
0000
0010
0000
0100
0000
1000
0000
0001
0010
0100
1000
0000
0000
0000
0000
0000
0000
0000
0000
2020
0000
0000
0000
0000
0000
3030
0000
0000
0000
0000
0000
,
0110
0000
0110
0000
0110
0000
0110
0000
0000
0000
0000
0000
0001
0000
0000
0010
0000
0000
0100
0000
0000
0000
0000
0000
,
2100
0000
0000
0010
0000
0000
0001
0000
3100
0000
0000
0000
0020
0000
0000
0000
0030
0000
0000
0000
0100
0000
0000
0000
0020
0000
0000
0000
0030
0000
0000
0000
,
1000
0000
0100
0000
0010
0000
0001
0000
1000
0000
0100
0000
0010
0000
0000
0000
0000
0000
1001
0000
0000
0000
0000
0000
0110
0000
0000
0000
0000
0000
0001
0000
0000
0010
0000
0000
0101
0000
0000
0000
0000
0000
0110
0000
0000
0000
0000
0000
,
1000
0100
0001
0000
0200
0000
0000
0000
0000
0000
0010
0000
0000
0010
0000
0000
,
0010
0000
0000
0000
0000
0000
0000
0000
0000
0000
0000
0000
0000
0000
0000
0000
0000
0000
0000
0000
0000
0000
0000
0000
0310
0000
0000
0000
0000
0000
0000
0000
0000
0000
0000
0000
0000
0000
0000
0000
0000
0000
0000
0000
0000
0000
0000
0000
0020
0000
0000
0000
0000
0000
0000
0000
0000
0000
0000
0000
0000
0000
0000
0000
0000
0000
2030
0000
0000
0000
0000
0000
0000
0000
0000
0000
0000
0000
0000
0000
0000
0000
0000
0000
3002
0000
0000
0000
0000
0000
0000
0000
0000
0000
0000
0000
0103
0000
0000
0000
0000
0000
0000
0000
0000
0000
0000
0000
0000
0000
0000
0000
0010
0000
0000
0000
0000
0000
0000
0000
0000
0000
0000
0000
0000
0000
0000
0000
0000
0000
0000
0000
0000
0000
0000
0000
0000
0000
0000
0000
0000
0000
0000
0000
1000
0000
0000
0000
0000
0000
0000
0000
0000
0000
0000
0000
0000
0000
0000
0000
0100
0000
0000
0000
0000
0000
0000
0000
0000
0000
0000
0000
0000
0000
0000
0000
0000
0000
0000
0000
0000
0000
0000
0000
0000
0000
0000
0000
0000
0000
0000
0000
,
0100
0000
0000
0000
0000
0000
0000
0000
0000
0000
0000
0000
0000
0000
0000
0000
1000
0000
0000
0000
0000
0000
0000
0000
0000
0000
0000
0000
0000
0000
0000
0000
0000
0000
0000
0000
0000
0000
0000
0000
0000
0000
0000
0000
0000
0000
0000
0000
0001
0000
0000
0000
0000
0000
0000
0000
0000
0000
0000
0000
0000
0000
0000
0000
0010
0000
0000
0000
0000
0000
0000
0000
0000
0000
0000
0000
0000
0000
0000
0000
0000
0000
0000
0000
0000
0000
0000
0000
0000
0000
0000
0000
0000
0000
0000
0000
1001
0000
0000
0000
0000
0000
0000
0000
0000
0000
0000
0000
0000
0000
0000
0000
0000
0000
0000
0000
0000
0000
0000
0000
0000
0000
0000
0000
0000
0000
0000
0000
0000
0000
0000
0000
0000
0000
0000
0000
0000
0000
0000
0000
0000
0000
0000
0000
0001
0000
0000
0000
0000
0000
0100
0000
0000
0000
0000
0000
0000
0000
0000
0000
0000
0000
0000
0000
0000
0000
0000
0000
0000
0000
0000
0000
0000
0000
0000
0000
0000
0000
0000
0000
0000
0000
0000
0000
0000
0000
0000
0000
0000
0000
0000
0000
,
1001
0000
0000
0000
0000
0000
0000
0000
0000
0000
0000
0000
0000
0000
0000
0000
0000
0000
0000
0000
0000
0000
0000
0000
0000
0000
0000
0000
0000
0000
0000
0000
0000
0000
0000
0000
0000
0000
0000
0000
0000
0000
0000
0000
0000
0000
0000
0000
1000
0000
0000
0000
0000
0000
0001
0000
0000
0000
0000
0000
0000
0000
0000
0000
0000
0000
0000
0000
0000
0000
0000
0000
0000
0000
0000
0000
0000
0000
0000
0000
0000
0000
0000
0000
0000
0000
0000
0000
0000
0000
0000
0000
0000
0000
0000
0000
0001
0000
0000
0000
0000
0000
0000
0000
0000
0000
0000
0000
0000
0000
0000
0000
0010
0000
0000
0000
0000
0000
0000
0000
0000
0000
0000
0000
0000
0000
0000
0000
0000
0000
0000
0000
0000
0000
0000
0000
0000
0000
0000
0000
0000
0000
0000
0000
0100
0000
0000
0000
0000
0000
0000
0000
0000
0000
0000
0000
0000
0000
0000
0000
1000
0000
0000
0000
0000
0000
0000
0000
0000
0000
0000
0000
0000
0000
0000
0000
0000
0000
0000
0000
0000
0000
0000
0000
0000
0000
0000
0000
0000
0000
0000
0000
,
1000
0000
0100
0000
0000
0000
0001
0000
1000
0000
0000
0000
0011
0000
0000
1100
0000
0000
1010
0000
0000
0100
1000
0100
,
0010
0010
0010
0010
1001
0100
0101
0010
,
1100
0000
0010
0000
1100
0001
0100
0000
1001
0000
0000
0000
1001
0000
0000
0000
,
0110
0000
0000
0000
0011
0000
0000
0100
,
1010
0000
0000
0000
0001
0010
0001
0000
1000
0100
1001
0000
1001
0000
0000
0000
,
0100
0000
0010
0000
0001
0000
1000
0000
0100
0000
0010
0000
0001
0000
1000
0000
0100
0000
0010
0000
0001
0000
1000
0000
0010
0000
0000
0100
0000
0000
1000
0000
0000
0100
0000
0000
0010
0000
0000
0000
0000
0000
1000
0000
0000
0100
0000
0000
,
0001
0100
1000
0000
0010
0100
0000
0000
0011
0000
0000
0000
0011
0000
0000
0000
,
1001
0000
0100
0000
2020
0000
3030
0000
0001
0001
0100
0000
0000
0000
0001
0001
,
0100
0000
0000
0000
0000
0000
0000
0000
0100
0000
0000
0000
0000
0000
0000
0000
0100
0000
0000
0000
0000
0000
0000
0000
1000
0000
0000
0000
0000
0000
0001
0000
0000
0000
0000
0000
0000
0000
0000
0220
0000
0000
0330
0000
0000
0000
0000
0000
,
0001
0000
0000
0001
0000
0000
1000
0000
0000
1000
0000
0000
0001
0000
0000
0000
0000
0000
0000
0000
0000
0000
0000
0000
0010
0000
0000
0000
0100
0000
0000
0000
0001
0000
0000
0000
1000
0000
0000
0000
0000
0000
0000
0000
0000
0000
0000
0000
,
0010
0010
0010
0010
0110
0000
0000
0000
1100
0000
1010
0000
1001
0000
0000
0000
,
0001
0000
0000
1000
0000
0000
0100
0000
0000
0010
0000
0000
0100
0000
0000
1000
0000
0000
0100
0000
0000
0010
0000
0000
0001
0000
0000
0000
0000
0000
0001
0000
0010
0000
0100
0000
1000
0000
0000
0000
0000
0000
1000
0000
0000
0000
0000
0000
,
0110
0000
0000
0101
0000
0000
1000
0000
0100
0000
0010
0000
0001
0000
0000
0110
0000
0000
1001
0000
0000
1010
0000
0000
,
0001
0010
0100
1000
0101
0000
0000
0000
0100
0010
1000
0010
0001
0100
0000
0000
,
0010
0100
0010
0100
0000
0000
1001
0000
0000
1001
0000
0000
0110
0000
0000
0000
0000
0000
0110
0000
0000
0000
0000
0000
,
0001
0000
0000
0000
0000
0000
0000
0000
0010
0000
0000
0000
0000
0000
0000
0000
0100
0000
0000
0000
0000
0000
0000
0000
1000
0000
0000
0000
0000
0000
0000
0000
0100
0000
0000
0000
0000
0000
0000
0000
0010
0000
0000
0000
0000
0000
0000
0000
0001
0000
0000
0000
0000
0000
0000
0000
0010
0000
0000
0000
0000
0000
0000
0000
0100
0000
0000
0000
0000
0000
0000
0000
1000
0000
0000
0000
0000
0000
0000
0000
0100
0000
0000
0000
0000
0000
0000
0000
0010
0000
0000
0000
0000
0000
0000
0000
0001
0000
0000
0000
0000
0000
0000
0000
0010
0000
0000
0000
0000
0000
0000
0000
0100
0000
0000
0000
0000
0000
0000
0000
1000
0000
0000
0000
0000
0000
0000
0000
0100
0000
0000
0000
0000
0000
0000
0000
0010
0000
0000
0000
0000
0000
0000
0000
0001
0000
0000
0000
0000
0000
0000
0000
0000
0000
0000
0000
0000
0000
0000
0000
0000
0000
0010
0000
0000
0000
0000
0000
0000
0000
0000
0000
0000
0000
0000
0000
0000
0000
0000
0000
0100
0000
0000
0000
0000
0000
0000
0000
0000
0000
0000
0000
,
0000
1000
0000
0000
0100
0000
0000
0000
0000
0000
0000
0000
0000
0000
0000
0000
1100
0000
0000
0000
0000
0000
0000
0000
0110
0000
0000
0000
0000
0000
0000
0000
,
0011
0000
0000
0000
0000
0000
0100
0000
0000
1001
0000
0000
1000
0000
0000
0000
1000
0000
0000
0000
1000
0000
0000
0000
,
1000
0000
0000
0000
0000
0000
0000
0000
1000
0000
0000
0000
0000
0000
0000
0000
1000
0000
0000
0000
0000
0000
0000
0000
0001
0000
0000
0010
0000
0000
0001
0000
0000
1000
0000
0000
0100
0000
0000
0010
0000
0000
0001
0000
0000
0010
0000
0000
,
0100
1000
0001
0010
1000
0010
0001
1000
0001
0010
0001
1000
0100
0001
0100
1000
,
0010
0100
0001
0100
0010
1000
0100
0010
0001
0010
0100
1000
0001
0010
0100
0010
,
1000
0001
1000
0010
1000
0100
1000
0001
0010
0100
1000
0100
0010
0001
1000
0100
,
1000
0001
0100
0001
0100
0010
1000
0100
0001
0100
1000
0001
1000
0001
0010
1000
,
0010
0100
1000
0100
0010
0001
0010
0100
0010
0001
0100
1000
0010
1000
0001
0010
,
0001
0010
0001
1000
0100
0010
0001
0010
0100
1000
0010
0100
0010
0100
0001
0010
,
0001
0100
0001
0010
0100
1000
0001
1000
0100
0010
0001
1000
0001
0010
0100
0010
,
1000
0100
0001
0100
1000
0010
0100
0001
0100
0010
1000
0010
0100
0001
0010
0100
,
1000
0001
1000
0001
0010
0100
1000
0100
0010
0100
1000
0001
0010
1000
0010
0100
,
0001
0010
0001
1000
0100
0010
0001
0010
0100
1000
0001
0010
1000
0010
0001
1000
,
0001
0010
0001
1000
0100
0001
0100
1000
0010
0100
0001
0100
0010
1000
0100
0010
,
0001
1000
0100
0010
0100
1000
0010
0100
0001
1000
0100
0010
0001
0010
0100
1000
,
0100
0000
0000
0000
;
