#TITLE:Quickening;
#SUBTITLE:;
#ARTIST:Dj Taka;
#TITLETRANSLIT:;
#SUBTITLETRANSLIT:;
#ARTISTTRANSLIT:;
#CREDIT:;
#BANNER:Quickening.png;
#BACKGROUND:Quickening-BG.png;
#LYRICSPATH:;
#CDTITLE:SCK Title.png;
#MUSIC:Quickening.mp3;
#OFFSET:-0.720;
#SAMPLESTART:40.000;
#SAMPLELENGTH:12.000;
#SELECTABLE:YES;
#BPMS:0.000=112.500,24.000=150.000,40.000=300.000,42.000=150.000,57.000=300.000,60.000=150.000,90.500=225.000,140.000=300.000,202.000=75.000,208.000=150.000,240.000=75.000,241.750=225.000,290.875=75.000,296.250=50.000,297.500=100.000;
#STOPS:;
#BGCHANGES:;
// cache tags:
#FIRSTBEAT:0.000;
#LASTBEAT:298.000;
#SONGFILENAME:Songs/Ace Megapack/Quickening/Quickening.sm;
#HASMUSIC:1;
#HASBANNER:1;
#MUSICLENGTH:103.810;
// end cache tags

//---------------dance-single - MANIAC----------------
#NOTES:
     dance-single:
     MANIAC:
     Hard:
     10:
     0.954,1.000,0.800,0.222,1.000,587.000,83.000,23.000,0.000,0.000:
0110
0000
0000
1001
0000
0000
0110
0000
0000
1001
0000
0000
0110
0000
0000
1001
,
0000
0000
0020
0000
0000
0000
0000
0000
0000
0000
0100
0000
0030
0000
0000
0000
1000
0000
0000
0000
0000
0000
0000
0000
0000
0000
0000
0000
0002
0000
0000
0000
0000
0000
0100
0000
0000
0003
0000
0000
1000
0000
0000
0000
0000
0000
0000
0000
0000
0000
0100
0000
0000
0000
0000
0000
0010
0000
0000
0000
0000
0000
0000
0000
,
0001
0000
0000
0000
0000
0000
0000
0000
0000
0000
0010
0000
0000
0000
0000
0000
1001
0000
0000
0000
0000
0000
0000
0000
0000
0000
0000
0000
0200
0000
0000
0000
0000
0000
0010
0000
0300
0000
0000
0000
0000
0000
1000
0000
0000
0000
0000
0000
0002
0000
0000
0000
0000
0000
0000
0000
0000
0000
0000
0000
0100
0003
0000
0000
,
0000
0000
1000
0000
0000
0000
0000
0000
0011
0000
0000
0000
0000
0000
0000
0000
0000
0000
1000
0000
0000
0000
0000
0000
0001
0000
0000
0000
0000
0000
0000
0000
0100
0000
0000
0000
0000
0000
0000
0000
0000
0000
0001
0000
0000
0000
0000
0000
1001
0000
0000
0000
0000
0000
1000
0000
0000
0100
0000
0000
0000
0000
0000
1000
,
0000
0000
0100
0000
0000
0000
0000
0000
0010
0000
0000
0000
0000
0000
0001
0000
0000
0100
0000
0000
0000
0000
0000
0001
0000
0000
0100
0000
0000
0000
0000
0000
0000
0000
0000
1000
0000
0000
0000
0000
0000
0100
0000
0000
0010
0000
0000
0000
0000
0000
0100
0000
0000
0010
0000
0000
0000
0000
0000
0001
0000
0000
1000
0000
,
0000
0100
0000
0000
0000
0000
0000
0000
0000
0000
0100
0000
0000
0001
0000
0000
1000
0000
0000
0100
0000
0000
0010
0000
0000
0001
0000
0000
0100
0000
0000
0010
0000
0000
1000
0000
0000
0100
0000
0000
0010
0000
0000
0100
0000
0000
1000
0000
0000
0010
0000
0000
0100
0000
0000
0010
0000
0000
1000
0000
0000
0100
0000
0000
,
1001
0000
0000
0000
0000
1001
0000
0000
0010
0000
0000
0100
0000
0000
0010
0000
,
1000
0000
0000
0010
0000
0000
0001
0000
0010
0000
0000
0100
0000
0000
1000
0000
,
0010
0000
0000
1001
0000
0000
0100
0000
0011
0000
0000
0100
0000
0000
1010
0000
,
0001
0000
0000
0110
0000
0000
0100
0000
1001
0000
0000
0010
0100
0000
1001
0000
,
2002
0000
0000
0000
0000
0000
0000
0000
3003
0000
0000
0110
0000
1000
0000
0001
,
0000
0000
0010
0000
0101
0000
0000
0101
0000
0000
0101
0000
1010
0000
0000
0000
,
1000
0000
0100
0000
0011
0000
0000
0011
0000
0000
0011
0000
1100
0000
0000
0100
,
0001
0000
1000
0000
0100
0000
0010
0000
0001
0000
0100
0000
0001
1000
0001
1000
,
0001
1000
0001
1000
0220
0000
0000
0000
0000
0000
0000
0000
0000
0000
0000
0000
,
0330
0001
0000
0001
1000
0100
1000
0100
0000
0100
0000
1000
0100
0010
0100
0010
,
0000
0010
0000
0010
0100
0001
0100
0001
0000
0001
0000
0001
1000
0100
1000
0100
,
0000
0100
0000
0100
0010
1000
0010
1000
0000
1000
0000
0010
1000
0001
1000
0001
,
0000
0001
0000
0001
1000
0100
1000
0100
0000
0100
0000
0100
0010
1000
0010
1000
,
0000
0101
0000
1000
0001
0010
0001
0010
0000
1100
0000
0001
0010
0100
0010
0100
,
0000
0011
0000
0100
0010
1000
0010
1000
0000
0101
0000
1000
0001
0010
0001
0010
,
0000
1001
0000
0010
0100
0001
0100
0001
0000
1010
0000
0100
0001
1000
0001
1000
,
0000
0110
0000
1000
0001
0010
0001
0010
0100
1000
2002
0000
0000
0000
0000
0000
,
0000
0000
0000
3003
0000
0000
0000
0000
0000
0000
0000
0000
0000
0000
0000
0100
0000
0000
0010
0000
0000
0100
0000
0000
0000
0000
0000
1000
0000
0000
0100
0000
,
0000
1000
0000
0000
0000
0000
0000
0010
0000
0000
0100
0000
0000
0010
0000
0000
0000
0000
0000
0100
0000
0000
0001
0000
0000
0100
0000
0000
0000
0000
0000
0001
,
0000
0000
0010
0000
0000
0001
0000
0000
0000
0000
0000
0010
0000
0000
0001
0000
0000
0010
0000
0000
0000
0000
0000
0100
0000
0000
1000
0000
0000
0100
0000
0000
,
0000
0000
0000
1000
0000
0000
0010
0000
0000
0100
0000
0000
0000
0000
0000
0100
0000
0000
1000
0000
0000
0010
0000
0000
0000
0000
0000
0010
0000
0000
0001
0000
,
0000
1000
0000
0000
0000
0000
0000
1000
0000
0000
0001
0000
0000
0010
0000
0000
0000
0000
0000
0010
0000
0000
0100
0000
0000
1000
0000
0000
0000
0000
0000
1000
,
0000
0000
0100
0000
0000
0010
0000
0000
0000
0000
0000
0010
0000
0000
0001
0000
0000
0100
0000
0000
0000
0000
0000
0100
0000
0000
1000
0000
0000
0010
0000
0000
,
0000
0000
0000
0010
0000
0000
0100
0000
0000
0010
0000
0000
0000
0000
0000
0010
0000
0000
0001
0000
0000
0100
0000
0000
0000
0000
0000
0100
0000
0000
1000
0000
,
0000
0001
0000
0000
0000
0000
0000
0001
0000
0000
1000
0000
0000
0100
0000
0000
0000
0000
0000
0100
0000
0000
0010
0000
0000
0001
0000
0000
0000
0000
0000
0001
,
0000
0000
0010
0000
0000
0100
0000
0000
0000
0000
0000
0100
0000
0000
1000
0000
0000
0010
0000
0000
0000
0000
0000
0010
0000
0000
0001
0000
0000
0100
0000
0000
,
0000
0000
0000
0100
0000
0000
1000
0000
0000
0001
0000
0000
0000
0000
0000
1001
0000
0000
0000
0000
0000
0110
0000
0000
0000
0000
0000
1001
0000
0000
0000
0000
,
0000
0000
0000
0000
0010
0000
0000
0001
0000
0000
0100
0000
0000
0010
0000
0000
1000
0000
0000
0100
0000
0000
0010
0000
0000
0001
0000
0000
0100
0000
0000
0010
,
0000
0000
0100
0000
0000
0001
0000
0000
0100
0000
0000
0010
0000
0000
1001
0000
0000
0000
0000
0000
0220
0000
0000
0000
0000
0000
0000
0000
0000
0000
0330
0000
,
0000
0101
0000
0000
1000
0010
0100
0001
,
1000
0000
0010
0000
0100
0000
0001
0000
1000
0000
0000
0000
0011
0000
0000
0110
,
0000
1100
0000
0000
0001
0010
0100
1000
,
0001
0000
0010
0000
0100
0000
1000
0000
0100
0000
0000
0000
1010
0000
0000
0110
,
0000
1001
0000
0000
0001
0100
0010
1000
,
0100
0010
0001
1000
0100
0000
1001
1001
,
0000
0110
0000
0000
1000
0100
0010
0001
,
0100
0000
0010
0000
1000
0000
0100
0000
1000
0000
0000
0000
0101
0000
0000
0110
,
0000
1001
0000
0000
0100
0010
1000
0001
,
0100
0000
0010
0000
1000
0000
0001
0000
0100
0000
0000
0000
0011
0000
0000
1001
,
0000
1100
0000
0000
0010
0001
0100
0010
,
1000
0000
0100
0000
0010
0000
0001
0000
0100
0000
0000
0000
0110
0000
0000
1001
,
0000
0101
0000
0000
0100
1000
0010
0100
,
0001
0010
0100
1000
0100
0000
1100
1100
,
0000
0110
0000
0000
1000
0001
0010
0100
,
0010
0000
0001
0000
0100
0000
0010
0000
2001
0000
0000
0000
0000
0000
0001
0100
,
0000
0000
0000
0000
0000
0000
0000
0000
0000
0000
0000
0000
0000
0000
0000
0000
0000
0000
0100
0000
0000
0010
0000
0000
0010
0000
0001
0000
0000
0001
0000
0000
,
3100
0001
1000
0011
1000
0010
0100
1001
,
0010
0100
0001
0101
1000
0010
1000
0110
,
0001
0000
0010
0000
0100
0000
1010
0000
0100
0001
0100
0000
0001
0010
0001
0000
,
0100
0010
0100
0000
1000
0100
1000
0000
0100
1000
0100
0000
0010
0100
0010
0000
,
1000
0001
1000
0000
0200
0000
0301
0000
1000
0100
1000
0000
0200
0000
0310
0000
,
0100
0001
0100
0000
0020
0000
1030
0000
0001
1000
0001
0000
0200
0000
0310
0000
,
0001
0010
0001
0000
2000
0000
3100
0000
0010
1000
0010
0000
0200
0000
0301
0000
,
1000
0100
1000
0000
0002
0000
0013
0000
0100
0010
0100
0000
2000
0000
3001
0000
,
1000
0100
0000
0000
1000
0000
0010
0000
0100
0000
0001
0000
1000
0000
0100
0000
0000
0000
0000
0000
0000
0000
0000
0001
0000
0000
0100
0000
0000
1010
0000
0000
,
0000
0000
0000
0001
0000
0000
0000
0000
0000
0100
0000
0000
0000
0000
0000
0010
0000
0000
1000
0000
0000
0001
0000
0000
0100
0000
0000
0010
0000
0000
0000
0000
,
0000
0101
0000
0000
0000
0000
0000
0010
0000
0000
0000
0000
0000
1000
0000
0000
0000
0000
0000
0100
0000
0000
0000
0000
0000
0001
0000
0000
0010
0000
0000
0001
,
0000
0000
0000
0000
0000
1000
0000
0000
0000
0000
0000
0010
0000
0000
0000
0000
0000
0100
0000
0000
0001
0000
0000
0100
0000
0000
0000
0000
0000
0001
0000
0000
,
0100
0000
0000
0001
0000
0000
0000
0000
0000
1010
0000
0000
0000
0000
0000
0001
0000
0000
0010
0000
0000
0100
0000
0000
1000
0000
0000
0001
0000
0000
0000
0000
,
0000
1000
0000
0000
0000
0000
0000
0001
0000
0000
0000
0000
0000
0010
0000
0000
0000
0000
0000
1000
0000
0000
0000
0000
0000
0100
0000
0000
0001
0000
0000
0100
,
0000
0000
0000
0000
0000
0010
0000
0000
0000
0000
0000
0001
0000
0000
0000
0000
0000
1000
0000
0000
0100
0000
0000
1000
0000
0000
0000
0000
0000
0100
0000
0000
,
1000
0000
0000
0100
0000
0000
0000
0000
0000
0011
0000
0000
0000
0000
0000
0100
0000
0000
0001
0000
0000
1000
0000
0000
0010
0000
0000
0100
0000
0000
0000
0000
,
0000
0010
0000
0000
0000
0000
0000
0100
0000
0000
0000
0000
0000
0001
0000
0000
0000
0000
0000
0010
0000
0000
0000
0000
0000
0001
0000
0000
1000
0000
0000
0000
,
0000
0000
0000
0000
0000
1000
0000
0000
0100
0000
0000
0000
0000
0000
0000
0000
0000
0100
0000
0000
0010
0000
0000
0000
0000
0000
0000
0000
0000
0010
0000
0000
,
0001
0000
0000
0000
0000
0000
0000
0000
0000
0001
0000
0000
0100
0000
0000
0000
0000
0000
0000
0000
0000
0100
0000
0000
1000
0000
0000
0000
0000
0000
0000
0000
,
0000
1000
0000
0000
0100
0000
0000
0000
0000
0000
0000
0000
0000
0100
0000
0000
0010
0000
0000
0000
0000
0000
0000
0000
0000
0010
0000
0000
0001
0000
0000
0000
,
0000
0000
1000
0000
0000
0001
0000
0000
1000
0000
0000
0001
0000
0000
1000
0000
0000
0001
0000
0000
1000
0000
0000
0110
0000
0000
0101
0000
0000
1001
0000
0000
,
0100
0000
0000
0010
0000
0000
0011
0000
0100
0000
0000
1100
0000
0000
0001
0000
1000
0000
0000
1001
0000
0000
0101
0000
1000
0000
0000
0011
0000
0000
0101
0000
,
2002
3003
0000
0000
;

//---------------dance-single - Challenge----------------
#NOTES:
     dance-single:
     Challenge:
     Challenge:
     9:
     0.877,1.000,0.617,0.154,1.000,557.000,64.000,16.000,0.000,0.000:
1001
0000
0000
1001
0000
0000
1001
0000
0000
1001
0000
0000
1001
0000
0000
1001
,
0000
0000
0200
0000
0000
0000
0000
0000
0000
0000
0010
0000
0300
0000
0000
0000
0001
0000
0000
0000
0000
0000
0000
0000
0000
0000
0000
0000
2000
0000
0000
0000
0000
0000
0010
0000
0000
3000
0000
0000
0001
0000
0000
0000
0000
0000
0000
0000
0000
0000
0010
0000
0000
0000
0000
0000
0100
0000
0000
0000
0000
0000
0000
0000
,
1000
0000
0000
0000
0000
0000
0000
0000
0000
0000
0100
0000
0000
0000
0000
0000
1001
0000
0000
0000
0000
0000
0000
0000
0000
0000
0000
0000
0020
0000
0000
0000
0000
0000
0100
0000
0030
0000
0000
0000
0000
0000
0001
0000
0000
0000
0000
0000
2000
0000
0000
0000
0000
0000
0000
0000
0000
0000
0000
0000
0010
3000
0000
0000
,
0000
0000
0001
0000
0000
0000
0000
0000
1100
0000
0000
0000
0000
0000
0000
0000
0000
0000
0001
0000
0000
0000
0000
0000
1000
0000
0000
0000
0000
0000
0000
0000
0010
0000
0000
0000
0000
0000
0000
0000
0000
0000
1000
0000
0000
0000
0000
0000
1001
0000
0000
0000
0000
0000
0001
0000
0000
0010
0000
0000
0000
0000
0000
0001
,
0000
0000
0010
0000
0000
0000
0000
0000
0100
0000
0000
0000
0000
0000
1000
0000
0000
0010
0000
0000
0000
0000
0000
1000
0000
0000
0010
0000
0000
0000
0000
0000
0000
0000
0000
0001
0000
0000
0000
0000
0000
0010
0000
0000
0100
0000
0000
0000
0000
0000
0010
0000
0000
0100
0000
0000
0000
0000
0000
1000
0000
0000
0001
0000
,
0000
0010
0000
0000
0000
0000
0000
0000
0000
0000
0010
0000
0000
1000
0000
0000
0001
0000
0000
0010
0000
0000
0100
0000
0000
1000
0000
0000
0010
0000
0000
0100
0000
0000
0001
0000
0000
0010
0000
0000
0100
0000
0000
0010
0000
0000
0001
0000
0000
0100
0000
0000
0010
0000
0000
0100
0000
0000
0001
0000
0000
0010
0000
0000
,
1100
0000
0000
0000
0000
0001
0000
0000
0010
0000
0000
0100
0000
0000
0010
0000
,
1000
0000
0000
0010
0000
0000
0001
0000
0010
0000
0000
0100
0000
0000
1000
0000
,
0010
0000
0000
0001
0000
0000
0100
0000
0001
0000
0000
0100
0000
0000
1000
0000
,
0001
0000
0000
0010
0000
0000
0100
0000
1000
0000
0000
0010
0100
0000
1001
0000
,
2002
0000
0000
0000
0000
0000
0000
0000
3003
0000
0000
0110
0000
1000
0000
0001
,
0000
0000
0010
0000
0100
0000
0000
0001
0000
0000
0100
0000
1010
0000
0000
0000
,
1000
0000
0100
0000
0010
0000
0000
0001
0000
0000
0010
0000
1100
0000
0000
0100
,
0001
0000
1000
0000
0100
0000
0010
0000
0001
0000
0100
0000
0001
0100
0010
1000
,
0100
0010
0001
1000
0220
0000
0000
0000
0000
0000
0000
0000
0000
0000
0000
0000
,
0330
1000
0000
0001
1000
0000
1000
0100
0000
0001
0000
1000
0100
0000
0100
0010
,
0000
1000
0000
0010
0100
0000
0100
0001
0000
0010
0000
0001
1000
0000
1000
0100
,
0000
1000
0000
0100
0010
0000
0010
1000
0000
0100
0000
0010
1000
0000
1000
0001
,
0000
0100
0000
0001
1000
0000
1000
0100
0000
0001
0000
0100
0010
0000
0010
1000
,
0000
0101
0000
1000
0001
0000
0001
0010
0000
1100
0000
0001
0010
0000
0010
0100
,
0000
0011
0000
0100
0010
0000
0010
1000
0000
0101
0000
1000
0001
0000
0001
0010
,
0000
1001
0000
0010
0100
0000
0100
0001
0000
1010
0000
0100
0001
0000
0001
1000
,
0000
0110
0000
1000
0001
0000
0001
0010
0100
1000
2002
0000
0000
0000
0000
0000
,
0000
0000
0000
3003
0000
0000
0000
0000
0000
0000
0000
0000
0000
0000
0000
0100
0000
0000
0010
0000
0000
0000
0000
0000
0000
0000
0000
1000
0000
0000
0100
0000
,
0000
0000
0000
0000
0000
0000
0000
0010
0000
0000
0100
0000
0000
0000
0000
0000
0000
0000
0000
0100
0000
0000
0001
0000
0000
0000
0000
0000
0000
0000
0000
0001
,
0000
0000
0010
0000
0000
0000
0000
0000
0000
0000
0000
0010
0000
0000
0001
0000
0000
0000
0000
0000
0000
0000
0000
0100
0000
0000
1000
0000
0000
0000
0000
0000
,
0000
0000
0000
1000
0000
0000
0010
0000
0000
1000
0000
0000
0000
0000
0000
0100
0000
0000
1000
0000
0000
0100
0000
0000
0000
0000
0000
0010
0000
0000
0001
0000
,
0000
0010
0000
0000
0000
0000
0000
1000
0000
0000
0001
0000
0000
1000
0000
0000
0000
0000
0000
0010
0000
0000
0100
0000
0000
0010
0000
0000
0000
0000
0000
0100
,
0000
0000
0010
0000
0000
0100
0000
0000
0000
0000
0000
0010
0000
0000
0001
0000
0000
0010
0000
0000
0000
0000
0000
0100
0000
0000
1000
0000
0000
0100
0000
0000
,
0000
0000
0000
0001
0000
0000
0100
0000
0000
0001
0000
0000
0000
0000
0000
1000
0000
0000
0100
0000
0000
1000
0000
0000
0000
0000
0000
0010
0000
0000
1000
0000
,
0000
0010
0000
0000
0000
0000
0000
0001
0000
0000
1000
0000
0000
0001
0000
0000
0000
0000
0000
0010
0000
0000
1000
0000
0000
0010
0000
0000
0000
0000
0000
1000
,
0000
0000
0010
0000
0000
1000
0000
0000
0000
0000
0000
1000
0000
0000
0100
0000
0000
0010
0000
0000
0000
0000
0000
0010
0000
0000
0001
0000
0000
0100
0000
0000
,
0000
0000
0000
0100
0000
0000
0010
0000
0000
1000
0000
0000
0000
0000
0000
1001
0000
0000
0000
0000
0000
1001
0000
0000
0000
0000
0000
1001
0000
0000
0000
0000
,
0000
0000
0000
0000
0010
0000
0000
0001
0000
0000
0100
0000
0000
0010
0000
0000
1000
0000
0000
0100
0000
0000
1000
0000
0000
0100
0000
0000
1000
0000
0000
0100
,
0000
0000
0010
0000
0000
0001
0000
0000
0010
0000
0000
0001
0000
0000
1001
0000
0000
0000
0000
0000
0220
0000
0000
0000
0000
0000
0000
0000
0000
0000
0330
0000
,
0000
0101
0000
0000
1000
0010
1000
0010
,
1000
0010
0100
0001
1000
0000
0011
0000
,
0000
1100
0000
0000
0001
0010
0001
0010
,
0001
0010
0100
1000
0010
0000
1010
0000
,
0000
1001
0000
0000
0001
0100
0010
1000
,
0100
0010
0001
0010
0001
0000
1001
1001
,
0000
0110
0000
0000
1000
0100
0010
0001
,
0010
0100
1000
0100
1000
0000
0101
0000
,
0000
1001
0000
0000
0100
0010
1000
0001
,
1000
0010
0100
0010
0100
0000
0011
0000
,
0000
1100
0000
0000
0010
0001
1000
0100
,
1000
0010
0100
0010
0100
0000
0110
0000
,
0000
0101
0000
0000
0100
1000
0010
0100
,
0001
0010
0001
0100
1000
0000
1100
1100
,
0000
0110
0000
0000
1000
0100
0010
0001
,
1000
0000
0001
0000
0100
0000
0010
0000
2001
0000
0000
0000
0000
0000
0010
0100
,
0000
0000
0000
0000
0000
0000
0000
0000
0000
0000
0000
0000
0000
0000
0000
0000
0000
0000
0100
0000
0000
0010
0000
0000
0010
0000
0100
0000
0000
0001
0000
0000
,
3100
0001
1000
0010
1000
0001
0100
1001
,
0010
0100
0001
0101
1000
0010
1000
0110
,
0001
0000
0010
0000
0100
0000
1010
0000
0100
0001
0000
0000
0001
0010
0000
0000
,
0100
0010
0000
0000
1000
0100
0000
0000
0100
1000
0000
0000
0010
0100
0000
0000
,
1000
0001
0000
0000
0100
0000
0001
0000
1000
0100
0010
0000
0100
0000
0010
0000
,
0100
0001
0010
0000
0010
0000
1000
0000
0001
1000
0100
0000
0100
0000
0010
0000
,
0001
0010
0100
0000
1000
0000
0100
0000
0010
1000
0001
0000
1000
0000
0001
0000
,
1000
0100
0010
0000
0001
0000
0010
0000
0100
0010
0001
0000
1000
0000
0001
0000
,
0010
1000
0000
0000
0010
0000
0101
0000
1000
0000
0100
0000
0010
0000
1001
0000
0000
0000
0000
0000
0000
0000
0000
0001
0000
0000
0100
0000
0000
0010
0000
0000
,
0000
0000
0000
0001
0000
0000
0000
0000
0000
0100
0000
0000
0000
0000
0000
0010
0000
0000
1000
0000
0000
0010
0000
0000
1000
0000
0000
0010
0000
0000
0000
0000
,
0000
0100
0000
0000
0000
0000
0000
0010
0000
0000
0000
0000
0000
1000
0000
0000
0000
0000
0000
0100
0000
0000
0000
0000
0000
0001
0000
0000
0010
0000
0000
0001
,
0000
0000
0000
0000
0000
1000
0000
0000
0000
0000
0000
0010
0000
0000
0000
0000
0000
0100
0000
0000
0001
0000
0000
0000
0000
0000
0000
0000
0000
0001
0000
0000
,
0100
0000
0000
0000
0000
0000
0000
0000
0000
1010
0000
0000
0000
0000
0000
0001
0000
0000
0010
0000
0000
0100
0000
0000
1000
0000
0000
0001
0000
0000
0000
0000
,
0000
1000
0000
0000
0000
0000
0000
0001
0000
0000
0000
0000
0000
0010
0000
0000
0000
0000
0000
1000
0000
0000
0000
0000
0000
0100
0000
0000
0001
0000
0000
0100
,
0000
0000
0000
0000
0000
0010
0000
0000
0000
0000
0000
0001
0000
0000
0000
0000
0000
1000
0000
0000
0100
0000
0000
0000
0000
0000
0000
0000
0000
0100
0000
0000
,
1000
0000
0000
0000
0000
0000
0000
0000
0000
0011
0000
0000
0000
0000
0000
0100
0000
0000
0010
0000
0000
0100
0000
0000
0010
0000
0000
0100
0000
0000
0000
0000
,
0000
0010
0000
0000
0000
0000
0000
0100
0000
0000
0000
0000
0000
1001
0000
0000
0000
0000
0000
0010
0000
0000
0000
0000
0000
0001
0000
0000
1000
0000
0000
0000
,
0000
1000
0000
0000
0100
0000
0000
0000
0000
0100
0000
0000
0010
0000
0000
0000
0000
0010
0000
0000
0001
0000
0000
0000
0000
0001
0000
0000
0100
0000
0000
0000
,
0000
0100
0000
0000
1000
0000
0000
0000
0000
1000
0000
0000
0100
0000
0000
0000
0000
0100
0000
0000
0010
0000
0000
0000
0000
0010
0000
0000
0001
0000
0000
1000
,
0000
0000
0001
0000
1000
0000
0000
0001
0000
0000
1000
0000
0000
0000
0010
0000
0000
0000
0100
0000
0000
0000
0010
0000
0000
0000
0100
0000
0000
0000
0010
0000
,
0000
1000
0000
0000
0010
0000
0000
0000
0000
0010
0000
0000
0100
0000
0000
0000
0000
0001
0000
0000
0000
0000
0000
1001
0000
0000
0000
0100
0000
0000
0001
0000
,
1100
0000
0000
0010
0000
0000
0002
0000
0010
0003
0000
1100
0000
0000
0010
0000
0101
0000
0000
1001
0000
0000
0010
0000
0110
0000
0000
0001
0000
0000
0101
0000
,
0220
0000
0330
0000
;

//---------------dance-single - Medium----------------
#NOTES:
     dance-single:
     Medium:
     Medium:
     8:
     0.764,0.933,0.501,0.241,1.000,478.000,52.000,25.000,0.000,0.000:
1000
0000
0000
1100
0000
0000
0001
0000
0000
0101
0000
0000
0100
0000
0000
0110
,
0000
0000
0200
0000
0000
0000
0000
0000
0000
0000
0010
0000
0300
0000
0000
0000
0001
0000
0000
0000
0000
0000
0000
0000
0000
0000
0000
0000
2000
0000
0000
0000
0000
0000
0010
0000
0000
3000
0000
0000
0001
0000
0000
0000
0000
0000
0000
0000
0000
0000
0010
0000
0000
0000
0000
0000
0100
0000
0000
0000
0000
0000
0000
0000
,
1000
0000
0000
0000
0000
0000
0000
0000
0000
0000
0100
0000
0000
0000
0000
0000
0001
0000
0000
0000
0000
0000
0000
0000
0000
0000
0000
0000
0020
0000
0000
0000
0000
0000
0100
0000
0030
0000
0000
0000
0000
0000
0001
0000
0000
0000
0000
0000
2000
0000
0000
0000
0000
0000
0000
0000
0000
0000
0000
0000
0010
3000
0000
0000
,
0000
0000
0001
0000
0000
0000
0000
0000
1000
0000
0000
0000
0000
0000
0000
0000
0000
0000
0001
0000
0000
0000
0000
0000
1000
0000
0000
0000
0000
0000
0000
0000
0010
0000
0000
0000
0000
0000
0000
0000
0000
0000
1000
0000
0000
0000
0000
0000
0100
0000
0000
0000
0000
0000
0001
0000
0000
0010
0000
0000
0000
0000
0000
0010
,
0000
0000
0001
0000
0000
0000
0000
0000
0100
0000
0000
0000
0000
0000
1000
0000
0000
0010
0000
0000
0000
0000
0000
0010
0000
0000
1000
0000
0000
0000
0000
0000
0000
0000
0000
0001
0000
0000
0000
0000
0000
0010
0000
0000
0100
0000
0000
0000
0000
0000
0100
0000
0000
0010
0000
0000
0000
0000
0000
1000
0000
0000
0000
0000
,
0000
0100
0000
0000
0000
0000
0000
0000
0000
0000
0010
0000
0000
1000
0000
0000
0010
0000
0000
1000
0000
0000
0010
0000
0000
0000
0000
0000
0000
0000
0000
0000
0000
0000
0001
0000
0000
0010
0000
0000
0001
0000
0000
0010
0000
0000
0001
0000
0000
0000
0000
0000
0000
0000
0000
0000
0000
0000
0100
0000
0000
0000
0000
0000
,
1001
0000
0000
0000
0000
0100
0000
0000
0010
0000
0000
1100
0000
0000
0010
0000
,
1000
0000
0000
0010
0000
0000
0001
0000
0010
0000
0000
0100
0000
0000
1000
0000
,
0010
0000
0000
0001
0000
0000
0100
0000
0001
0000
0000
0110
0000
0000
1000
0000
,
0001
0000
0000
0010
0000
0000
0100
0000
1000
0000
0000
0001
1000
0000
0001
0000
,
2002
0000
0000
0000
0000
0000
0000
0000
3003
0000
0000
0010
0000
1000
0000
0001
,
0000
0000
0010
0000
0100
0000
0000
0001
0000
0000
0100
0000
1010
0000
0000
0000
,
0010
0000
0100
0000
0010
0000
0000
0001
0000
0000
0010
0000
1000
0000
0000
0101
,
0000
0000
1000
0000
0100
0000
0010
0000
0001
0000
0100
0000
0010
0100
0010
0100
,
0010
0100
0220
0000
0000
0000
0000
0000
,
0330
0000
0000
0100
1000
0000
1000
0100
0000
0100
0000
0010
0100
0000
0100
0010
,
0000
0010
0000
0001
0100
0000
0100
0001
0000
0010
0000
0001
1000
0000
1000
0001
,
0000
0100
0000
1000
0010
0000
0010
1000
0000
0100
0000
0010
1000
0000
1000
0010
,
0000
0100
0000
1000
0010
0000
0010
1000
0000
0001
0000
0100
0010
0000
0010
1000
,
0000
0001
0000
1000
0001
0000
0000
0010
0000
1000
0000
0001
0010
0000
0000
0100
,
0000
0001
0000
0100
0010
0000
0000
1000
0000
0100
0000
1000
0001
0000
0000
0010
,
0000
1001
0000
0010
0100
0000
0000
0001
0000
1010
0000
0100
0001
0000
0000
1000
,
0000
0110
0000
1000
0001
0000
1000
0100
1000
0000
2002
0000
0000
0000
0000
0000
,
0000
0000
0000
3003
0000
0000
0000
0000
0000
0000
0000
0000
0000
0000
0000
0001
0000
0000
1000
0000
0000
0000
0000
0000
0000
0000
0000
1000
0000
0000
0010
0000
,
0000
0000
0000
0000
0000
0000
0000
0010
0000
0000
0100
0000
0000
0000
0000
0000
0000
0000
0000
0100
0000
0000
0001
0000
0000
0000
0000
0000
0000
0000
0000
0001
,
0000
0000
0010
0000
0000
0000
0000
0000
0000
0000
0000
0010
0000
0000
0001
0000
0000
0000
0000
0000
0000
0000
0000
0100
0000
0000
1000
0000
0000
0000
0000
0000
,
0000
0000
0000
1000
0000
0000
0010
0000
0000
0000
0000
0000
0000
0000
0000
0010
0000
0000
0100
0000
0000
0000
0000
0000
0000
0000
0000
0100
0000
0000
0001
0000
,
0000
0000
0000
0000
0000
0000
0000
0101
0000
0000
0000
0000
0000
0101
0000
0000
0000
0000
0000
0110
0000
0000
0000
0000
0000
0110
0000
0000
0000
0000
0000
1010
,
0000
0000
0000
0000
0000
1010
0000
0000
0000
0000
0000
0011
0000
0000
0000
0000
0000
0011
0000
0000
0000
0000
0000
1100
0000
0000
0000
0000
0000
1100
0000
0000
,
0000
0000
0000
0101
0000
0000
0000
0000
0000
0101
0000
0000
0000
0000
0000
1001
0000
0000
0000
0000
0000
1001
0000
0000
0000
0000
0000
0110
0000
0000
0000
0000
,
0000
0110
0000
0000
0000
0000
0000
0101
0000
0000
0000
0000
0000
0011
0000
0000
0000
0000
0000
1010
0000
0000
0000
0000
0000
1100
0000
0000
0000
0000
0000
0101
,
0000
0000
0000
0000
0000
1010
0000
0000
0000
0000
0000
1000
0000
0000
0100
0000
0000
1000
0000
0000
0000
0000
0000
0010
0000
0000
0001
0000
0000
0010
0000
0000
,
0000
0000
0000
0100
0000
0000
0010
0000
0000
0100
0000
0000
0000
0000
0000
1001
0000
0000
0000
0000
0000
1001
0000
0000
0000
0000
0000
1001
0000
0000
0000
0000
,
0000
0000
0000
0000
0001
0000
0000
0100
0000
0000
0001
0000
0000
0100
0000
0000
0000
0000
0000
0000
0000
0000
1000
0000
0000
0100
0000
0000
1000
0000
0000
0100
,
0000
0010
0000
0000
1001
0000
0000
1001
0000
0000
0220
0000
0000
0000
0000
0330
,
0000
0100
0001
0000
1000
0010
1000
0000
,
0100
0000
1000
0001
1000
0000
0002
0000
,
0000
1003
0000
0000
0001
0010
0001
0000
,
0010
0000
1000
0010
1000
0000
0020
0000
,
0000
1030
0000
0000
0001
0100
0010
0000
,
1000
0000
0010
0001
0100
0000
1000
0100
,
0000
0110
0000
0000
1000
0100
0010
0001
,
0000
0000
1000
0100
0010
0000
0200
0000
,
0000
0301
0000
0000
0100
0010
1000
0000
,
0001
0000
0100
1000
0100
0000
0002
0000
,
0000
1003
0000
0000
0010
0001
1000
0000
,
0001
0000
0100
0010
0100
0000
0020
0000
,
0000
0130
0000
0000
0100
1000
0010
0000
,
1000
0000
0001
0100
0010
0000
0100
1000
,
0000
0110
0000
0000
1000
0100
0010
0001
,
0000
0000
0001
0000
0100
0000
0000
0000
2001
0000
0000
0000
0000
0000
0010
0100
,
0000
0000
0000
0000
0000
0000
0000
0000
0000
0000
0000
0000
0000
0000
0000
0000
3000
0000
0001
0000
0000
0010
0000
0000
0100
0000
1000
0000
0000
0001
0000
0000
,
0100
0001
1000
0010
1000
0001
0100
0001
,
0010
0100
0001
0100
1000
0010
1000
0100
,
0001
0000
0010
0000
0100
0000
1000
0000
0100
0001
0000
0000
0001
0100
0000
0000
,
0100
0010
0000
0000
0010
1000
0000
0000
1000
0001
0000
0000
0001
1000
0000
0000
,
1000
0001
0000
0000
0100
0000
0001
0000
1000
0100
0000
0000
0100
0000
0010
0000
,
0100
0001
0000
0000
0010
0000
1000
0000
0001
1000
0000
0000
0100
0000
0010
0000
,
0001
0010
0000
0000
1000
0000
0100
0000
0010
1000
0000
0000
1000
0000
0001
0000
,
1000
0100
0000
0000
0001
0000
0010
0000
0100
0010
0000
0000
1000
0000
0001
0000
,
1000
0100
0000
0000
1000
0000
0001
0000
0100
0000
0001
0000
1000
0000
0001
0000
0000
0000
0000
0000
0000
0000
0000
0001
0000
0000
0100
0000
0000
0000
0000
0000
,
0000
0000
0000
0001
0000
0000
0000
0000
0000
0100
0000
0000
0000
0000
0000
0010
0000
0000
1000
0000
0000
0010
0000
0000
0000
0000
0000
0110
0000
0000
0000
0000
,
0000
0100
0000
0000
0000
0000
0000
0010
0000
0000
0000
0000
0000
1000
0000
0000
0000
0000
0000
0100
0000
0000
0000
0000
0000
0001
0000
0000
0010
0000
0000
0000
,
0000
0000
0100
0000
0000
1000
0000
0000
0000
0000
0000
0010
0000
0000
0000
0000
0000
0100
0000
0000
0001
0000
0000
0000
0000
0000
0000
0000
0000
0001
0000
0000
,
0100
0000
0000
0000
0000
0000
0000
0000
0000
0100
0000
0000
0000
0000
0000
0001
0000
0000
1000
0000
0000
0000
0000
0000
1000
0000
0000
0001
0000
0000
0000
0000
,
0000
1000
0000
0000
0000
0000
0000
0001
0000
0000
0000
0000
0000
0010
0000
0000
0000
0000
0000
1000
0000
0000
0000
0000
0000
0100
0000
0000
0001
0000
0000
0000
,
0000
0000
0001
0000
0000
0010
0000
0000
0000
0000
0000
0001
0000
0000
0000
0000
0000
1000
0000
0000
0100
0000
0000
0000
0000
0000
0000
0000
0000
0100
0000
0000
,
1000
0000
0000
0000
0000
0000
0000
0000
0000
0001
0000
0000
0000
0000
0000
0100
0000
0000
0010
0000
0000
0100
0000
0000
0000
0000
0000
0100
0000
0000
0000
0000
,
0000
1001
0000
0000
0000
0000
0000
0100
0000
0000
0000
0000
0000
1001
0000
0000
0000
0000
0000
0020
0000
0000
0000
0000
0000
0000
0000
0000
0000
0230
0000
0000
,
0000
0000
0000
0000
0000
0000
0000
0000
0000
0302
0000
0000
0000
0000
0000
0000
0000
0003
0000
0000
0000
0110
0000
0000
0000
0000
0000
0000
0000
0000
0000
0000
,
0000
0200
0000
0000
0000
0000
0000
0300
0000
0000
0000
0000
0000
0101
0000
0000
0000
0000
0000
0000
0000
0000
0000
0000
0000
0002
0000
0000
0000
0000
0003
0000
,
0000
0000
0000
1000
0000
0000
0001
0000
0000
0000
0000
0000
0001
0000
0000
1000
0000
0000
0000
0001
0000
0000
0000
0000
0000
0000
0100
0000
0000
0000
1000
0000
,
0000
0000
0010
0000
0000
0000
0000
0000
0000
0010
0000
0000
0100
0000
0000
0000
0000
0010
0000
0000
0000
0000
0000
0110
0000
0000
0000
0100
0000
0000
0001
0000
,
1000
0000
0000
0010
0000
0000
0001
0000
0010
0000
0000
1000
0000
0000
0010
0000
0100
0000
0000
1000
0000
0000
0010
0000
0100
0000
0000
0010
0000
0000
0100
0000
,
2002
0000
3003
0000
;

//---------------dance-single - Easy----------------
#NOTES:
     dance-single:
     Easy:
     Easy:
     6:
     0.601,0.861,0.356,0.241,0.968,375.000,37.000,25.000,0.000,0.000:
1000
0000
0000
1000
0000
0000
1000
0000
0000
0100
0000
0000
0100
0000
0000
0100
,
0000
0010
0000
0000
0000
0000
0000
0000
1000
0000
0000
0000
0000
0000
0101
0000
0000
0000
0000
0000
1000
0000
0000
0000
0000
0100
0000
0000
0010
0000
0000
0000
,
0001
0000
0000
0000
0000
0001
0000
0000
0100
0000
0000
0000
0000
0000
0100
0000
0000
0010
0000
0000
0000
1000
0000
0000
0001
0000
0000
0000
0000
0000
0000
0000
,
1000
0000
0000
0000
0001
0000
0000
0000
1000
0000
0000
0000
0001
0000
0000
0000
0100
0000
0000
0000
0000
0001
0000
0000
1010
0000
0000
0000
0000
0000
0000
0000
,
0000
0000
1000
0000
0000
0000
0000
0000
0001
0000
0000
0000
0000
0000
0000
0000
0000
0000
0000
0000
0000
0000
0000
0000
0000
0000
0001
0000
0000
0000
0000
0000
0000
0000
0000
1000
0000
0000
0000
0000
0000
0100
0000
0000
0000
0000
0000
0000
0000
0000
0000
0000
0000
0100
0000
0000
0000
0000
0000
0001
0000
0000
0000
0000
,
0000
1000
0000
0000
0000
0000
0000
0000
0000
0000
0100
0000
0000
0000
0000
0000
0010
0000
0000
0000
0000
0000
0100
0000
0000
0000
0000
0000
0000
1000
0000
0000
0000
0000
0010
0000
0000
0000
0000
0000
1000
0000
0000
0000
0000
0000
0010
0000
0000
0000
0000
0000
1000
0000
0000
0000
0000
0000
0000
0000
0000
0000
0000
0000
,
1001
0000
0000
0000
0000
0100
0000
0000
0100
0000
0000
0100
0000
0000
0100
0000
,
0010
0000
0000
0010
0000
0000
0010
0000
0001
0000
0000
0001
0000
0000
0001
0000
,
0100
0000
0000
0100
0000
0000
0100
0000
0010
0000
0000
0010
0000
0000
0010
0000
,
1000
0000
0000
0100
0000
0000
0010
0000
0001
0000
0000
0100
0000
0000
0001
0000
,
2002
0000
0000
0000
0000
0000
0000
0000
3003
0000
0000
0010
0000
0000
0000
0001
,
0000
0000
0000
0000
0100
0000
0000
0001
0000
0000
0000
0000
1000
0000
0000
0000
,
0010
0000
0000
0000
0010
0000
0000
0001
0000
0000
0010
0000
1000
0000
0000
0101
,
0000
1000
0000
0010
0000
0100
0010
0100
,
0010
0220
0000
0000
,
0330
0000
0000
0000
0000
1000
0000
0100
0000
1000
0000
0000
0000
0100
0000
0010
,
0000
0100
0000
0000
0000
0100
0000
0001
0000
0100
0000
0001
0000
1000
0000
0001
,
0000
0000
0000
1000
0000
0010
0000
1000
0000
0000
0000
0001
0000
0010
0000
0001
,
0000
0000
0000
0100
0000
0010
0000
0100
0000
0000
0000
1000
0000
0100
0000
1000
,
0000
0001
0000
1000
0000
0100
0000
0010
0000
1000
0000
0010
0000
0100
0000
0001
,
0000
0010
0000
0100
0000
0010
0000
0001
0000
0100
0000
0010
0000
0100
0000
0001
,
0000
1000
0000
0010
0000
0100
0000
0010
0000
1000
0000
0100
0000
0001
0000
0100
,
0000
0010
0000
1000
0001
0000
1000
0000
0100
0000
2002
0000
0000
0000
0000
0000
,
0000
0000
0000
3003
0000
0000
0000
0000
0000
0000
0000
0000
0000
0000
0000
0000
0000
0000
2000
0000
0000
0000
0000
0000
0000
0000
0000
0000
0000
0000
3020
0000
,
0000
0000
0000
0000
0030
0200
0000
0000
0000
0000
0300
0002
0000
0000
0000
0000
,
0003
0020
0000
0000
0000
0000
0030
0002
0000
0000
0000
0000
0003
1000
0000
0000
,
0000
0000
0000
1000
0000
0000
0000
0000
0000
0001
0000
0000
0000
0000
0000
0100
0000
0000
0000
0000
0000
1100
0000
0000
0000
0000
0000
0010
0000
0000
0000
0000
,
0000
0001
0000
0000
0000
0000
0000
1000
0000
0000
0000
0000
0000
1010
0000
0000
0000
0000
0000
0100
0000
0000
0000
0000
0000
0010
0000
0000
0000
0000
0000
0001
,
0000
0000
0000
0000
0000
0101
0000
0000
0000
0000
0000
0001
0000
0000
0000
0000
0000
0010
0000
0000
0000
0000
0000
0100
0000
0000
0000
0000
0000
1100
0000
0000
,
0000
0000
0000
0100
0000
0000
0000
0000
0000
0001
0000
0000
0000
0000
0000
1000
0000
0000
0000
0000
0000
0001
0000
0000
0000
0000
0000
0010
0000
0000
0000
0000
,
0000
0100
0000
0000
0000
0000
0000
0001
0000
0000
0000
0000
0000
0100
0000
0000
0000
0000
0000
1000
0000
0000
0000
0000
0000
0010
0000
0000
0000
0000
0000
0101
,
0000
0000
0000
0000
0000
1100
0000
0000
0000
0000
0000
1000
0000
0000
0000
0000
0000
1000
0000
0000
0000
0000
0000
0010
0000
0000
0000
0000
0000
0010
0000
0000
,
0000
0000
0000
0100
0000
0000
0000
0000
0000
0100
0000
0000
0000
0000
0000
1001
0000
0000
0000
0000
0000
1000
0000
0000
0000
0000
0000
0001
0000
0000
0000
0000
,
0000
0000
0000
0000
1000
0000
0000
0100
0000
0000
0000
0000
0000
0100
0000
0000
0000
0000
0010
0000
0000
0000
1000
0000
0000
0000
0000
0000
1000
0000
0000
0000
,
0000
0010
0000
0000
1001
0000
0000
1001
0000
0000
0220
0000
0000
0000
0000
0330
,
0000
0100
0001
0000
1000
0000
0100
0000
,
0010
0000
1000
0001
0000
0000
0001
0000
,
0000
1100
0000
0000
0001
0000
0100
0000
,
0010
0000
1000
0010
0000
0000
0100
0000
,
0000
1001
0000
0000
0001
0000
0010
0000
,
0100
0000
0100
1000
0000
0000
1000
0100
,
0000
0110
0000
0000
1000
0000
0010
0000
,
0100
0000
0001
0100
0000
0000
0101
0000
,
0000
1001
0000
0000
0100
0000
1000
0000
,
0010
0000
0100
0010
0000
0000
0001
0000
,
0000
1100
0000
0000
0010
0000
1000
0000
,
0001
0000
0010
0100
0000
0000
0110
0000
,
0000
0101
0000
0000
0100
1000
0000
0000
,
0001
0010
0000
0000
0010
0000
0100
1000
,
0000
0110
0000
0000
1000
0100
0000
0000
,
0000
0000
0001
0000
0100
0000
0000
0000
2001
0000
0000
0000
0000
0000
0100
0001
,
0000
0000
0000
0000
0000
0000
0000
0000
0000
0000
0000
0000
0000
0000
0000
0000
3000
0000
0100
0000
0000
0010
0000
0000
0100
0000
0010
0000
0000
0001
0000
0000
,
0100
0000
1000
0010
1000
0000
0100
0001
,
0010
0000
0001
0100
1000
0000
1000
0100
,
0001
0000
0000
0000
0100
0000
1000
0000
0100
0002
0000
0000
0003
0100
0000
0000
,
0100
0020
0000
0000
0030
1000
0000
0000
1000
0002
0000
0000
0003
1000
0000
0000
,
1000
0200
0000
0000
0300
0000
0001
0000
0000
1000
0000
0000
0100
0000
0010
0000
,
0000
0001
0000
0000
0010
0000
1000
0000
0000
1000
0000
0000
0100
0000
0010
0000
,
0000
0010
0000
0000
1000
0000
0100
0000
0000
0010
0000
0000
1000
0000
0001
0000
,
0000
0100
0000
0000
0001
0000
0010
0000
0000
0100
0000
0000
1000
0000
0001
0000
,
1001
0000
0000
0000
1000
0000
0100
0000
0010
0000
0001
0000
1000
0000
0001
0000
0000
0000
0000
0000
0000
0000
0000
0001
0000
0000
0100
0000
0000
0000
0000
0000
,
0000
0000
0000
0001
0000
0000
0000
0000
0000
0100
0000
0000
0000
0000
0000
0010
0000
0000
0000
0000
0000
0000
0000
0000
0000
0000
0000
0110
0000
0000
0000
0000
,
0000
0100
0000
0000
0000
0000
0000
0010
0000
0000
0000
0000
0000
1000
0000
0000
0000
0000
0000
0000
0000
0000
0000
0000
0000
0001
0000
0000
0000
0000
0000
0000
,
0000
0000
0000
0000
0000
1000
0000
0000
0000
0000
0000
0010
0000
0000
0000
0000
0000
0100
0000
0000
0000
0000
0000
0000
0000
0000
0000
0000
0000
0001
0000
0000
,
0000
0000
0000
0000
0000
0000
0000
0000
0000
1010
0000
0000
0000
0000
0000
0001
0000
0000
0000
0000
0000
0000
0000
0000
0000
0000
0000
0000
0000
0000
0000
0000
,
0000
1000
0000
0000
0000
0000
0000
0001
0000
0000
0000
0000
0000
0010
0000
0000
0000
0000
0000
0000
0000
0000
0000
0000
0000
0100
0000
0000
0000
0000
0000
0000
,
0000
0000
0000
0000
0000
0010
0000
0000
0000
0000
0000
0001
0000
0000
0000
0000
0000
1000
0000
0000
0000
0000
0000
0000
0000
0000
0000
0000
0000
0100
0000
0000
,
0000
0000
0000
0000
0000
0000
0000
0000
0000
0011
0000
0000
0000
0000
0000
0100
0000
0000
0000
0000
0000
0000
0000
0000
0000
0000
0000
0100
0000
0000
0000
0000
,
0000
1001
0000
0000
0000
0000
0000
0100
0000
0000
0000
0000
0000
1001
0000
0000
0000
0000
0000
0010
0000
0000
0000
0000
0000
0000
0000
0000
0002
0000
0000
0000
,
0000
0000
2003
0000
0000
3200
0000
0000
,
0320
0000
0000
0030
1000
0001
0000
1000
,
0100
0000
1000
0010
0000
0100
0010
0000
,
1000
0000
0000
0000
0001
0000
0000
0000
0100
0000
0000
0000
0000
0000
0000
0000
0001
0000
0000
0000
0000
0000
0000
0110
0000
0000
0000
1000
0000
0000
1000
0000
,
1000
0000
0000
0001
0000
0000
0001
0000
0001
0000
0000
0010
0000
0000
0010
0000
0010
0000
0000
0100
0000
0000
0100
0000
0100
0000
0000
1001
0000
0000
1001
0000
,
2002
0000
3003
0000
;
