#TITLE:Megaman X5;
#SUBTITLE:- OPENING THEME -;
#ARTIST:CAPCOM;
#TITLETRANSLIT:;
#SUBTITLETRANSLIT:;
#ARTISTTRANSLIT:;
#CREDIT:;
#BANNER:megaman-bn.PNG;
#BACKGROUND:Megaman X5.jpg;
#LYRICSPATH:;
#CDTITLE:;
#MUSIC:01 - X5 - OPENING THEME.mp3;
#OFFSET:-1.000;
#SAMPLESTART:18.040;
#SAMPLELENGTH:12.000;
#SELECTABLE:YES;
#BPMS:0.000=90.000,21.000=130.000,23.000=150.000,25.000=180.000,132.500=90.000;
#STOPS:;
#BGCHANGES:0.000=Megaman X5.jpg=1.200=0=0=1,
99999=-nosongbg-=1.000=0=0=0 // don't automatically add -songbackground-
;
// cache tags:
#FIRSTBEAT:0.000;
#LASTBEAT:132.500;
#SONGFILENAME:Songs/keyboard/Megaman X5/01 - X5 - OPENING THEME.sm;
#HASMUSIC:1;
#HASBANNER:1;
#MUSICLENGTH:56.058;
// end cache tags

//---------------dance-single - ----------------
#NOTES:
     dance-single:
     :
     Hard:
     8:
     0.640,0.739,0.250,0.392,0.776,215.000,14.000,22.000,0.000,0.000:
0200
0000
0000
0000
0000
0000
0301
1000
0001
0100
0000
0010
,
0000
0100
0000
0000
0000
0000
0000
0000
0000
0000
1000
0001
1000
0000
0000
0000
0000
0000
0000
0000
0000
0000
0000
0100
,
0000
0000
1000
0000
0002
0000
0000
0000
0000
0000
0000
0000
0000
0000
0000
0003
0000
0000
0000
0000
0000
0000
0000
0000
,
0000
0000
0000
0000
0000
0000
0200
0000
0000
0000
0000
0000
0300
0000
0000
0000
0000
0000
0000
0000
0000
0000
0000
0000
0200
0000
0000
0000
0000
0000
0000
0000
0000
0000
0000
0000
0000
0000
0000
0000
0000
0000
0000
0000
0000
0000
0000
0000
0000
0000
0000
0000
0000
0000
0000
0000
0000
0000
0000
0000
0000
0000
0000
0000
0000
0000
0000
0000
0000
0000
0000
0000
0000
0000
0000
0000
0000
0000
0000
0000
0000
0000
0000
0000
0000
0000
0000
0000
0000
0000
0000
0000
0000
0000
0000
0000
0001
0000
0000
0000
0000
0000
0300
0000
0000
0000
0000
0000
0000
0000
0000
0000
1000
0000
0000
0000
0000
0000
0000
0000
0000
0000
0000
0000
0000
0000
0000
0000
0001
0000
0000
0000
0000
0000
0000
0000
0000
0000
0000
0000
0000
0000
0000
0000
0010
0000
0000
0000
0000
0000
0000
0000
0000
0000
0000
0000
0000
0000
0000
0000
0000
0000
0000
0000
0000
0000
0000
0000
0000
0000
0000
0000
0000
0000
0000
0000
0001
0000
0000
0000
0000
0000
0000
0000
0000
0000
0000
0000
0000
0000
0000
0000
,
0000
1000
0000
0000
0000
0000
0000
0000
0000
0000
1000
0001
1000
0000
0000
0000
0000
0000
0000
0000
0000
0000
0000
0000
,
0001
1000
0100
1010
0000
1010
0000
0000
0101
0000
0000
0011
,
0000
1001
1100
0011
,
0110
0000
0100
0001
0010
0100
1000
0000
0000
0000
0100
0010
0100
0000
0000
0000
,
0000
0000
0001
1000
0001
0000
0000
0000
0000
0000
0000
0000
0010
0001
0100
1000
,
0010
0000
0000
0100
0000
0000
0000
0000
0000
0000
0100
0000
0010
0000
0000
0000
0001
0000
0010
0000
0100
0000
0000
0000
,
0010
0000
1000
0110
,
0001
0000
0000
0000
1000
0010
0100
0000
0000
0000
0001
0010
0001
0000
0000
0000
,
0000
0000
1000
0100
1000
0000
0000
0000
0000
0000
0000
0000
0010
0100
1000
0010
,
0001
0100
0000
0000
0000
0000
0000
0000
0010
0000
0000
0000
1001
0000
0000
0000
,
0010
0000
1000
0100
0000
0000
0010
0100
1000
0000
0000
0000
1100
0000
0000
0000
,
0100
0000
0000
0000
0010
1000
0010
0000
0000
0000
0001
0100
0001
0000
0000
0000
,
0010
0001
0010
0000
0000
0000
0220
0000
0330
0002
0000
0003
0000
0000
0000
0000
,
0100
0000
0001
0000
0010
0100
0010
0000
0000
0000
1000
0010
1000
0000
0000
0000
,
0010
0001
0010
0000
0000
0000
2000
0000
3200
0000
0320
0000
0000
0000
0030
0000
,
0000
0000
0000
0000
0001
1000
0001
0000
0000
0000
1000
0100
1000
0000
0000
0000
,
0001
0010
0001
0000
0000
0000
0020
0000
0030
0000
0200
0000
0300
0000
0020
0000
,
0000
0000
0000
0000
0000
0000
0030
0000
0000
0200
0000
0000
0000
0000
0000
0000
0000
0320
0000
0000
0000
0000
0000
0000
,
0032
0000
0000
0000
0000
0000
0103
0010
0001
1000
0100
0000
0010
0000
0001
0010
,
0001
0010
0001
0010
0001
0000
0000
0000
0110
0000
0000
0000
1000
0100
1000
0010
,
1000
0001
0020
0000
0000
0000
0000
0000
0000
0000
0200
0000
0000
0000
0000
0000
,
0000
0000
0330
0000
0000
0000
0010
0100
1000
0100
0010
0001
0010
0100
1000
0100
,
0010
0001
0010
0100
1000
0100
0010
0001
0010
0100
1000
0100
0010
0001
0010
0100
,
2000
0000
0000
0000
0000
0000
3000
0000
1001
0000
0000
0000
0001
0010
0001
0010
,
0001
0200
0000
0000
0000
0020
0000
0000
,
0000
0000
0330
0000
1000
0100
0010
0001
0100
0010
1000
0100
0010
0001
0100
0010
,
1000
0100
0010
0001
0100
0010
1000
0100
0010
0001
0100
0010
1000
0100
0010
0001
,
0000
0200
0000
0000
0000
0000
0000
0000
,
0000
0000
0000
0000
0000
0000
0000
0300
,
1000
0100
0010
0000
0000
0000
0000
0000
0000
0000
0000
0000
0000
0000
0000
0000
:


a=note=20.000000,
;
