#TITLE:Magna Centipede(Megaman X2);
#SUBTITLE:;
#ARTIST:Capcom Sound Team;
#TITLETRANSLIT:;
#SUBTITLETRANSLIT:;
#ARTISTTRANSLIT:;
#CREDIT:Megaman X2(Capcom);
#BANNER:Magna Centipede-banner.JPG;
#BACKGROUND:Magna Centipede-bg.JPG;
#LYRICSPATH:;
#CDTITLE:PhoenixW-cdtitle.JPG;
#MUSIC:49 - X2 - MAGNE HYAKULEGGER STAGE.mp3;
#OFFSET:-0.707;
#SAMPLESTART:37.746;
#SAMPLELENGTH:12.000;
#SELECTABLE:YES;
#BPMS:0.000=187.859;
#STOPS:;
#BGCHANGES:;
// cache tags:
#FIRSTBEAT:3.000;
#LASTBEAT:277.000;
#SONGFILENAME:Songs/keyboard/49 - X2 - MAGNE HYAKULEGGER STAGE/49 - X2 - MAGNE HYAKULEGGER STAGE.sm;
#HASMUSIC:1;
#HASBANNER:1;
#MUSICLENGTH:95.903;
// end cache tags

//---------------dance-single - ----------------
#NOTES:
     dance-single:
     :
     Challenge:
     15:
     1.000,1.000,1.000,0.000,1.000,797.000,121.000,0.000,0.000,0.000:
0000
0000
0000
0000
0000
0000
1000
0100
,
1000
0010
0100
0010
1000
0100
1000
0001
,
0100
0001
1000
0001
1000
0001
1000
0001
,
1000
0010
0100
0010
0000
1000
0001
0010
0001
1001
0000
0000
1000
0100
1000
0100
,
1010
0000
0001
0010
0001
0010
0001
0100
0011
0000
1001
0000
1000
0100
1000
0100
,
1001
0000
0001
1000
0001
0100
0001
0100
1001
0000
0110
0000
0110
0000
1001
0000
,
1000
0100
0100
1100
0001
1000
0001
1000
0001
1000
0001
0000
1001
0000
1000
0010
,
0100
0000
0000
0000
0000
0000
0010
0000
0000
0000
0000
0000
1000
0000
0100
0000
0010
0000
0001
0000
0100
0000
0010
0000
1000
0000
0100
0000
0010
0000
0001
0000
1000
0000
0001
0000
1000
0000
0000
0100
0000
0000
1000
0000
0000
0100
0000
0000
,
1001
0000
0010
0100
0010
1000
0010
1000
0110
0000
0101
0000
1000
0010
1000
0010
,
1100
0000
0001
0100
0001
1000
0001
1000
0110
0000
1010
0000
1010
0000
1100
0000
,
0100
0010
0010
0011
0100
0010
0100
0010
0100
0010
0100
0000
0110
0000
0010
1000
,
0100
0000
0000
0010
0000
0000
0001
0100
0010
1000
0001
0010
0100
1000
0010
0101
1000
0001
1000
0000
0000
1000
0000
0000
,
1010
0000
0100
0001
0100
0000
0010
0000
0101
0000
1000
0010
1000
0100
1000
0000
,
1001
0000
0001
0000
0001
0100
0001
0000
0011
0000
1000
0100
1000
0000
0010
0000
,
0110
0000
1000
0001
1000
0000
1000
0000
1100
0000
0100
0010
0100
0010
0100
0000
,
1001
0000
1000
0010
1000
0000
0100
0000
0101
0000
0010
0100
0010
0000
1000
0000
,
0011
0000
0100
0010
0100
0000
0100
0000
1001
0000
0010
1000
0010
0100
0010
0000
,
0110
0000
0100
0010
0100
0000
0010
0000
1100
0000
1000
0001
1000
0000
0100
0000
,
1010
0000
0100
0010
0100
0000
0001
0000
1001
0000
1000
0001
1000
0010
1000
0000
,
0011
0000
0001
0000
0001
1000
0100
0010
0100
1000
0000
0000
0101
0000
0000
0000
,
1001
0000
0000
0000
0000
0000
1010
0000
0000
0000
0000
0000
1000
0100
1000
0000
0000
0000
0011
0000
0000
0000
0000
0000
,
0110
0000
0000
0000
0000
0000
0000
0000
0000
0000
0000
0000
1100
0000
0000
0000
0000
0000
0000
0000
0000
0000
0000
0000
0001
0000
0100
0000
0001
0000
0100
0000
0000
0010
0000
0000
1000
0000
0000
0010
0000
0000
1000
0000
0000
0010
0000
0000
,
1000
0000
0000
1010
0000
0000
0010
0000
0000
1100
0000
0000
0100
0000
0000
1010
0000
0000
1000
0000
0000
0110
0000
0000
1000
0000
0001
0000
1000
0000
0001
0000
0000
0101
0000
0000
0010
0000
0000
0101
0000
0000
0100
0000
0000
0011
0000
0000
,
0001
0000
0100
0000
0001
0000
0100
0000
0000
0010
0000
0000
1000
0000
0000
0100
0000
0000
1000
0000
0000
0100
0000
0000
1000
0000
0001
0000
1000
0000
0001
0000
1000
0000
0000
0000
0010
0000
0000
1000
0000
0000
0010
0000
1000
0000
0100
0000
,
1000
0000
0001
0010
0001
0000
1000
0010
1000
0000
0001
0100
0001
0000
1000
0001
1000
0010
0100
0010
0100
0000
0001
0010
,
0001
0000
0000
1000
0010
1000
0000
0001
0010
0001
0000
0100
0010
0100
0000
0001
1000
0001
0000
1000
0100
1000
0010
0100
,
0001
0010
0100
1000
0010
0100
0001
0000
0000
0100
0000
0000
1001
0000
0000
0000
0000
0000
1010
0000
0000
0100
0000
0000
,
1000
0010
1000
0100
0010
0001
1010
0100
,
0010
0001
0010
0001
0010
0100
1001
0100
,
0010
0100
1000
0001
0100
0010
1001
0100
,
0001
0100
0010
0001
1000
0010
0100
1000
,
0100
1000
0100
0010
0001
1000
0001
0010
,
0001
0100
0010
0100
0001
0010
0001
1000
,
0010
1000
0001
1000
0001
1000
0001
1000
,
0001
0100
0010
0100
0000
0001
1000
0100
1000
1001
0000
0000
0001
0010
0001
0010
,
0101
0000
1000
0100
1000
0100
1000
0010
1100
0000
1001
0000
0001
0010
0001
0010
,
1001
0000
1000
0001
1000
0010
1000
0010
1001
0000
0110
0000
0110
0000
1001
0000
,
0001
0010
0010
0011
1000
0001
1000
0001
1000
0001
1000
0000
1001
0000
0001
0100
,
0010
0000
0000
0000
0000
0000
0100
0000
0000
0000
0000
0000
0001
0000
0010
0000
0100
0000
1000
0000
0010
0000
0100
0000
0001
0000
0010
0000
0100
0000
1000
0000
0001
0000
1000
0000
0001
0000
0000
0010
0000
0000
0001
0000
0000
0010
0000
0000
,
1001
0000
0100
0010
0100
0001
0100
0001
0110
0000
1010
0000
0001
0100
0001
0100
,
0011
0000
1000
0010
1000
0001
1000
0001
0110
0000
0101
0000
0101
0000
0011
0000
,
0010
0100
0100
1100
0010
0100
0010
0100
0010
0100
0010
0000
0110
0000
0100
0001
,
0010
0000
0000
0100
0000
0000
1000
0010
0100
0001
1000
0100
0010
0001
0100
1010
0001
1000
0001
0000
0000
0001
0000
0000
,
0101
0000
0010
1000
0010
0000
0100
0000
1010
0000
0001
0100
0001
0010
0001
0000
,
1001
0000
1000
0000
1000
0010
1000
0000
1100
0000
0001
0010
0001
0000
0100
0000
,
0110
0000
0001
1000
0001
0000
0001
0000
0011
0000
0010
0100
0010
0100
0010
0000
,
1001
0000
0001
0100
0001
0000
0010
0000
1010
0000
0100
0010
0100
0000
0001
0000
,
1100
0000
0010
0100
0010
0000
0010
0000
1001
0000
0100
0001
0100
0010
0100
0000
,
0110
0000
0010
0100
0010
0000
0100
0000
0011
0000
0001
1000
0001
0000
0010
0000
,
0101
0000
0010
0100
0010
0000
1000
0000
1001
0000
0001
1000
0001
0100
0001
0000
,
1100
0000
1000
0000
1000
0001
0010
0100
0010
0001
0000
0000
1010
0000
0000
0000
,
1001
0000
0000
0000
0000
0000
0101
0000
0000
0000
0000
0000
0001
0010
0001
0000
0000
0000
1100
0000
0000
0000
0000
0000
,
0110
0000
0000
0000
0000
0000
0000
0000
0000
0000
0000
0000
0011
0000
0000
0000
0000
0000
0000
0000
0000
0000
0000
0000
1000
0000
0010
0000
1000
0000
0010
0000
0000
0100
0000
0000
0001
0000
0000
0100
0000
0000
0001
0000
0000
0100
0000
0000
,
0001
0000
0000
0101
0000
0000
0100
0000
0000
0011
0000
0000
0010
0000
0000
0101
0000
0000
0001
0000
0000
0110
0000
0000
0001
0000
1000
0000
0001
0000
1000
0000
0000
1010
0000
0000
0100
0000
0000
1010
0000
0000
0010
0000
0000
1100
0000
0000
,
1000
0000
0010
0000
1000
0000
0010
0000
0000
0100
0000
0000
0001
0000
0000
0010
0000
0000
0001
0000
0000
0010
0000
0000
0001
0000
1000
0000
0001
0000
1000
0000
0001
0000
0000
0000
0100
0000
0000
0001
0000
0000
0100
0000
0001
0000
0010
0000
,
0001
0000
1000
0100
1000
0000
0001
0100
0001
0000
1000
0010
1000
0000
0001
1000
0001
0100
0010
0100
0010
0000
1000
0100
,
1000
0000
0000
0001
0100
0001
0000
1000
0100
1000
0000
0010
0100
0010
0000
1000
0001
1000
0000
0001
0010
0001
0100
0010
,
1000
0100
0010
0001
0100
0010
1000
0000
0000
0010
0000
0000
1100
0000
0000
0000
0000
0000
1001
0000
0000
0010
0000
0000
,
1000
0001
1000
0010
0001
0100
1001
0010
,
0001
0100
0001
0100
0001
0010
1100
0010
,
0001
0010
1000
0100
0010
0001
1100
0010
,
0100
0010
0001
0100
1000
0001
0010
0100
,
0001
0100
0001
0010
1000
0100
1000
0010
,
1000
0001
0010
0001
1000
0010
1000
0100
,
0010
0100
1000
0100
1000
0100
1000
0100
,
1000
0001
0010
0001
0000
1000
0100
0001
0100
1100
0000
0000
1000
0010
1000
0010
,
1001
0000
0100
0001
0100
0001
0100
0010
0101
0000
1100
0000
1000
0010
1000
0010
,
1100
0000
0100
1000
0100
0010
0100
0010
1100
0000
0011
0000
0011
0000
1100
0000
,
1000
0010
0010
1010
0100
1000
0100
1000
0100
1000
0100
0000
1100
0000
1000
0001
,
0010
0001
0000
0000
0000
0000
0000
0000
;

//---------------dance-single - ----------------
#NOTES:
     dance-single:
     :
     Hard:
     12:
     1.000,1.000,0.782,0.261,1.000,609.000,75.000,25.000,0.000,10.000:
0000
0000
0000
0000
0000
0000
1000
0100
,
1000
0010
0100
0010
1000
0100
1000
0001
,
0100
0001
1000
0001
1000
0001
1000
0001
,
1000
0010
0100
0010
0000
1000
0001
0010
0001
1001
0000
0000
1020
0000
0000
0000
,
0000
0231
0000
0000
2301
0000
0000
0000
,
0000
0000
3000
0000
0000
0000
0000
0010
0100
0000
0002
0000
0000
0000
0003
0200
,
0000
0000
0000
0300
0000
0000
0010
1000
0010
1000
0010
1000
0010
1001
0000
1000
,
0100
0000
0000
0100
0000
0000
0010
0001
0010
0001
0010
0001
0010
0001
0010
0001
0010
0001
0010
0000
0000
2100
0000
0000
,
0000
0000
3012
0000
0000
0213
0000
0000
,
0000
0000
0000
0000
0300
0000
0000
0001
1000
0000
0020
0000
0000
0000
0030
0200
,
0000
0000
0000
0300
0000
0000
1000
0001
1000
0001
1000
0001
1000
1010
0000
0010
,
0100
0000
0000
0100
0000
0000
0010
1000
0010
1000
0010
1000
0010
1000
0010
1000
0010
1000
0010
0000
0000
1000
0000
0000
,
1010
0000
0100
0000
0100
0000
0010
0000
0101
0000
1000
0010
1000
0000
1000
0000
,
1001
0000
0001
0000
0001
0000
0001
0000
0011
0000
1000
0001
1000
0000
0010
0000
,
0110
0000
1000
0000
1000
0000
1000
0000
1100
0000
0100
0010
0100
0000
0100
0000
,
1001
0000
1000
0000
1000
0000
0100
0000
0101
0000
0010
0100
0010
0000
1000
0000
,
0011
0000
0100
0000
0100
0000
0100
0000
1001
0000
0010
0001
0010
0000
0010
0000
,
0110
0000
0100
0000
0100
0000
0010
0000
1100
0000
0001
0010
0001
0000
0100
0000
,
1010
0000
0100
0000
0100
0000
0001
0000
1001
0000
1000
0001
1000
0000
1000
0000
,
0011
0000
0001
0000
0001
1000
0100
0010
0100
1000
0000
0000
0101
0000
0000
0000
,
1001
0000
0000
0000
0000
0000
1010
0000
0000
0000
0000
0000
1000
0100
1000
0000
0000
0000
0011
0000
0000
0000
0000
0000
,
0110
0000
0000
0000
0000
0000
1100
0000
0000
0000
0000
0000
0001
0100
0001
0000
0000
0000
0010
1000
0010
0000
0000
0000
,
1000
0001
1000
0000
0000
0000
0100
0010
0100
0000
0000
0000
0001
0010
0001
0000
0000
0000
1000
0010
1000
0000
0000
0000
,
0100
0001
0100
0000
0000
0000
0001
1000
0001
0000
0000
0100
0010
0100
0010
0100
0010
0000
1000
0100
1000
0000
0000
0000
,
0001
0100
0001
0000
0000
0000
0010
0100
0010
0000
0000
0000
0100
0010
0100
0000
0000
0000
0100
0001
0100
0000
0000
0000
,
0001
0010
0001
0000
0000
0000
1000
0100
1000
0000
0000
0100
0010
0100
0010
0001
1000
0001
0000
1000
0100
1000
0010
0100
,
0001
0010
0100
1000
0010
0100
0001
0000
0000
0100
0000
0000
1001
0000
0000
0000
0000
0000
1010
0000
0000
0100
0000
0000
,
1000
0010
1000
0100
0010
0001
1010
0100
,
0010
0001
0010
0001
0010
0100
1001
0100
,
0010
0100
1000
0001
0100
0010
1001
0100
,
0001
0100
0010
0001
1000
0010
0100
1000
,
0100
1000
0100
0010
0001
1000
0001
0010
,
0001
0100
0010
0100
0001
0010
0001
1000
,
0010
1000
0001
1000
0001
1000
0001
1000
,
0001
0100
0010
0100
0000
0001
1000
0100
1000
1001
0000
0000
0201
0000
0000
0000
,
0000
1320
0000
0000
1032
0000
0000
0000
,
0000
0000
0003
0000
0000
0000
0000
0100
0010
0000
2000
0000
0000
0000
3000
0020
,
0000
0000
0000
0030
0000
0000
0100
0001
0100
0001
0100
0001
0100
1001
0000
0001
,
0010
0000
0000
0010
0000
0000
0100
1000
0100
1000
0100
1000
0100
1000
0100
1000
0100
1000
0100
0000
0000
0012
0000
0000
,
0000
0000
2103
0000
0000
3120
0000
0000
,
0000
0000
0000
0000
0030
0000
0000
1000
0001
0000
0200
0000
0000
0000
0300
0020
,
0000
0000
0000
0030
0000
0000
0001
1000
0001
1000
0001
1000
0001
0101
0000
0100
,
0010
0000
0000
0010
0000
0000
0100
0001
0100
0001
0100
0001
0100
0001
0100
0001
0100
0001
0100
0000
0000
0001
0000
0000
,
0101
0000
0010
0000
0010
0000
0100
0000
1010
0000
0001
0100
0001
0000
0001
0000
,
1001
0000
1000
0000
1000
0000
1000
0000
1100
0000
0001
1000
0001
0000
0100
0000
,
0110
0000
0001
0000
0001
0000
0001
0000
0011
0000
0010
0100
0010
0000
0010
0000
,
1001
0000
0001
0000
0001
0000
0010
0000
1010
0000
0100
0010
0100
0000
0001
0000
,
1100
0000
0010
0000
0010
0000
0010
0000
1001
0000
0100
1000
0100
0000
0100
0000
,
0110
0000
0010
0000
0010
0000
0100
0000
0011
0000
1000
0100
1000
0000
0010
0000
,
0101
0000
0010
0000
0010
0000
1000
0000
1001
0000
0001
1000
0001
0000
0001
0000
,
1100
0000
1000
0000
1000
0001
0010
0100
0010
0001
0000
0000
1010
0000
0000
0000
,
1001
0000
0000
0000
0000
0000
0101
0000
0000
0000
0000
0000
0001
0010
0001
0000
0000
0000
1100
0000
0000
0000
0000
0000
,
0110
0000
0000
0000
0000
0000
0011
0000
0000
0000
0000
0000
1000
0010
1000
0000
0000
0000
0100
0001
0100
0000
0000
0000
,
0001
1000
0001
0000
0000
0000
0010
0100
0010
0000
0000
0000
1000
0100
1000
0000
0000
0000
0001
0100
0001
0000
0000
0000
,
0010
1000
0010
0000
0000
0000
1000
0001
1000
0000
0000
0010
0100
0010
0100
0010
0100
0000
0001
0010
0001
0000
0000
0000
,
1000
0010
1000
0000
0000
0000
0100
0010
0100
0000
0000
0000
0010
0100
0010
0000
0000
0000
0010
1000
0010
0000
0000
0000
,
1000
0100
1000
0000
0000
0000
0001
0010
0001
0000
0000
0010
0100
0010
0100
1000
0001
1000
0000
0001
0010
0001
0100
0010
,
1000
0100
0010
0001
0100
0010
1000
0000
0000
0010
0000
0000
1001
0000
0000
0000
0000
0000
0101
0000
0000
0010
0000
0000
,
0001
0100
0001
0010
0100
1000
0101
0010
,
0100
1000
0100
1000
0100
0010
1001
0010
,
0100
0010
0001
1000
0010
0100
1001
0010
,
1000
0010
0100
1000
0001
0100
0010
0100
,
1000
0100
1000
0010
0001
0100
0001
0010
,
0001
1000
0010
1000
0001
0010
0001
0100
,
0010
0100
0001
0100
0001
0100
0001
0100
,
0001
1000
0010
1000
0000
0001
0100
1000
0100
0101
0000
0000
2001
0000
0000
0000
,
0000
3120
0000
0000
0132
0000
0000
0000
,
0000
0000
0003
0000
0000
0000
0000
1000
0010
0000
0200
0000
0000
0000
0300
0020
,
0000
0000
0000
0030
0000
0000
1000
0001
1000
0001
1000
0001
1000
0101
0000
0001
,
0010
0010
0000
0000
0000
0000
0000
0000
;

//---------------dance-single - ----------------
#NOTES:
     dance-single:
     :
     Medium:
     9:
     0.836,0.830,1.000,0.334,0.219,431.000,98.000,32.000,0.000,10.000:
0000
0000
0000
0000
0000
0000
1000
0100
,
1000
0010
0100
0010
1000
0100
1000
0001
,
0100
0001
1000
0001
1000
0001
1000
0001
,
1000
0000
0100
0000
1000
0000
0010
0000
1000
1001
0000
0000
1020
0000
0000
0000
,
0000
0231
0000
0000
2301
0000
0000
0000
,
0000
0000
3000
0000
0000
0000
0000
0010
0100
0000
0002
0000
0000
0000
0003
0200
,
0000
0000
0000
0300
0000
0000
0000
0010
0100
0000
0000
0002
0000
1000
0000
0000
,
0000
0000
0010
0010
0010
0010
0003
2100
,
0000
0000
3012
0000
0000
0213
0000
0000
,
0000
0000
0000
0000
0300
0000
0000
0001
1000
0000
0020
0000
0000
0000
0030
0200
,
0000
0000
0000
0300
0000
0000
0000
0001
1000
0000
0000
0020
0000
0100
0000
0000
,
0000
0000
1000
1000
1000
1000
0030
1000
,
1010
0100
0100
0100
0101
1000
1000
1000
,
1001
0001
0001
0001
0011
1000
1000
0010
,
0110
1000
1000
1000
1100
0100
0100
0100
,
1001
1000
1000
0100
0101
0010
0010
1000
,
0011
0100
0100
0100
1001
0010
0010
0010
,
0110
0100
0100
0010
1100
0001
0001
0100
,
1010
0100
0100
0001
1001
1000
1000
1000
,
0011
0000
0001
0000
0001
1000
0100
1000
0100
1000
0000
0000
0101
0000
0000
0000
,
1001
0000
0000
0000
0000
0000
1010
0000
0000
0000
0000
0000
1000
0100
1000
0000
0000
0000
0011
0000
0000
0000
0000
0000
,
0110
0000
0000
0000
0000
0000
1100
0000
0000
0000
0000
0000
0001
0100
0001
0000
0000
0000
1001
0000
0000
0000
0000
0000
,
0110
0000
1001
0000
1000
0100
1100
0000
,
1010
0000
1001
0000
0001
0100
0101
0000
,
0110
0000
1100
0000
0100
0100
1001
0000
,
1010
0000
0110
0000
0101
0001
2001
0010
,
0010
0010
0010
3100
1001
0000
1010
0100
,
1000
0010
1000
0100
0010
0001
1010
0100
,
0010
0001
0010
0001
0010
0100
1001
0100
,
0010
0100
1000
0001
0100
0010
1001
0100
,
0001
0100
0010
0001
1000
0010
0100
1000
,
0100
1000
0100
0010
0001
1000
0001
0010
,
0001
0100
0010
0100
0001
0010
0001
1000
,
0010
1000
0001
1000
0001
1000
0001
1000
,
0001
0000
0010
0000
0001
0000
0100
0000
0001
1001
0000
0000
0201
0000
0000
0000
,
0000
1320
0000
0000
1032
0000
0000
0000
,
0000
0000
0003
0000
0000
0000
0000
0100
0010
0000
2000
0000
0000
0000
3000
0020
,
0000
0000
0000
0030
0000
0000
0000
0100
0010
0000
0000
2000
0000
0001
0000
0000
,
0000
0000
0100
0100
0100
0100
3000
0012
,
0000
0000
2103
0000
0000
3120
0000
0000
,
0000
0000
0000
0000
0030
0000
0000
1000
0001
0000
0200
0000
0000
0000
0300
0020
,
0000
0000
0000
0030
0000
0000
0000
1000
0001
0000
0000
0200
0000
0010
0000
0000
,
0000
0000
0001
0001
0001
0001
0300
0001
,
0101
0010
0010
0010
1010
0001
0001
0001
,
1001
1000
1000
1000
1100
0001
0001
0100
,
0110
0001
0001
0001
0011
0010
0010
0010
,
1001
0001
0001
0010
1010
0100
0100
0001
,
1100
0010
0010
0010
1001
0100
0100
0100
,
0110
0010
0010
0100
0011
1000
1000
0010
,
0101
0010
0010
1000
1001
0001
0001
0001
,
1100
0000
1000
0000
1000
0001
0010
0001
0010
0001
0000
0000
1010
0000
0000
0000
,
1001
0000
0000
0000
0000
0000
0101
0000
0000
0000
0000
0000
0001
0010
0001
0000
0000
0000
1100
0000
0000
0000
0000
0000
,
0110
0000
0000
0000
0000
0000
0011
0000
0000
0000
0000
0000
1000
0010
1000
0000
0000
0000
1001
0000
0000
0000
0000
0000
,
0110
0000
1001
0000
0001
0010
0011
0000
,
0101
0000
1001
0000
1000
0010
1010
0000
,
0110
0000
0011
0000
0010
0010
1001
0000
,
0101
0000
0110
0000
1010
1000
1002
0100
,
0100
0100
0100
0013
1001
0000
1010
0100
,
1000
0010
1000
0100
0010
0001
1010
0100
,
0010
0001
0010
0001
0010
0100
1001
0100
,
0010
0100
1000
0001
0100
0010
1001
0100
,
0001
0100
0010
0001
1000
0010
0100
1000
,
0100
1000
0100
0010
0001
1000
0001
0010
,
0001
0100
0010
0100
0001
0010
0001
1000
,
0010
1000
0001
1000
0001
1000
0001
1000
,
0001
0000
0100
0000
0010
0000
0100
0000
0001
0101
0000
0000
2001
0000
0000
0000
,
0000
3120
0000
0000
0132
0000
0000
0000
,
0000
0000
0003
0000
0000
0000
0000
1000
0010
0000
0200
0000
0000
0000
0300
0020
,
0000
0000
0000
0030
0000
0000
0000
0001
0010
0000
0000
0200
0000
1000
0000
0000
,
0000
0300
0000
0000
;

//---------------dance-single - ----------------
#NOTES:
     dance-single:
     :
     Easy:
     8:
     0.687,0.686,1.000,0.782,0.141,263.000,123.000,75.000,0.000,16.000:
0000
0000
0000
1001
,
1001
0110
1100
1010
,
0110
0101
0011
1001
,
0110
0000
0000
0000
0110
0000
0000
0000
1001
1001
0000
0000
1020
0000
0000
0000
,
0000
0231
0000
0000
2301
0000
0000
0000
,
0000
0000
3000
0000
0000
0000
0000
0010
0100
0000
0002
0000
0000
0000
0003
0200
,
0000
0000
0000
0300
0000
0000
0000
0010
0100
0000
0000
2002
0000
0000
0000
0000
,
0000
0000
0000
0000
0000
0000
3003
2100
,
0000
0000
3012
0000
0000
0213
0000
0000
,
0000
0000
0000
0000
0300
0000
0000
0001
1000
0000
0020
0000
0000
0000
0030
0200
,
0000
0000
0000
0300
0000
0000
0000
0001
1000
0000
0000
0220
0000
0000
0000
0000
,
0000
0000
0000
0000
0000
0000
0002
0000
0000
0000
0000
0000
0333
2000
0000
0000
,
0000
0000
0000
0000
,
3020
0230
0302
0203
,
0000
0000
0000
0000
0000
0000
0000
0320
0000
0000
1000
0030
0200
0000
0000
0000
,
0000
0302
0000
0000
0000
0003
2020
0000
,
0000
3032
0000
0000
2203
0000
3300
0202
,
0000
0303
2000
0000
3002
0000
0203
0000
,
0000
0000
0000
0000
,
0000
0000
0000
0000
0000
0000
0010
0000
0010
0000
0000
0300
0101
0000
0000
0000
,
1001
0000
1010
0000
0010
0010
0011
0000
,
0110
0000
1100
0000
0001
0001
1001
0000
,
0110
0000
1001
0000
1000
1000
1100
0000
,
1010
0000
1001
0000
0001
0001
0101
0000
,
0110
0000
1100
0000
0100
0010
1001
0000
,
1010
0000
0110
0000
0101
0001
2001
0000
,
0000
0000
0000
3000
1001
0000
1010
0100
,
1000
0010
1000
0100
0010
0001
1010
0100
,
0010
0001
0010
0001
0010
0100
1001
0100
,
0010
0100
1000
0001
0100
0010
1001
0100
,
0001
0100
0010
0001
1000
0010
1010
0000
,
0101
1001
0110
1001
,
1001
0110
0011
0101
,
0110
1010
1100
0110
,
1001
0000
0000
0000
1001
0000
0000
0000
0110
0110
0000
0000
0201
0000
0000
0000
,
0000
1320
0000
0000
1032
0000
0000
0000
,
0000
0000
0003
0000
0000
0000
0000
0100
0010
0000
2000
0000
0000
0000
3000
0020
,
0000
0000
0000
0030
0000
0000
0000
0100
0010
0000
0000
2002
0000
0000
0000
0000
,
0000
0000
0000
0000
0000
0000
3003
0012
,
0000
0000
2103
0000
0000
3120
0000
0000
,
0000
0000
0000
0000
0030
0000
0000
1000
0001
0000
0200
0000
0000
0000
0300
0020
,
0000
0000
0000
0030
0000
0000
0000
1000
0001
0000
0000
0220
0000
0000
0000
0000
,
0000
0000
0000
0000
0000
0000
2000
0000
0000
0000
0000
0000
3330
0002
0000
0000
,
0000
0000
0000
0000
,
0203
0320
2030
3020
,
0000
0000
0000
0000
0000
0000
0000
0230
0000
0000
0001
0300
0020
0000
0000
0000
,
0000
2030
0000
0000
0000
3000
0202
0000
,
0000
2303
0000
0000
3022
0000
0033
2020
,
0000
3030
0002
0000
2003
0000
3020
0000
,
0000
0000
0000
0000
,
0000
0000
0000
0000
0000
0000
0100
0000
0100
0000
0000
0030
1010
0000
0000
0000
,
1001
0000
0101
0000
0100
0100
1100
0000
,
0110
0000
0011
0000
1000
1000
1001
0000
,
0110
0000
1001
0000
0001
0001
0011
0000
,
0101
0000
1001
0000
1000
1000
1010
0000
,
0110
0000
0011
0000
0010
0100
1001
0000
,
0101
0000
0110
0000
1010
1000
1002
0000
,
0000
0000
0000
0003
1001
0000
0101
0010
,
0001
0100
0001
0010
0100
1000
0101
0010
,
0100
1000
0100
1000
0100
0010
1001
0010
,
0100
0010
0001
1000
0010
0100
1001
0010
,
1000
0010
0100
1000
0001
0100
0101
0000
,
1010
0110
1001
0110
,
0110
1001
0101
1100
,
1001
0011
1010
0110
,
1001
0000
0000
0000
1001
0000
0000
0000
0110
0110
0000
0000
2100
0000
0000
0000
,
0000
3012
0000
0000
0213
0000
0000
0000
,
0000
0000
0300
0000
0000
0000
0000
1000
0001
0000
0020
0000
0000
0000
0030
0002
,
0000
0000
0000
0003
0000
0000
0000
1000
0001
0000
0000
0220
0000
0000
0000
0000
,
0000
0330
0000
0000
;
