#TITLE:天武の舞、暁の門;
#SUBTITLE:;
#ARTIST:KAORI;
#TITLETRANSLIT:Heaven martial of dancing, A gate with dirt;
#SUBTITLETRANSLIT:;
#ARTISTTRANSLIT:;
#CREDIT:;
#BANNER:VA+-bn.bmp;
#BACKGROUND:VA+-bg.bmp;
#LYRICSPATH:;
#CDTITLE:;
#MUSIC:VA+.mp3;
#OFFSET:-1.304;
#SAMPLESTART:55.300;
#SAMPLELENGTH:12.000;
#SELECTABLE:YES;
#BPMS:0.000=150.000;
#STOPS:;
#BGCHANGES:0.000=tamayuraps2_OP.mpg=1.000=0=0=1,
244.500=V̕Ał̖-bg.bmp=1.000=1=1=1,
99999=-nosongbg-=1.000=0=0=0 // don't automatically add -songbackground-
;
// cache tags:
#FIRSTBEAT:15.500;
#LASTBEAT:245.000;
#SONGFILENAME:Songs/other/chinois 2/VA+.sm;
#HASMUSIC:1;
#HASBANNER:1;
#MUSICLENGTH:99.494;
// end cache tags

//---------------dance-single - ----------------
#NOTES:
     dance-single:
     :
     Hard:
     8:
     0.594,0.708,0.362,0.040,0.151,374.000,36.000,4.000,0.000,0.000:
0000
0000
0000
0000
,
0000
0000
0000
0000
,
0000
0000
0000
0000
,
0000
0000
0000
0000
0000
0000
0000
0001
,
1000
0100
1000
0010
0000
0100
0001
0100
,
0010
1000
0100
0010
0000
0001
0010
0100
,
1001
0001
0100
0010
1100
0100
0001
0010
,
0011
0001
1100
0001
1000
1010
0110
0100
,
0001
0000
0000
0000
0001
0000
0010
0000
0001
0000
0000
1000
0000
0000
0001
0000
,
1000
0000
0000
0001
0000
0000
0010
0000
0001
0000
0000
0000
0110
0000
0000
0000
,
0010
0000
0000
0000
0100
0000
1000
0100
0001
0000
0000
0000
0010
0000
0001
0010
,
1000
0000
0000
0010
0000
0000
0001
0000
1000
0000
0000
0000
0010
0000
1000
0000
,
0001
0000
0010
0000
0001
0000
0100
0000
0010
0000
0000
0000
1001
0000
0000
1000
,
0100
0000
0000
0000
0011
0000
0000
0001
0100
0000
0000
0000
0010
0000
0000
0000
,
1000
0100
1000
0100
0001
0100
0001
0100
,
1000
0001
0100
0010
1000
0001
0100
0000
,
1000
0100
0010
0001
0100
0100
1000
0000
,
0001
0100
0010
1000
0001
0001
0010
0000
,
1000
0100
0010
0001
0100
0001
1000
0100
,
1000
0001
0010
0100
0010
0001
0100
0000
,
0010
1000
0100
1000
0001
0001
0100
0000
,
0010
0001
0100
0010
1000
1000
0001
0000
,
0010
1000
0100
0000
0010
0001
0100
0000
,
0010
0000
0000
0100
0000
0000
1100
0000
0101
0000
0000
0000
0010
0000
0000
0000
,
1000
0000
0000
0001
0000
0000
0100
0000
1000
0000
0000
0100
0000
0000
0001
0000
,
0010
0000
0000
0100
0000
0000
1000
0000
0001
0000
0000
0100
0000
0000
1000
0000
,
0100
0000
0000
0001
0000
0000
0010
0000
0001
0000
0000
1000
0000
0000
0010
0000
,
0100
0000
0000
0001
0000
0000
1000
0000
0101
0000
0000
1100
0000
0000
1001
0000
,
0010
0000
0000
0001
0000
0000
1000
0000
0001
0000
0000
0100
0000
0000
0010
0000
,
1000
0000
0000
0001
0000
0000
0100
0000
0000
0000
0010
0000
1000
0000
0000
0000
,
1100
0001
0100
1000
0001
0100
1000
0010
,
1000
0100
0001
1000
0001
0010
0100
1000
,
1001
0000
0000
1001
0000
0000
0011
0000
0000
0101
0000
0000
1100
0000
0101
0000
,
2002
0000
0000
0000
0000
3003
0000
0000
,
0001
0100
0010
0010
1000
0100
1000
1000
,
0001
0100
0001
1000
0100
0000
1000
0001
,
0010
0000
0010
0000
1100
0000
0001
0100
,
0010
0010
0010
0010
1000
0000
0100
0100
,
1000
0010
0100
0100
0001
0010
0001
0001
,
1000
0010
1000
0001
0010
0000
0001
0100
,
0010
0000
0101
0000
1100
1000
0001
0100
,
0001
0010
0010
0000
0001
0000
0100
0000
,
0010
1000
0010
1000
0100
1000
0100
1000
,
0001
1000
0001
0100
0010
0001
0010
0000
,
0100
0001
0100
0001
0010
0001
0010
0001
,
1000
0001
1000
0010
0100
1000
0100
0000
,
0001
0000
1000
0001
1001
0001
0100
0010
,
1000
0100
0001
0100
1000
0001
0100
0000
,
0010
0000
1000
0010
0110
0010
0001
1000
,
0001
0010
1000
0010
0001
1000
0010
0000
,
0100
1000
0100
0010
0100
0001
0010
0100
,
0110
0000
0000
0110
0000
0000
0011
0000
0000
1100
0000
0000
1001
0000
0100
0000
,
0001
0000
0000
0000
0001
0000
0100
0000
0010
0000
0000
1000
0000
0000
0001
0000
,
1000
0000
0000
0001
0000
0000
0100
0000
0010
0000
0000
0000
0110
0000
0000
0000
,
0010
0000
0000
0000
0100
0000
1000
0100
0001
0000
0000
0000
0010
0000
0001
0010
,
1000
0000
0000
0010
0000
0000
0001
0000
0100
0000
0000
0000
0010
0000
1000
0000
,
0001
0000
0010
0000
0001
0000
0100
0000
0010
0000
0000
0000
1001
0000
0000
0001
,
0010
0000
0000
0000
1100
0000
0000
1000
0010
0000
0000
0000
0100
0000
0000
0000
,
0001
0010
0001
0010
1000
0010
1000
0010
,
0001
1000
0010
0100
0001
1000
0010
0100
,
2002
0000
0000
0000
,
0000
3003
0000
0000
;

//---------------dance-single - ----------------
#NOTES:
     dance-single:
     :
     Easy:
     2:
     0.168,0.211,0.050,0.020,0.000,110.000,5.000,2.000,0.000,0.000:
0000
0000
0000
0000
,
0000
0000
0000
0000
,
0000
0000
0000
0000
,
0000
0000
0000
0000
,
0000
0000
0000
0000
,
0000
0000
0000
0000
,
0000
0000
0000
0000
,
0000
0000
0000
0000
,
1001
0000
0001
0000
,
0100
0100
0010
0000
,
1000
0000
0100
0000
,
0010
0000
0001
0000
,
1000
0000
0000
0000
,
0001
0000
0010
0000
,
0100
0000
1000
0000
,
0001
0000
0000
0000
,
0100
0000
0000
0000
,
0000
0000
0000
0000
,
0010
0000
0000
0000
,
0000
0000
0000
0000
,
0010
1000
0000
1000
,
0010
0001
0000
0001
,
1000
0001
1000
0001
,
0010
0000
0010
0000
,
0001
0001
0100
0000
,
1000
0001
0100
0000
,
0010
0000
0010
0000
,
1000
0100
0010
0000
,
1000
0000
0001
0000
,
0100
0100
0010
0000
,
1000
0000
0001
0000
,
0010
0010
0010
0000
,
1001
0000
0000
0000
,
1001
0000
0000
0000
,
0010
0000
0010
0000
,
0010
0010
0010
0000
,
0100
0000
0100
0000
,
0001
0000
1000
0000
,
0100
0000
0100
0000
,
0100
0100
0100
0000
,
1000
0000
0001
0000
,
0010
0001
0010
0000
,
0001
1000
0000
1000
,
0100
0010
0000
0010
,
0001
0100
0000
0100
,
0010
0000
0010
0010
,
2000
0000
3100
0000
,
0000
0000
0000
0010
,
0002
0000
0103
0000
,
0000
0010
0010
0010
,
0100
0000
0010
0000
,
1000
0000
0000
0000
,
1001
0000
0001
0000
,
0100
0100
0010
0000
,
1000
0000
0100
0000
,
0010
0000
0001
0000
,
1000
0000
0000
0000
,
0001
0000
0010
0000
,
0100
0000
1000
0000
,
0001
0000
0000
0000
,
1001
0000
0000
0000
;

//---------------dance-single - ----------------
#NOTES:
     dance-single:
     :
     Medium:
     5:
     0.392,0.429,0.452,0.151,0.025,213.000,45.000,15.000,0.000,0.000:
0000
0000
0000
0000
,
0000
0000
0000
0000
,
0000
0000
0000
0000
,
0000
0000
0000
0000
,
0001
0000
1000
0000
,
0001
0100
0001
0010
,
0000
0100
1000
0000
,
1100
0011
0101
1100
,
1001
0001
0011
0000
,
0100
0101
1000
1100
,
0101
0000
0000
1000
0001
0000
0000
1000
,
0001
0000
0010
0001
0010
0000
0001
0000
,
0100
0001
0100
0001
,
0010
0010
0011
1100
,
2002
3003
0000
0010
,
0200
0001
0001
0301
,
0010
1000
0000
0100
,
1000
0001
0000
0010
,
0001
0100
0000
0010
,
1000
0001
0000
0100
,
0001
0011
0000
1001
,
0100
1100
0000
1001
,
2000
3100
1002
0103
,
0001
0000
0000
0001
0000
0000
0001
0000
0100
0000
0000
0000
0000
0000
0000
0000
,
0010
1000
1100
1000
,
0001
0100
0001
0010
,
0001
0100
0010
0010
,
1100
0100
1000
0000
,
0001
0100
0010
0100
,
1000
0100
0001
0100
,
0010
0010
0100
0010
,
1100
0011
1100
0011
,
1000
0000
0000
1000
0000
0000
0001
0000
0000
0001
0000
0000
0100
0000
0001
0000
,
0020
0000
0030
0000
,
0110
1001
0110
0000
,
0001
0100
0001
0100
1000
0000
0100
0000
,
0001
0000
0010
1000
0010
0000
1010
0000
,
0101
1001
0001
0000
,
1001
0110
1001
0000
,
0010
0001
0010
0001
0100
0000
0010
0000
,
1000
0000
0001
0000
1000
0100
1000
0000
,
0001
0001
0101
0000
,
0010
0100
0010
1000
,
0001
0000
0100
0000
0010
0001
0010
0000
,
0100
0000
1000
0000
0001
0000
0100
0010
,
0001
0000
1000
0000
1000
0100
1000
0000
,
0001
0000
0000
0100
0200
0000
0000
0000
,
1000
0000
1000
0300
1000
0000
0001
0000
,
0100
0000
0000
0010
0020
0000
0000
0000
,
1030
0001
0101
0011
,
2002
0000
3003
0100
1000
0000
0000
0000
,
0001
0000
0000
0001
0000
0000
1000
0000
0000
1000
0000
0000
0100
0000
0010
0000
,
1001
1000
1100
0000
,
0010
1010
0001
0011
,
1010
0000
0000
0001
1000
0000
0000
0001
,
1000
0000
0100
1000
0100
0000
1000
0000
,
0010
1000
0010
1000
,
0100
0100
1100
0011
,
2002
3003
0000
0100
,
0020
1000
1000
1030
,
0220
0000
0000
0000
,
0330
0000
0000
0000
;
