#TITLE:Bitches;
#SUBTITLE:(µ-ZIQ Remix);
#ARTIST:µ-ZIQ;
#TITLETRANSLIT:;
#SUBTITLETRANSLIT:;
#ARTISTTRANSLIT:;
#CREDIT:Plaguefox (gamecast.org/plaguemix);
#BANNER:bitchesmuziq-bn.png;
#BACKGROUND:bitchesmuziq-bg.jpg;
#LYRICSPATH:;
#CDTITLE:pm2cd.png;
#MUSIC:bitchesmuziq.ogg;
#OFFSET:-0.015;
#SAMPLESTART:44.210;
#SAMPLELENGTH:16.020;
#SELECTABLE:YES;
#BPMS:0.000=216.805;
#STOPS:;
#BGCHANGES:;
// cache tags:
#FIRSTBEAT:32.000;
#LASTBEAT:322.000;
#SONGFILENAME:Songs/plaguemix series/Bitches (-ZIQ Remix)/bitchesmuziq.sm;
#HASMUSIC:1;
#HASBANNER:1;
#MUSICLENGTH:96.314;
// end cache tags

//---------------dance-single - STANDARD----------------
#NOTES:
     dance-single:
     STANDARD:
     Medium:
     7:
     0.515,0.669,0.332,0.083,0.000,307.000,32.000,8.000,0.000,0.000:

0000
0000
0000
0000
,
0000
0000
0000
0000
,
0000
0000
0000
0000
,
0000
0000
0000
0000
,
0000
0000
0000
0000
,
0000
0000
0000
0000
,
0000
0000
0000
0000
,
0000
0000
0000
0000
,
1000
0000
0000
0001
0000
0000
0010
0001
,
0010
0000
0000
0001
0000
0000
0010
0000
,
0001
0000
0000
1000
0000
0100
1000
0100
,
0000
0000
0000
0000
,
0001
0000
0000
1000
0000
0000
0010
1000
,
0010
0000
0000
1000
0000
0000
0010
0000
,
1000
0000
0000
0001
0000
0100
0001
0100
,
0000
0000
0100
0100
,
1001
0000
0000
0101
0000
0000
1100
0000
,
0101
0000
0000
1000
0000
0000
0000
0000
,
1001
0000
0000
1010
0000
0011
0000
1010
,
0000
0000
0010
0010
,
1001
0000
0000
1001
0000
0000
0100
0010
,
0100
0000
0000
1000
0000
0000
0001
0000
,
2002
0000
0000
3003
,
0001
0100
1000
0100
,
0001
0000
0010
1000
0100
0000
0001
0000
,
1000
0000
0010
0001
0100
0000
1000
0000
,
0100
0010
0001
1000
,
0010
1000
0100
0000
0010
0001
0100
0000
,
1001
0100
1001
0010
,
1001
0110
1001
0110
,
0100
0000
0001
0100
0001
0000
1000
0100
,
1000
0100
0001
0100
,
1000
0000
0100
1000
0010
0000
0001
0000
,
1000
0000
0100
0001
0010
0000
1000
0000
,
0010
0100
0001
1000
,
0100
1000
0010
0000
0100
0001
0010
0000
,
1001
0010
1001
0100
,
1001
0110
1001
0110
,
0010
0000
0001
0010
0001
0000
1000
0010
,
1000
0000
0000
0001
0000
0000
1000
0000
,
1002
0100
1000
0100
,
0010
0100
1000
0100
,
0020
0000
0000
0000
,
0033
0000
1000
0000
0001
1000
0000
0000
,
2001
0100
0001
0100
,
0010
0100
0001
0100
,
0020
0000
0000
0000
,
3030
0000
0000
0000
0000
1001
0000
0000
,
1000
0100
0001
0010
,
1000
0100
0001
0010
,
1000
0100
0001
0010
,
1000
0000
0100
0001
0000
0010
1000
0000
,
0010
0001
0100
1000
,
0010
0001
0100
1000
,
0010
0001
0100
1000
,
1001
0000
0001
1000
0001
0000
1001
0000
,
1000
0000
0100
1000
0100
0000
0010
0000
,
0001
0000
0010
0001
0010
0000
0100
0000
,
1000
0000
0100
1000
0010
0000
0100
0000
,
0001
1000
0100
0000
0010
0001
1000
0000
,
0001
0000
0100
0001
0100
0000
0010
0000
,
1000
0000
0010
1000
0010
0000
0100
0000
,
0001
0000
0100
1000
0010
0000
0100
0000
,
1000
0001
0100
0000
0010
1000
0001
0000
,
1000
0000
0010
1000
0010
0000
0100
0000
,
0001
0000
0100
0001
0100
0000
0010
0000
,
1000
0000
0010
1000
0100
0000
0010
0000
,
0001
1000
0010
0000
0100
0001
1000
0000
,
0001
0000
0010
0001
0010
0000
0100
0000
,
1000
0000
0100
1000
0100
0000
0010
0000
,
0001
0000
0010
1000
0100
0000
0010
0000
,
1000
0001
0010
0000
0100
1000
0001
0000
,
1001
0000
1000
0100
0000
0100
1000
0000
,
1000
0000
0100
0010
0001
0010
0000
0000
,
0001
0000
0001
0010
0000
0010
0001
0000
,
0001
0000
0010
0100
1000
0100
0000
0000
,
0010
0000
0010
0100
0000
0100
0010
0000
,
0010
0000
0100
1000
0100
0001
0000
0000
,
1001
0000
0100
1000
0100
1000
0100
0000
,
1001
0000
0010
0001
0010
0001
0010
0000
,
2002
0000
3003
0000
,;

//---------------dance-single - HEAVY----------------
#NOTES:
     dance-single:
     HEAVY:
     Hard:
     9:
     0.664,0.752,0.426,0.187,0.000,389.000,41.000,18.000,0.000,0.000:
0000
0000
0000
0000
,
0000
0000
0000
0000
,
0000
0000
0000
0000
,
0000
0000
0000
0000
,
0000
0000
0000
0000
,
0000
0000
0000
0000
,
0000
0000
0000
0000
,
0000
0000
0000
0000
,
1001
0000
0000
1100
0000
0000
0010
0001
,
0100
0000
0000
1000
0000
0000
0010
0000
,
0101
0000
0000
1001
0000
0010
0100
0001
,
0000
0000
0000
0000
,
1001
0000
0000
0101
0000
0000
0010
1000
,
0100
0000
0000
0001
0000
0000
0010
0000
,
1100
0000
0000
1001
0000
0010
0100
1000
,
0000
0000
0000
0000
0100
0010
0100
0010
,
1001
0000
0000
0011
0000
0000
0100
0001
,
0010
0000
0000
1000
0000
0000
0000
0000
,
0011
0000
0000
1001
0000
0100
0010
0001
,
0000
0000
1000
0000
0010
0100
0010
0100
,
1001
0000
0000
1010
0000
0000
0100
0001
,
0010
0000
0000
1000
0000
0000
0100
0000
,
2002
0000
0000
3003
,
1001
1010
0110
0101
,
1001
0000
0010
1000
0100
1000
0010
0000
,
0100
0000
0010
1000
0100
0000
0001
0000
,
0100
1000
0010
0100
,
0001
0010
0100
0010
0100
0010
0001
0000
,
1001
0100
1001
0010
,
1001
0011
0110
1100
,
0100
0000
1000
0100
0010
0100
0010
0100
,
1000
0000
1000
0100
0001
0100
0000
0000
,
1001
0000
0010
0001
0100
0001
0010
0000
,
0100
0000
0010
0001
0100
0000
1000
0000
,
0100
0001
0010
0100
,
1000
0010
0100
0010
0100
0010
1000
0000
,
1001
0100
1001
0010
,
1001
1010
0110
0101
,
0100
0000
0001
0100
0010
0100
0010
0100
,
0001
0000
0000
0001
0000
0000
0001
0000
,
1001
0000
0100
1000
0100
0010
0100
1000
,
0100
0010
0100
1000
0100
0010
0100
1000
,
0002
0000
0000
0000
,
0003
0000
1000
0000
0001
1000
0000
0000
,
1001
0000
0010
0001
0010
0100
0010
0001
,
0010
0100
0010
0001
0010
0100
0010
0001
,
2000
0000
0000
0000
,
3001
0000
0000
0000
0000
0011
0000
0000
,
1000
0100
1000
0100
0010
0001
0010
0100
,
1000
0010
0100
0001
0010
1000
0010
0001
,
1000
0100
0010
0001
0100
0010
1000
0100
,
0010
0000
0001
0100
0000
0001
0100
0000
,
0001
0100
0001
0100
0010
1000
0010
0100
,
0001
0010
0100
1000
0010
0001
0010
1000
,
0100
0010
0001
0100
0010
1000
0100
0010
,
0001
1000
0001
0100
0001
1000
0001
0000
,
1001
0000
0100
1000
0010
0100
0001
0010
,
0100
0000
0100
1000
0100
0010
0100
0001
,
0100
0000
0100
1000
0001
0010
0100
1000
,
0010
0000
0010
0001
0010
0100
0010
1000
,
0010
0000
0010
1000
0100
0010
0001
1000
,
0001
0000
0001
0010
0001
0100
0001
1000
,
0001
0000
0001
0010
0100
1000
0100
0010
,
0001
1000
0000
1000
0000
1000
0100
0010
,
0001
0000
0001
0010
0100
1000
0100
0010
,
0001
0000
1000
0100
0010
0001
0010
0100
,
1000
0000
0001
0010
0100
1000
0100
0010
,
0001
0010
0001
0010
0001
0010
0001
0000
,
1000
0000
0001
0010
0100
1000
0000
0100
,
0000
1000
0101
0000
0001
1100
0000
1000
,
0101
0000
0001
0100
0001
0000
1000
0000
,
1000
0001
0000
1000
0000
0001
0010
0100
,
2000
0000
3100
0002
0000
0103
2000
0000
,
3002
0000
0013
1000
0010
0001
0000
1000
,
0002
0000
0103
2000
0000
3100
0002
0000
,
2003
0000
3010
0001
0010
1000
0000
0001
,
0020
0000
0130
2000
0000
3010
0200
0000
,
0302
0000
0013
0100
1000
0010
0000
0000
,
1000
0100
0010
0100
0001
0100
0010
0100
,
1000
0010
0100
0010
0001
0010
0100
0010
,
2002
0000
3003
0000
;

//---------------dance-single - LIGHT----------------
#NOTES:
     dance-single:
     LIGHT:
     Easy:
     6:
     0.438,0.623,0.509,0.042,0.000,242.000,49.000,4.000,0.000,0.000:
0000
0000
0000
0000
,
0000
0000
0000
0000
,
0000
0000
0000
0000
,
0000
0000
0000
0000
,
0000
0000
0000
0000
,
0000
0000
0000
0000
,
0000
0000
0000
0000
,
0000
0000
0000
0000
,
1000
0000
0000
1000
0000
0000
0000
0000
,
1001
0000
0000
0000
,
0100
0000
0000
0100
0000
0000
0000
1001
,
0000
0000
0000
0000
,
0001
0000
0000
0001
0000
0000
0000
0000
,
1001
0000
0000
0000
,
0010
0000
0000
0010
0000
0000
0000
1001
,
0000
0000
0000
0000
,
0010
0000
0000
0010
0000
0000
0000
0000
,
0110
0000
0000
0000
,
1000
0000
0000
1000
0000
0000
0000
0110
,
0000
0000
0000
0000
,
0100
0000
0000
0100
0000
0000
0000
0000
,
0110
0000
0000
0000
,
0001
0000
0000
0001
0000
0000
0000
0000
,
1001
1001
1001
1001
,
0100
0010
1000
0100
,
0010
0100
1000
0010
,
0100
0001
0010
0001
,
0100
0010
1000
0100
,
1001
1000
1001
0001
,
1001
0110
1001
0110
,
0001
0010
0100
1000
,
0100
0000
1000
0001
1000
0000
1000
0000
,
0010
0100
0001
0010
,
0100
0010
0001
0100
,
0010
1000
0100
1000
,
0010
0100
0001
0010
,
1001
0001
1001
1000
,
1001
0110
1001
0110
,
1000
0100
0010
0001
,
0001
0000
0000
1000
0000
0000
0001
0000
,
1001
0000
0001
0010
0001
0000
0010
0001
,
0010
0000
0001
0010
0001
0000
0010
0000
,
2002
0000
0000
0000
,
3003
0100
0010
0000
,
1001
0000
1000
0010
1000
0000
0010
1000
,
0010
0000
1000
0010
1000
0000
0010
0000
,
2002
0000
0000
0000
,
3003
0100
0010
0000
,
1000
0100
0001
0100
,
1000
0100
0001
0100
,
1000
0100
0001
0100
,
1001
0000
0000
1001
0000
0000
0000
0000
,
0001
0100
1000
0100
,
0001
0100
1000
0100
,
0001
0001
1000
1000
,
0001
0100
0001
0000
1000
0100
1000
0000
,
1001
1000
0100
0001
,
0010
1001
0010
0100
,
1001
0010
0100
0010
,
1001
0110
1001
0000
,
0110
0100
0001
0010
,
1000
0110
1000
0001
,
0110
1000
0001
1000
,
0110
1001
0110
0000
,
1001
1000
0100
0001
,
0010
1001
0010
0100
,
1001
0010
0100
0010
,
0001
0001
1000
1000
,
0001
0010
0100
1000
,
0000
0000
1001
0000
0000
0110
0000
0000
,
1001
0100
0010
0001
,
0100
0000
0000
1001
0000
0000
0000
0000
,
1000
0100
0001
0100
,
1000
0010
0100
0001
,
0010
1000
0010
0001
,
0100
0010
1000
0100
,
0001
0100
0010
0001
,
0010
1000
0010
0100
,
1000
0100
0001
0100
,
0010
0001
0010
0001
,
1001
0000
0000
0000
;
