#TITLE:Dawn;
#SUBTITLE:;
#ARTIST:KaW;
#TITLETRANSLIT:;
#SUBTITLETRANSLIT:;
#ARTISTTRANSLIT:;
#CREDIT:;
#BANNER:dawn-banner.png;
#BACKGROUND:Dawn-bg.png;
#LYRICSPATH:;
#CDTITLE:;
#MUSIC:KaW - Dawn (Moonlight Mix).ogg;
#OFFSET:-0.020;
#SAMPLESTART:31.280;
#SAMPLELENGTH:13.810;
#SELECTABLE:YES;
#DISPLAYBPM:138.000;
#BPMS:0.000=138.000;
#STOPS:;
#BGCHANGES:;
// cache tags:
#FIRSTBEAT:20.000;
#LASTBEAT:264.000;
#SONGFILENAME:Songs/In The Dump/Dawn/Dawn.sm;
#HASMUSIC:1;
#HASBANNER:1;
#MUSICLENGTH:119.949;
// end cache tags

//---------------dance-single - @276 16 (47) 16----------------
#NOTES:
     dance-single:
     @276 16 (47) 16:
     Challenge:
     22:
     1.000,1.000,0.100,0.050,1.000,872.000,12.000,6.000,0.000,0.000:
0000
0000
0000
0000
,
0000
0000
0000
0000
,
0000
0000
0000
0000
,
0000
0000
0000
0000
,
0000
0000
0000
0000
,
1000
0000
0001
0100
0010
0000
0100
0010
1000
0000
0010
0100
0001
0000
1000
0001
,
0100
0000
0010
0100
0001
0000
0010
0001
1000
0000
0010
0000
0010
0000
0000
0000
,
1000
0000
0010
0100
0001
0000
0100
0001
0100
0000
0010
1000
0001
0000
1000
0001
,
0100
0011
0000
0000
,
1000
0000
0001
0000
0100
0000
0010
0100
0000
0010
0100
0000
0001
0000
0001
0000
,
0010
0000
0100
0000
1000
0000
0100
1000
0000
0100
1000
0000
0010
0000
0010
0000
,
0100
0000
0001
0000
0100
0000
0001
0100
0000
0001
0100
0000
0001
0000
0001
0000
,
1000
0000
0001
0000
0100
0000
0010
1000
0000
0010
1000
0000
1100
0000
0000
0000
,
0002
0000
0000
0000
0103
0000
0000
0010
0100
0000
0001
0000
1000
0010
0000
0000
,
2000
0000
0000
0000
3010
0000
0000
0100
0010
0000
1000
0000
0010
0000
1000
0000
,
0002
0000
0000
0000
0103
0000
0000
0010
0100
0000
0001
0000
1000
0000
0010
0000
,
2000
0000
0000
0000
3001
0000
0000
1000
0010
0000
0100
0000
0001
0000
0100
0000
,
0110
0000
0000
0000
,
1000
0001
1000
0010
0100
0001
0010
0100
1000
0001
0100
0010
1000
0001
0010
0100
1000
0010
0100
0001
1000
0100
0010
0001
1000
0010
1000
0001
0010
0100
1000
0010
,
0100
0001
1000
0100
0010
0001
1000
0010
0100
0001
0010
0100
1000
0001
0100
0010
1000
0001
0010
0100
0010
0001
1000
0010
0100
0001
0010
0100
1000
0001
0100
0010
,
1000
0001
0010
0100
1000
0001
0100
0010
1000
0100
0010
0001
1000
0001
0100
0010
1000
0001
0010
0100
1000
0010
0100
0001
1000
0100
0010
0001
1000
0010
0100
0001
,
1000
0100
0010
0001
0100
0010
1000
0001
1000
0100
0010
0001
1000
0010
0100
0001
1000
0100
0010
0001
0100
0010
1000
0001
0010
0100
1000
0001
0100
0010
1000
0001
,
0010
0001
0100
0010
1000
0001
0010
0100
1000
0001
0100
0010
1000
0001
0010
0100
1000
0010
0100
0001
1000
0100
0010
0001
1000
0010
1000
0100
0010
0001
1000
0010
,
0100
0001
1000
0100
0010
0001
1000
0010
0100
0001
0010
0100
1000
0001
0100
0010
1000
0001
1000
0100
0010
0001
0100
0010
1000
0001
0010
0100
1000
0001
0100
0010
,
1000
0001
0010
0100
1000
0010
0100
0001
1000
0100
0010
0100
1000
0001
0100
0010
1000
0100
0010
0001
1000
0010
0100
0001
1000
0100
0010
0001
0100
0010
1000
0001
,
0010
0100
1000
0001
1000
0010
0100
0001
1000
0100
0010
0001
0100
0010
1000
0001
0010
0100
1000
0001
0100
0010
1000
0001
0010
0100
1000
0010
1000
0001
0100
0010
,
1000
0000
0001
0000
1000
0000
0001
0100
0000
0001
1000
0000
0010
0000
0010
0000
,
0100
0000
0001
0000
0100
0000
0010
1000
0000
0010
0100
0000
0001
0000
0001
0000
,
1000
0000
0010
0000
0100
0000
0001
0100
0000
0100
0001
0000
0100
0000
0010
0000
,
1000
0000
0001
0000
0100
0000
0100
0010
0000
1000
0010
0000
1000
0000
0001
0000
,
1000
0000
0010
0000
1000
0000
0001
0100
0000
0001
1000
0000
0010
0000
0010
0000
,
0100
0000
0001
0000
0100
0000
0010
1000
0000
0010
0100
0000
0001
0000
0001
0000
,
1000
0000
0010
0100
0010
0000
1000
0100
0000
1000
0001
0000
0100
0000
0010
0000
,
0100
0000
0001
0100
0001
0000
0100
0010
0000
1000
0010
0000
1000
0000
0001
0000
,
1000
0000
0000
0000
,
0001
0000
0000
0001
0010
0000
0000
0001
0000
0000
0100
0000
0000
0010
0000
0000
,
1000
0000
0000
0010
1000
0000
0000
0001
0100
0010
0100
0000
0010
1000
0100
0000
,
1000
0000
0000
1000
0010
0000
0000
1000
0000
0000
0001
0000
0000
0100
0000
0000
,
0010
0000
0000
0010
1000
0000
0000
1000
0010
0100
0010
0000
1000
0010
0100
0001
,
1000
0000
0000
1000
0100
0000
0000
1000
0000
0000
0010
0000
0000
0100
0000
0000
,
0001
0000
0000
0100
0001
0000
0000
1000
0010
0100
0010
0000
0100
0010
1000
0000
,
0010
0000
0000
0100
0001
0000
0000
1000
0000
0000
0010
0000
0000
0100
0000
0000
,
0010
0000
0000
1000
0010
0000
0000
0100
0001
0100
0010
0000
1000
0010
1000
0000
,
0002
0000
0000
0000
0000
0000
0103
0000
,
0200
0000
0000
0000
0000
0000
0310
0000
,
1100
0000
0100
0000
1000
0000
0010
1000
0000
1000
0010
0000
1100
0000
0001
0000
,
0110
0000
0001
0000
0100
0000
0010
0100
0000
0100
0001
0000
0110
0000
0001
0000
,
1100
0000
0010
0000
0100
0000
0001
0100
0000
0100
0001
0000
1100
0000
1000
0000
,
0110
0000
0100
0000
0001
0000
0010
0001
0000
0100
0001
0000
1100
0000
1000
0000
,
1001
0000
0000
0000
0000
0000
0000
0000
1000
0001
1000
0000
1000
0001
1000
0000
,
0001
1000
0001
0100
0010
1000
0100
0010
0001
1000
0010
0100
0001
1000
0100
0010
0001
0100
0010
1000
0001
0010
0100
1000
0001
1000
0010
0100
0001
1000
0100
0010
,
0001
0100
0010
1000
0001
0010
0100
1000
0001
0100
0010
1000
0001
0010
0100
1000
0010
0100
0010
1000
0001
0010
0100
1000
0001
0100
0010
1000
0100
0010
0001
1000
,
0010
0100
0001
1000
0100
0010
0001
1000
0010
0100
0010
1000
0100
0010
0001
1000
0010
0100
0001
1000
0100
0010
0001
1000
0010
0100
0001
0010
0100
1000
0001
0100
,
0010
1000
0001
0010
0001
1000
0010
0100
0001
0010
0100
1000
0001
0100
0010
1000
0001
0010
0100
1000
0010
0100
0001
1000
0100
0010
0001
1000
0001
0100
0010
1000
,
0001
0010
0100
1000
0010
0100
0001
1000
0100
0010
0001
1000
0010
0100
0001
1000
0100
0010
0001
0100
0001
1000
0100
0010
0001
1000
0010
0100
0001
1000
0100
0010
,
0001
0100
0010
1000
0001
0010
0100
1000
0001
0100
0010
0100
0001
0010
0100
1000
0001
0100
0010
1000
0001
0010
0100
1000
0010
0100
0001
1000
0100
0010
0001
1000
,
0010
0100
0010
1000
0100
0010
0001
1000
0010
0100
0001
1000
0100
0010
0001
0100
0010
1000
0001
0010
0100
1000
0001
0100
0010
1000
0001
0010
0001
0100
0010
1000
,
0001
0010
0100
1000
0001
0100
0010
1000
0100
0010
0001
1000
0010
0100
0001
1000
0100
0010
0001
1000
0010
0100
0001
0010
0001
1000
0010
0100
0001
1000
0100
0010
,
0001
0000
1000
0000
0001
0000
1000
0010
0000
1000
0001
0000
0100
0000
0100
0000
,
0010
0000
1000
0000
0010
0000
0100
0001
0000
0100
0010
0000
1000
0000
1000
0000
,
0001
0000
0100
0000
0001
0000
0100
0010
0000
1000
0010
0000
0010
0000
0100
0000
,
0010
0000
1000
0000
0001
0000
0100
0010
0000
0100
0001
0000
0001
0000
1000
0000
,
0001
0000
0100
0000
0001
0000
1000
0010
0000
1000
0001
0000
0100
0000
0100
0000
,
0010
0000
1000
0000
0010
0000
0100
0001
0000
0100
0010
0000
1000
0000
1000
0000
,
0001
0000
0100
0010
1000
0000
0010
1000
0000
1000
0010
0000
0100
0000
0001
0000
,
0100
0000
0010
0000
0010
0000
0100
0001
0000
0001
0100
0000
0001
0000
1000
0000
,
0001
0000
0000
0000
;

//---------------dance-single - @242 14 (41) 14----------------
#NOTES:
     dance-single:
     @242 14 (41) 14:
     Hard:
     17:
     0.984,1.000,0.100,0.050,1.000,808.000,12.000,6.000,0.000,0.000:
0000
0000
0000
0000
,
0000
0000
0000
0000
,
0000
0000
0000
0000
,
0000
0000
0000
0000
,
0000
0000
0000
0000
,
1000
0000
0001
0100
0010
0000
0100
0010
1000
0000
0010
0100
0001
0000
1000
0001
,
0100
0000
0010
0100
0001
0000
0010
0001
1000
0000
0010
0000
0010
0000
0000
0000
,
1000
0000
0010
0100
0001
0000
0100
0001
0100
0000
0010
1000
0001
0000
1000
0001
,
0100
0011
0000
0000
,
1000
0000
0001
0000
0100
0000
0010
0100
0000
0010
0100
0000
0001
0000
0001
0000
,
0010
0000
0100
0000
1000
0000
0100
1000
0000
0100
1000
0000
0010
0000
0010
0000
,
0100
0000
0001
0000
0100
0000
0001
0100
0000
0001
0100
0000
0001
0000
0001
0000
,
1000
0000
0001
0000
0100
0000
0010
1000
0000
0010
1000
0000
1100
0000
0000
0000
,
0002
0000
0000
0000
0103
0000
0000
0010
0100
0000
0001
0000
1000
0010
0000
0000
,
2000
0000
0000
0000
3010
0000
0000
0100
0010
0000
1000
0000
0010
0000
1000
0000
,
0002
0000
0000
0000
0103
0000
0000
0010
0100
0000
0001
0000
1000
0000
0010
0000
,
2000
0000
0000
0000
3001
0000
0000
1000
0010
0000
0100
0000
0001
0000
0100
0000
,
0110
0000
0000
0000
,
1000
0000
0000
0000
0000
0000
0000
0100
0000
0000
0000
0000
0000
0000
0010
0000
0000
0000
0000
0000
0000
0100
0000
0000
0000
0000
0000
1000
0000
0000
0000
0000
0000
0000
0001
0000
0000
0000
0000
0000
0000
0100
0000
0000
0000
0000
0000
0000
0010
0000
0000
0000
0000
0000
0000
1000
0000
0000
0000
0000
0000
0000
0001
0000
0000
0000
0000
0000
0000
0010
0000
0000
0000
0000
0000
0100
0000
0000
0000
0000
0000
0000
1000
0000
0000
0000
0000
0000
0000
0001
0000
0000
0000
0000
0000
0000
0100
0000
0000
0000
0000
0000
0000
0010
0000
0000
0000
0000
0000
0000
1000
0000
0000
0000
0000
0000
0000
0100
0000
0000
0000
0000
0000
0010
0000
0000
0000
0000
0000
0000
0001
0000
0000
0000
0000
0000
0000
1000
0000
0000
0000
0000
0000
0000
0010
0000
0000
0000
0000
0000
0000
0100
0000
0000
0000
0000
0000
0000
0001
0000
0000
0000
0000
0000
0000
1000
0000
0000
0000
0000
0000
0100
0000
0000
0000
0000
0000
0000
1000
0000
0000
0000
0000
0000
0000
0010
0000
0000
0000
0000
0000
0000
,
0100
0000
0000
0000
0000
0000
0000
0001
0000
0000
0000
0000
0000
0000
1000
0000
0000
0000
0000
0000
0000
0100
0000
0000
0000
0000
0000
0010
0000
0000
0000
0000
0000
0000
0001
0000
0000
0000
0000
0000
0000
1000
0000
0000
0000
0000
0000
0000
0010
0000
0000
0000
0000
0000
0000
0100
0000
0000
0000
0000
0000
0000
0001
0000
0000
0000
0000
0000
0000
0010
0000
0000
0000
0000
0000
0100
0000
0000
0000
0000
0000
0000
1000
0000
0000
0000
0000
0000
0000
0001
0000
0000
0000
0000
0000
0000
0100
0000
0000
0000
0000
0000
0000
0010
0000
0000
0000
0000
0000
0000
1000
0000
0000
0000
0000
0000
0000
0001
0000
0000
0000
0000
0000
0010
0000
0000
0000
0000
0000
0000
0100
0000
0000
0000
0000
0000
0000
1000
0000
0000
0000
0000
0000
0000
0001
0000
0000
0000
0000
0000
0000
1000
0000
0000
0000
0000
0000
0000
0010
0000
0000
0000
0000
0000
0000
0100
0000
0000
0000
0000
0000
0001
0000
0000
0000
0000
0000
0000
0010
0000
0000
0000
0000
0000
0000
0100
0000
0000
0000
0000
0000
0000
,
1000
0000
0000
0000
0000
0000
0000
0001
0000
0000
0000
0000
0000
0000
0100
0000
0000
0000
0000
0000
0000
0010
0000
0000
0000
0000
0000
1000
0000
0000
0000
0000
0000
0000
0001
0000
0000
0000
0000
0000
0000
0010
0000
0000
0000
0000
0000
0000
0100
0000
0000
0000
0000
0000
0000
1000
0000
0000
0000
0000
0000
0000
0001
0000
0000
0000
0000
0000
0000
0100
0000
0000
0000
0000
0000
0010
0000
0000
0000
0000
0000
0000
1000
0000
0000
0000
0000
0000
0000
0100
0000
0000
0000
0000
0000
0000
0010
0000
0000
0000
0000
0000
0000
0001
0000
0000
0000
0000
0000
0000
1000
0000
0000
0000
0000
0000
0000
0010
0000
0000
0000
0000
0000
1000
0000
0000
0000
0000
0000
0000
0001
0000
0000
0000
0000
0000
0000
0010
0000
0000
0000
0000
0000
0000
0100
0000
0000
0000
0000
0000
0000
1000
0000
0000
0000
0000
0000
0000
0010
0000
0000
0000
0000
0000
0000
0100
0000
0000
0000
0000
0000
0001
0000
0000
0000
0000
0000
0000
1000
0000
0000
0000
0000
0000
0000
0100
0000
0000
0000
0000
0000
0000
,
0010
0000
0000
0000
0000
0000
0000
0001
0000
0000
0000
0000
0000
0000
1000
0000
0000
0000
0000
0000
0000
0010
0000
0000
0000
0000
0000
0100
0000
0000
0000
0000
0000
0000
0001
0000
0000
0000
0000
0000
0000
1000
0000
0000
0000
0000
0000
0000
0100
0000
0000
0000
0000
0000
0000
0010
0000
0000
0000
0000
0000
0000
0001
0000
0000
0000
0000
0000
0000
0100
0000
0000
0000
0000
0000
0010
0000
0000
0000
0000
0000
0000
1000
0000
0000
0000
0000
0000
0000
0001
0000
0000
0000
0000
0000
0000
0010
0000
0000
0000
0000
0000
0000
0001
0000
0000
0000
0000
0000
0000
1000
0000
0000
0000
0000
0000
0000
0010
0000
0000
0000
0000
0000
0100
0000
0000
0000
0000
0000
0000
0001
0000
0000
0000
0000
0000
0000
1000
0000
0000
0000
0000
0000
0000
0100
0000
0000
0000
0000
0000
0000
0010
0000
0000
0000
0000
0000
0000
0001
0000
0000
0000
0000
0000
0000
0100
0000
0000
0000
0000
0000
0010
0000
0000
0000
0000
0000
0000
1000
0000
0000
0000
0000
0000
0000
0001
0000
0000
0000
0000
0000
0000
,
0010
0000
0000
0000
0000
0000
0000
0100
0000
0000
0000
0000
0000
0000
1000
0000
0000
0000
0000
0000
0000
0001
0000
0000
0000
0000
0000
0100
0000
0000
0000
0000
0000
0000
0010
0000
0000
0000
0000
0000
0000
1000
0000
0000
0000
0000
0000
0000
0001
0000
0000
0000
0000
0000
0000
0010
0000
0000
0000
0000
0000
0000
0100
0000
0000
0000
0000
0000
0000
0010
0000
0000
0000
0000
0000
0001
0000
0000
0000
0000
0000
0000
0100
0000
0000
0000
0000
0000
0000
0010
0000
0000
0000
0000
0000
0000
1000
0000
0000
0000
0000
0000
0000
0001
0000
0000
0000
0000
0000
0000
0010
0000
0000
0000
0000
0000
0000
0100
0000
0000
0000
0000
0000
1000
0000
0000
0000
0000
0000
0000
0001
0000
0000
0000
0000
0000
0000
0100
0000
0000
0000
0000
0000
0000
0010
0000
0000
0000
0000
0000
0000
1000
0000
0000
0000
0000
0000
0000
0100
0000
0000
0000
0000
0000
0000
0010
0000
0000
0000
0000
0000
0001
0000
0000
0000
0000
0000
0000
1000
0000
0000
0000
0000
0000
0000
0010
0000
0000
0000
0000
0000
0000
,
0100
0000
0000
0000
0000
0000
0000
0001
0000
0000
0000
0000
0000
0000
1000
0000
0000
0000
0000
0000
0000
0100
0000
0000
0000
0000
0000
0010
0000
0000
0000
0000
0000
0000
0001
0000
0000
0000
0000
0000
0000
0100
0000
0000
0000
0000
0000
0000
0001
0000
0000
0000
0000
0000
0000
1000
0000
0000
0000
0000
0000
0000
0100
0000
0000
0000
0000
0000
0000
0010
0000
0000
0000
0000
0000
0001
0000
0000
0000
0000
0000
0000
1000
0000
0000
0000
0000
0000
0000
0010
0000
0000
0000
0000
0000
0000
0100
0000
0000
0000
0000
0000
0000
0001
0000
0000
0000
0000
0000
0000
1000
0000
0000
0000
0000
0000
0000
0100
0000
0000
0000
0000
0000
0010
0000
0000
0000
0000
0000
0000
0001
0000
0000
0000
0000
0000
0000
0100
0000
0000
0000
0000
0000
0000
0010
0000
0000
0000
0000
0000
0000
1000
0000
0000
0000
0000
0000
0000
0001
0000
0000
0000
0000
0000
0000
0010
0000
0000
0000
0000
0000
0100
0000
0000
0000
0000
0000
0000
1000
0000
0000
0000
0000
0000
0000
0001
0000
0000
0000
0000
0000
0000
,
0100
0000
0000
0000
0000
0000
0000
0010
0000
0000
0000
0000
0000
0000
1000
0000
0000
0000
0000
0000
0000
0100
0000
0000
0000
0000
0000
0010
0000
0000
0000
0000
0000
0000
0100
0000
0000
0000
0000
0000
0000
1000
0000
0000
0000
0000
0000
0000
0001
0000
0000
0000
0000
0000
0000
0100
0000
0000
0000
0000
0000
0000
0010
0000
0000
0000
0000
0000
0000
1000
0000
0000
0000
0000
0000
0001
0000
0000
0000
0000
0000
0000
0010
0000
0000
0000
0000
0000
0000
0100
0000
0000
0000
0000
0000
0000
1000
0000
0000
0000
0000
0000
0000
0001
0000
0000
0000
0000
0000
0000
0100
0000
0000
0000
0000
0000
0000
0010
0000
0000
0000
0000
0000
1000
0000
0000
0000
0000
0000
0000
0100
0000
0000
0000
0000
0000
0000
0010
0000
0000
0000
0000
0000
0000
0001
0000
0000
0000
0000
0000
0000
1000
0000
0000
0000
0000
0000
0000
0010
0000
0000
0000
0000
0000
0000
0100
0000
0000
0000
0000
0000
0001
0000
0000
0000
0000
0000
0000
1000
0000
0000
0000
0000
0000
0000
0100
0000
0000
0000
0000
0000
0000
,
1000
0000
0000
0000
0000
0000
0000
0001
0000
0000
0000
0000
0000
0000
0100
0000
0000
0000
0000
0000
0000
0010
0000
0000
0000
0000
0000
1000
0000
0000
0000
0000
0000
0000
0100
0000
0000
0000
0000
0000
0000
0010
0000
0000
0000
0000
0000
0000
0001
0000
0000
0000
0000
0000
0000
1000
0000
0000
0000
0000
0000
0000
0010
0000
0000
0000
0000
0000
0000
0100
0000
0000
0000
0000
0000
0001
0000
0000
0000
0000
0000
0000
1000
0000
0000
0000
0000
0000
0000
0100
0000
0000
0000
0000
0000
0000
0010
0000
0000
0000
0000
0000
0000
0001
0000
0000
0000
0000
0000
0000
0100
0000
0000
0000
0000
0000
0000
0010
0000
0000
0000
0000
0000
1000
0000
0000
0000
0000
0000
0000
0001
0000
0000
0000
0000
0000
0000
0010
0000
0000
0000
0000
0000
0000
0100
0000
0000
0000
0000
0000
0000
1000
0000
0000
0000
0000
0000
0000
0001
0000
0000
0000
0000
0000
0000
0100
0000
0000
0000
0000
0000
0010
0000
0000
0000
0000
0000
0000
0100
0000
0000
0000
0000
0000
0000
0001
0000
0000
0000
0000
0000
0000
,
1000
0000
0001
0000
1000
0000
0001
0100
0000
0001
1000
0000
0010
0000
0010
0000
,
0100
0000
0001
0000
0100
0000
0010
1000
0000
0010
0100
0000
0001
0000
0001
0000
,
1000
0000
0010
0000
0100
0000
0001
0100
0000
0100
0001
0000
0100
0000
0010
0000
,
1000
0000
0001
0000
0100
0000
0100
0010
0000
1000
0010
0000
1000
0000
0001
0000
,
1000
0000
0010
0000
1000
0000
0001
0100
0000
0001
1000
0000
0010
0000
0010
0000
,
0100
0000
0001
0000
0100
0000
0010
1000
0000
0010
0100
0000
0001
0000
0001
0000
,
1000
0000
0010
0100
0010
0000
1000
0100
0000
1000
0001
0000
0100
0000
0010
0000
,
0100
0000
0001
0100
0001
0000
0100
0010
0000
1000
0010
0000
1000
0000
0001
0000
,
1000
0000
0000
0000
,
0001
0000
0000
0001
0010
0000
0000
0001
0000
0000
0100
0000
0000
0010
0000
0000
,
1000
0000
0000
0010
1000
0000
0000
0001
0100
0010
0100
0000
0010
1000
0100
0000
,
1000
0000
0000
1000
0010
0000
0000
1000
0000
0000
0001
0000
0000
0100
0000
0000
,
0010
0000
0000
0010
1000
0000
0000
1000
0010
0100
0010
0000
1000
0010
0100
0001
,
1000
0000
0000
1000
0100
0000
0000
1000
0000
0000
0010
0000
0000
0100
0000
0000
,
0001
0000
0000
0100
0001
0000
0000
1000
0010
0100
0010
0000
0100
0010
1000
0000
,
0010
0000
0000
0100
0001
0000
0000
1000
0000
0000
0010
0000
0000
0100
0000
0000
,
0010
0000
0000
1000
0010
0000
0000
0100
0001
0100
0010
0000
1000
0010
1000
0000
,
0002
0000
0000
0000
0000
0000
0103
0000
,
0200
0000
0000
0000
0000
0000
0310
0000
,
1100
0000
0100
0000
1000
0000
0010
1000
0000
1000
0010
0000
1100
0000
0001
0000
,
0110
0000
0001
0000
0100
0000
0010
0100
0000
0100
0001
0000
0110
0000
0001
0000
,
1100
0000
0010
0000
0100
0000
0001
0100
0000
0100
0001
0000
1100
0000
1000
0000
,
0110
0000
0100
0000
0001
0000
0010
0001
0000
0100
0001
0000
1100
0000
1000
0000
,
1001
0000
0000
0000
0000
0000
0000
0000
1000
0001
1000
0000
1000
0001
1000
0000
,
0001
0000
0000
0000
0000
0000
0000
1000
0000
0000
0000
0000
0000
0000
0100
0000
0000
0000
0000
0000
0000
0010
0000
0000
0000
0000
0000
0001
0000
0000
0000
0000
0000
0000
0100
0000
0000
0000
0000
0000
0000
0001
0000
0000
0000
0000
0000
0000
1000
0000
0000
0000
0000
0000
0000
0100
0000
0000
0000
0000
0000
0000
0010
0000
0000
0000
0000
0000
0000
0001
0000
0000
0000
0000
0000
1000
0000
0000
0000
0000
0000
0000
0010
0000
0000
0000
0000
0000
0000
0100
0000
0000
0000
0000
0000
0000
0001
0000
0000
0000
0000
0000
0000
1000
0000
0000
0000
0000
0000
0000
0100
0000
0000
0000
0000
0000
0000
0010
0000
0000
0000
0000
0000
0001
0000
0000
0000
0000
0000
0000
0100
0000
0000
0000
0000
0000
0000
0010
0000
0000
0000
0000
0000
0000
1000
0000
0000
0000
0000
0000
0000
0001
0000
0000
0000
0000
0000
0000
0010
0000
0000
0000
0000
0000
0000
0100
0000
0000
0000
0000
0000
1000
0000
0000
0000
0000
0000
0000
0001
0000
0000
0000
0000
0000
0000
0100
0000
0000
0000
0000
0000
0000
,
0010
0000
0000
0000
0000
0000
0000
1000
0000
0000
0000
0000
0000
0000
0001
0000
0000
0000
0000
0000
0000
1000
0000
0000
0000
0000
0000
0100
0000
0000
0000
0000
0000
0000
0010
0000
0000
0000
0000
0000
0000
0001
0000
0000
0000
0000
0000
0000
0100
0000
0000
0000
0000
0000
0000
0010
0000
0000
0000
0000
0000
0000
1000
0000
0000
0000
0000
0000
0000
0001
0000
0000
0000
0000
0000
0010
0000
0000
0000
0000
0000
0000
0100
0000
0000
0000
0000
0000
0000
1000
0000
0000
0000
0000
0000
0000
0001
0000
0000
0000
0000
0000
0000
0100
0000
0000
0000
0000
0000
0000
0010
0000
0000
0000
0000
0000
0000
1000
0000
0000
0000
0000
0000
0001
0000
0000
0000
0000
0000
0000
0010
0000
0000
0000
0000
0000
0000
0100
0000
0000
0000
0000
0000
0000
1000
0000
0000
0000
0000
0000
0000
0010
0000
0000
0000
0000
0000
0000
0100
0000
0000
0000
0000
0000
0000
0001
0000
0000
0000
0000
0000
1000
0000
0000
0000
0000
0000
0000
0001
0000
0000
0000
0000
0000
0000
0010
0000
0000
0000
0000
0000
0000
,
0100
0000
0000
0000
0000
0000
0000
1000
0000
0000
0000
0000
0000
0000
0001
0000
0000
0000
0000
0000
0000
0100
0000
0000
0000
0000
0000
0010
0000
0000
0000
0000
0000
0000
1000
0000
0000
0000
0000
0000
0000
0001
0000
0000
0000
0000
0000
0000
0010
0000
0000
0000
0000
0000
0000
0100
0000
0000
0000
0000
0000
0000
1000
0000
0000
0000
0000
0000
0000
0010
0000
0000
0000
0000
0000
0100
0000
0000
0000
0000
0000
0000
0001
0000
0000
0000
0000
0000
0000
1000
0000
0000
0000
0000
0000
0000
0100
0000
0000
0000
0000
0000
0000
0010
0000
0000
0000
0000
0000
0000
0001
0000
0000
0000
0000
0000
0000
1000
0000
0000
0000
0000
0000
0010
0000
0000
0000
0000
0000
0000
0100
0000
0000
0000
0000
0000
0000
0001
0000
0000
0000
0000
0000
0000
1000
0000
0000
0000
0000
0000
0000
0001
0000
0000
0000
0000
0000
0000
0010
0000
0000
0000
0000
0000
0000
0100
0000
0000
0000
0000
0000
1000
0000
0000
0000
0000
0000
0000
0010
0000
0000
0000
0000
0000
0000
0100
0000
0000
0000
0000
0000
0000
,
0001
0000
0000
0000
0000
0000
0000
1000
0000
0000
0000
0000
0000
0000
0100
0000
0000
0000
0000
0000
0000
0010
0000
0000
0000
0000
0000
0001
0000
0000
0000
0000
0000
0000
1000
0000
0000
0000
0000
0000
0000
0010
0000
0000
0000
0000
0000
0000
0100
0000
0000
0000
0000
0000
0000
0001
0000
0000
0000
0000
0000
0000
0010
0000
0000
0000
0000
0000
0000
0100
0000
0000
0000
0000
0000
1000
0000
0000
0000
0000
0000
0000
0001
0000
0000
0000
0000
0000
0000
0100
0000
0000
0000
0000
0000
0000
0010
0000
0000
0000
0000
0000
0000
1000
0000
0000
0000
0000
0000
0000
0001
0000
0000
0000
0000
0000
0000
0010
0000
0000
0000
0000
0000
0100
0000
0000
0000
0000
0000
0000
0010
0000
0000
0000
0000
0000
0000
0001
0000
0000
0000
0000
0000
0000
1000
0000
0000
0000
0000
0000
0000
0010
0000
0000
0000
0000
0000
0000
0100
0000
0000
0000
0000
0000
0000
0001
0000
0000
0000
0000
0000
0010
0000
0000
0000
0000
0000
0000
0100
0000
0000
0000
0000
0000
0000
1000
0000
0000
0000
0000
0000
0000
,
0001
0000
0000
0000
0000
0000
0000
0100
0000
0000
0000
0000
0000
0000
0010
0000
0000
0000
0000
0000
0000
1000
0000
0000
0000
0000
0000
0001
0000
0000
0000
0000
0000
0000
0010
0000
0000
0000
0000
0000
0000
0100
0000
0000
0000
0000
0000
0000
1000
0000
0000
0000
0000
0000
0000
0001
0000
0000
0000
0000
0000
0000
0100
0000
0000
0000
0000
0000
0000
0010
0000
0000
0000
0000
0000
1000
0000
0000
0000
0000
0000
0000
0100
0000
0000
0000
0000
0000
0000
0010
0000
0000
0000
0000
0000
0000
0001
0000
0000
0000
0000
0000
0000
1000
0000
0000
0000
0000
0000
0000
0010
0000
0000
0000
0000
0000
0000
0100
0000
0000
0000
0000
0000
0010
0000
0000
0000
0000
0000
0000
1000
0000
0000
0000
0000
0000
0000
0001
0000
0000
0000
0000
0000
0000
0010
0000
0000
0000
0000
0000
0000
0100
0000
0000
0000
0000
0000
0000
1000
0000
0000
0000
0000
0000
0000
0001
0000
0000
0000
0000
0000
0100
0000
0000
0000
0000
0000
0000
0010
0000
0000
0000
0000
0000
0000
1000
0000
0000
0000
0000
0000
0000
,
0100
0000
0000
0000
0000
0000
0000
0010
0000
0000
0000
0000
0000
0000
0001
0000
0000
0000
0000
0000
0000
1000
0000
0000
0000
0000
0000
0010
0000
0000
0000
0000
0000
0000
0100
0000
0000
0000
0000
0000
0000
0001
0000
0000
0000
0000
0000
0000
1000
0000
0000
0000
0000
0000
0000
0100
0000
0000
0000
0000
0000
0000
0010
0000
0000
0000
0000
0000
0000
0001
0000
0000
0000
0000
0000
1000
0000
0000
0000
0000
0000
0000
0010
0000
0000
0000
0000
0000
0000
1000
0000
0000
0000
0000
0000
0000
0100
0000
0000
0000
0000
0000
0000
0010
0000
0000
0000
0000
0000
0000
0001
0000
0000
0000
0000
0000
0000
1000
0000
0000
0000
0000
0000
0010
0000
0000
0000
0000
0000
0000
0100
0000
0000
0000
0000
0000
0000
0001
0000
0000
0000
0000
0000
0000
1000
0000
0000
0000
0000
0000
0000
0100
0000
0000
0000
0000
0000
0000
0010
0000
0000
0000
0000
0000
0000
0001
0000
0000
0000
0000
0000
0100
0000
0000
0000
0000
0000
0000
0010
0000
0000
0000
0000
0000
0000
1000
0000
0000
0000
0000
0000
0000
,
0001
0000
0000
0000
0000
0000
0000
0010
0000
0000
0000
0000
0000
0000
0100
0000
0000
0000
0000
0000
0000
1000
0000
0000
0000
0000
0000
0001
0000
0000
0000
0000
0000
0000
0100
0000
0000
0000
0000
0000
0000
0010
0000
0000
0000
0000
0000
0000
1000
0000
0000
0000
0000
0000
0000
0100
0000
0000
0000
0000
0000
0000
0010
0000
0000
0000
0000
0000
0000
0001
0000
0000
0000
0000
0000
1000
0000
0000
0000
0000
0000
0000
0001
0000
0000
0000
0000
0000
0000
0100
0000
0000
0000
0000
0000
0000
0010
0000
0000
0000
0000
0000
0000
1000
0000
0000
0000
0000
0000
0000
0001
0000
0000
0000
0000
0000
0000
0010
0000
0000
0000
0000
0000
0100
0000
0000
0000
0000
0000
0000
1000
0000
0000
0000
0000
0000
0000
0010
0000
0000
0000
0000
0000
0000
0100
0000
0000
0000
0000
0000
0000
0001
0000
0000
0000
0000
0000
0000
1000
0000
0000
0000
0000
0000
0000
0100
0000
0000
0000
0000
0000
0010
0000
0000
0000
0000
0000
0000
0001
0000
0000
0000
0000
0000
0000
1000
0000
0000
0000
0000
0000
0000
,
0010
0000
0000
0000
0000
0000
0000
0100
0000
0000
0000
0000
0000
0000
0001
0000
0000
0000
0000
0000
0000
0010
0000
0000
0000
0000
0000
0100
0000
0000
0000
0000
0000
0000
1000
0000
0000
0000
0000
0000
0000
0001
0000
0000
0000
0000
0000
0000
0100
0000
0000
0000
0000
0000
0000
0001
0000
0000
0000
0000
0000
0000
1000
0000
0000
0000
0000
0000
0000
0100
0000
0000
0000
0000
0000
0010
0000
0000
0000
0000
0000
0000
0001
0000
0000
0000
0000
0000
0000
0100
0000
0000
0000
0000
0000
0000
0010
0000
0000
0000
0000
0000
0000
1000
0000
0000
0000
0000
0000
0000
0001
0000
0000
0000
0000
0000
0000
0010
0000
0000
0000
0000
0000
0100
0000
0000
0000
0000
0000
0000
1000
0000
0000
0000
0000
0000
0000
0001
0000
0000
0000
0000
0000
0000
0100
0000
0000
0000
0000
0000
0000
0010
0000
0000
0000
0000
0000
0000
1000
0000
0000
0000
0000
0000
0000
0001
0000
0000
0000
0000
0000
0010
0000
0000
0000
0000
0000
0000
0100
0000
0000
0000
0000
0000
0000
1000
0000
0000
0000
0000
0000
0000
,
0010
0000
1000
0000
0001
0000
1000
0010
0000
1000
0001
0000
0100
0000
0100
0000
,
0010
0000
1000
0000
0010
0000
0100
0001
0000
0100
0010
0000
1000
0000
1000
0000
,
0001
0000
0100
0000
0001
0000
0100
0010
0000
1000
0010
0000
0010
0000
0100
0000
,
0010
0000
1000
0000
0001
0000
0100
0010
0000
0100
0001
0000
0001
0000
1000
0000
,
0001
0000
0100
0000
0001
0000
1000
0010
0000
1000
0001
0000
0100
0000
0100
0000
,
0010
0000
1000
0000
0010
0000
0100
0001
0000
0100
0010
0000
1000
0000
1000
0000
,
0001
0000
0100
0010
1000
0000
0010
1000
0000
1000
0010
0000
0100
0000
0001
0000
,
0100
0000
0010
0000
0010
0000
0100
0001
0000
0001
0100
0000
0001
0000
1000
0000
,
0001
0000
0000
0000
;
