#TITLE:Blazing;
#SUBTITLE:;
#ARTIST:Banya;
#TITLETRANSLIT:;
#SUBTITLETRANSLIT:;
#ARTISTTRANSLIT:;
#CREDIT:;
#BANNER:Blazing.png;
#BACKGROUND:Blazing-bg.PNG;
#LYRICSPATH:;
#CDTITLE:!mm989cdtitle.png;
#MUSIC:Blazing.mp3;
#OFFSET:0.033;
#SAMPLESTART:72.800;
#SAMPLELENGTH:12.000;
#SELECTABLE:YES;
#BPMS:0.000=158.000;
#STOPS:;
#BGCHANGES:;
// cache tags:
#FIRSTBEAT:0.000;
#LASTBEAT:254.000;
#SONGFILENAME:Songs/IzzySM Keyboard Mega Pack/Blazing/Blazing.sm;
#HASMUSIC:1;
#HASBANNER:1;
#MUSICLENGTH:98.925;
// end cache tags

//---------------dance-single - ----------------
#NOTES:
     dance-single:
     :
     Challenge:
     12:
     1.000,1.000,1.000,0.091,1.000,637.000,141.000,9.000,0.000,0.000:  // measure 1
0001
0000
1000
0000
0010
0000
0100
0000
0010
1000
0000
0010
1000
0000
0001
0000
,  // measure 2
0101
0000
1000
0100
1000
0000
0010
0000
0100
0001
0010
0001
0010
0000
1000
0000
,  // measure 3
1100
0000
0010
0000
0001
0000
0100
0000
0010
0100
0000
0010
0100
0000
0001
0000
,  // measure 4
1010
0000
0010
1000
0010
0000
0100
0000
0010
1000
0100
1000
0100
0000
0010
0000
,  // measure 5
1001
0000
0100
0010
0000
0000
1010
0000
0000
0000
1000
0100
0001
0000
0000
0000
,  // measure 6
0010
0000
1000
0100
0000
0001
0010
0001
0010
0000
1000
0100
0000
0000
0010
0000
,  // measure 7
1001
0000
0000
0011
0000
0000
1100
0000
1010
0000
0000
0110
0000
0000
0101
0000
,  // measure 8
1001
0000
0000
1010
0000
0000
0011
0000
1000
0000
0100
0000
0010
0000
0100
0000
,  // measure 9
1001
0000
1000
0010
0100
0001
1000
0100
0010
0000
0000
0110
0000
0000
1001
0000
,  // measure 10
1010
0000
0000
1100
0000
0000
0110
0000
1001
0000
0000
0100
0010
0000
1100
0000
,  // measure 11
1001
0000
0100
0010
0000
1000
0100
0000
0010
0001
0000
0100
0010
0000
1001
0000
,  // measure 12
1100
0000
0000
1100
0000
0000
0110
0000
1001
0000
1000
0100
1000
0100
1000
0000
,  // measure 13
1001
0010
1000
0100
1000
0010
0100
0000
0001
1000
0000
0110
0000
1010
0000
0000
,  // measure 14
0010
0000
0000
0100
0000
0000
0001
0000
0000
0100
0000
0000
0010
0000
0000
1000
0000
0000
0100
0000
0000
0000
0000
0000
0011
0000
0000
0000
1100
0000
0000
0000
0011
0000
0000
0000
1100
0000
0000
0000
0000
0000
0110
0000
0000
0000
0000
0000
,  // measure 15
1001
0100
0010
0100
0010
0000
0010
0100
1000
0000
1000
0010
1000
0010
0100
0001
,  // measure 16
0010
0100
1000
0001
0010
0100
1000
0010
0100
0000
0001
0000
1000
0000
0010
0000
,  // measure 17
0100
0000
0001
0100
0001
1000
0010
0000
0110
0000
0000
0000
0000
0000
0000
0010
,  // measure 18
1000
0000
1000
0001
0100
0000
0001
0000
0000
0000
0010
0000
1000
0000
0010
0000
,  // measure 19
1010
0100
0001
0000
1010
0100
0001
0000
1010
0100
0001
0000
1000
0100
0010
0001
,  // measure 20
0000
1000
0000
0010
1000
0001
0010
0000
0101
0000
1100
0000
0001
1000
0100
0000
,  // measure 21
0011
0000
1000
0010
0000
0100
0001
0000
0100
0010
0000
0010
1000
0000
0100
0000
,  // measure 22
1010
0000
0000
0011
0000
0000
0110
0000
1001
0000
0001
0100
0001
0100
0001
0100
,  // measure 23
0011
0000
0100
1000
0000
0000
0110
0000
0000
1100
0000
0000
0011
0000
0010
0001
,  // measure 24
1100
0000
0100
0010
0000
0000
0101
0000
0000
0110
0000
0000
1000
0100
0010
0100
,  // measure 25
1001
0010
1000
0110
0000
1100
0000
0110
0000
0011
0000
0010
0001
0100
0010
0000
,  // measure 26
1000
0100
1000
0110
0000
0101
0000
1001
0000
0100
1000
0100
0010
0001
0010
0100
,  // measure 27
1001
0000
0100
0010
0001
1100
0000
0000
0010
0100
1000
0001
0100
0010
1000
0001
,  // measure 28
1000
0001
0010
0100
1000
0000
0010
0100
0010
0001
0100
0010
1000
0010
1000
0001
,  // measure 29
1100
0010
0000
1100
0010
0000
1100
0010
0000
0001
0010
0100
0010
0001
0100
0001
,  // measure 30
1100
0001
0000
1100
0001
0000
1100
0001
0000
1000
0010
0100
0010
1000
0100
0010
,  // measure 31
1001
0000
0110
1000
0110
0000
0000
0000
0000
0001
0100
0010
1000
0100
0010
0001
,  // measure 32
0010
0000
0100
0010
0001
0000
0010
0100
1000
0000
0001
0100
0001
1000
0100
0010
,  // measure 33
1001
0000
0100
0010
0100
0000
0001
0010
1100
0001
0100
0010
1000
0010
0100
0001
,  // measure 34
1010
0000
0001
0010
0001
0000
0100
0010
1001
0100
1000
0010
0100
0001
0100
0010
,  // measure 35
1100
0000
0010
0100
0001
0010
0001
1000
0100
0000
0100
0000
0010
0000
0100
0010
,  // measure 36
0001
0000
0001
0010
0100
0000
1000
0000
1010
0000
0100
0001
0100
0000
0001
0000
,  // measure 37
1100
0000
0010
0001
0000
0000
0010
0000
0110
0000
1000
0000
1100
0000
0010
0000
,  // measure 38
1001
0000
0010
0100
0010
1000
0001
1000
0010
0000
0010
1000
0000
0000
1000
0010
,  // measure 39
0101
0000
0100
0010
0000
0000
1010
0000
0000
0011
0000
0000
0100
0000
0010
0000
,  // measure 40
1100
0000
1000
0010
0000
0000
0000
0000
0010
0100
1000
0100
0010
0001
0010
0100
,  // measure 41
1001
0000
0010
0100
0000
0100
0001
0000
0001
1000
0000
1000
0010
0000
0100
0000
,  // measure 42
1010
0000
0000
0011
0000
0000
0101
0000
0110
0000
0010
0100
0010
0100
0010
0100
,  // measure 43
1001
0100
1000
0100
0010
0001
0100
0010
,  // measure 44
1001
0000
0100
0000
0110
0000
1000
0100
0010
0000
0001
0010
0100
2000
0000
0000
,  // measure 45
3001
0000
0110
0000
0001
1000
0100
0000
,  // measure 46
0110
0001
1000
0000
0110
0000
1000
0001
0000
0001
0010
0100
1000
0100
0010
0001
,  // measure 47
2200
0000
0000
0000
0000
0000
0000
3300
,  // measure 48
0001
0000
0010
0100
1000
0000
0100
0010
0001
0000
1000
0100
0010
0001
0010
0000
,  // measure 49
1100
0010
0000
0100
0000
0010
0000
0001
1010
0100
0001
0100
0010
0000
1100
0000
,  // measure 50
2001
0000
3100
0010
0100
0010
0000
1200
0000
0000
0310
0001
0010
0001
1000
0000
,  // measure 51
0110
0000
1000
0010
0000
0010
1000
0100
1000
0010
1000
0010
0100
0000
0001
0000
,  // measure 52
0120
0000
1030
0100
1000
0001
0000
0012
0000
0000
0103
0010
1000
0010
1000
0000
,  // measure 53
2002
0000
0000
0000
0000
0000
3003
0000
0110
0000
1000
0001
0000
0000
0011
0000
,  // measure 54
0000
0000
1000
0100
1000
0001
0010
0100
1000
0000
0000
0000
0010
0000
0100
0000
,  // measure 55
0001
0000
0100
0000
0010
0000
1000
0000
1010
0000
0000
1100
0000
0000
1010
0000
,  // measure 56
0101
0000
0000
0011
0000
0000
0110
0000
1001
0000
0100
0010
0001
0000
0100
0010
,  // measure 57
1000
0010
0100
0001
1000
0100
0010
0000
1001
0000
1000
0100
0010
0100
0010
0001
,  // measure 58
1000
0000
0000
0110
0000
0000
0101
0000
1001
0000
0000
0110
0000
0000
1010
0000
,  // measure 59
1100
0000
0000
0100
0010
0000
0110
0000
1001
0000
0010
0001
0000
0001
0100
0000
,  // measure 60
0100
0010
0000
0010
1000
0000
0010
0000
1100
0000
0000
1010
0000
0000
0101
0000
,  // measure 61
1001
0000
0000
0000
0000
0000
0100
0000
0000
0010
0000
0000
0100
0000
0000
0000
0001
0000
0000
0000
1000
0000
0000
0000
0011
0000
0000
0000
0000
0000
0010
0000
0000
0001
0000
0000
0000
0000
0000
0100
0000
0000
0001
0000
0000
0000
0000
0000
,  // measure 62
1000
0100
0000
0010
0001
0000
0100
0000
1010
0000
0000
0101
0000
0000
1100
0000
,  // measure 63
1001
0000
0000
0000
0000
0000
0001
0000
0000
0010
0000
0000
0001
0000
0000
0000
1000
0000
0000
0000
0100
0000
0000
0000
1010
0000
0000
0000
0000
0000
0000
0000
0000
0101
0000
0000
0000
0000
0000
0000
0000
0000
0110
0000
0000
0000
0000
0000
,  // measure 64
1001
0000
0000
0000
0000
0000
0001
0000
0000
0010
0000
0000
0100
0000
0000
0000
0100
0000
0000
0000
0100
0000
0000
0000
1001
0000
0000
0000
0000
0000
0000
0000
0000
0000
0000
0000
0000
0000
0000
0000
0000
0000
0000
0000
0000
0000
0000
0000
;
