#TITLE:Vanity Angel;
#SUBTITLE:(Fallen Angel Mix);
#ARTIST:JAKAZiD;
#TITLETRANSLIT:;
#SUBTITLETRANSLIT:;
#ARTISTTRANSLIT:;
#CREDIT:;
#BANNER:vanityangel.png;
#BACKGROUND:vanityangel-bg.png;
#LYRICSPATH:;
#CDTITLE:Catchrothy22cd.PNG;
#MUSIC:Vanity Angel (Fallen Angel Mix).mp3;
#OFFSET:-0.340;
#SAMPLESTART:33.700;
#SAMPLELENGTH:12.000;
#SELECTABLE:YES;
#BPMS:0.000=180.061;
#STOPS:;
#BGCHANGES:;
// cache tags:
#FIRSTBEAT:4.000;
#LASTBEAT:268.000;
#SONGFILENAME:Songs/Keyboard Collaboration II/CatchRothy22 - Vanity Angel (Fallen Angel Mix)/Vanity Angel (Fallen Angel Mix).sm;
#HASMUSIC:1;
#HASBANNER:1;
#MUSICLENGTH:90.049;
// end cache tags

//---------------dance-single - ----------------
#NOTES:
     dance-single:
     :
     Hard:
     10:
     0.942,0.967,0.167,0.022,0.894,577.000,15.000,2.000,0.000,0.000:  // measure 1
0000
0000
0000
0000
,  // measure 2
1000
0100
0000
0010
0001
0000
1000
0000
0100
0010
0000
0001
0010
0000
1000
0000
,  // measure 3
0001
0010
0000
0100
1000
0000
0010
0000
0100
0010
0000
0100
1000
0000
0001
0000
,  // measure 4
1000
0100
0000
0001
0100
0000
1000
0000
0010
0100
0000
0001
1000
0000
0100
0000
,  // measure 5
1000
0010
0000
0100
0001
0000
0100
0000
1000
0001
0000
0010
0100
0000
1000
0000
,  // measure 6
0010
1000
0000
0001
0100
0000
1000
0000
0010
0100
0000
1000
0001
0000
0100
0000
,  // measure 7
0010
0100
0000
1000
0001
0000
0100
0000
1000
0010
0000
0100
0001
0000
0100
0000
,  // measure 8
0010
1000
0000
0100
0001
0000
0100
0000
0010
1000
0000
0001
0100
0000
1000
0000
,  // measure 9
0100
0001
0000
0010
1000
0000
0100
0000
0001
1000
0000
0100
0010
0000
0000
0100
,  // measure 10
0010
0001
0000
0100
0000
0010
0000
0001
,  // measure 11
0000
0001
0000
0010
0000
0010
0000
0001
,  // measure 12
1000
0001
0000
0010
0000
0010
0000
0001
,  // measure 13
0000
0001
0000
0010
0000
0010
0000
0001
,  // measure 14
0100
0001
0000
0100
0000
0010
0000
0001
,  // measure 15
0100
0001
0000
0010
0000
0001
0000
0010
,  // measure 16
0001
0010
0100
1000
0100
0010
0001
0100
,  // measure 17
0010
1000
0010
0100
0001
1000
0001
0100
,  // measure 18
0001
0010
0000
0100
1000
0000
0001
0000
0010
0100
0000
1000
0100
0000
0001
0000
,  // measure 19
1000
0100
0000
0010
0001
0000
0100
0000
0010
0100
0000
0010
0001
0000
1000
0000
,  // measure 20
0001
0010
0000
1000
0010
0000
0001
0000
0100
0010
0000
1000
0001
0000
0010
0000
,  // measure 21
0001
0100
0000
0010
1000
0000
0010
0000
0001
1000
0000
0100
0010
0000
0001
0000
,  // measure 22
0100
0001
0000
1000
0010
0000
0001
0000
0100
0010
0000
0001
1000
0000
0010
0000
,  // measure 23
0100
0010
0000
0001
1000
0000
0010
0000
0001
0100
0000
0010
1000
0000
0010
0000
,  // measure 24
0100
0001
0000
0010
1000
0000
0010
0000
0100
0001
0000
1000
0010
0000
0001
0000
,  // measure 25
0010
1000
0000
0100
0001
0000
0010
0000
1000
0001
0000
0010
0100
0000
1000
0000
,  // measure 26
0010
0100
0000
0010
0001
0000
1000
0000
0100
0010
0000
0001
0010
0000
1000
0000
,  // measure 27
0001
0010
0000
0100
1000
0000
0010
0000
0100
0010
0000
0100
1000
0000
0001
0000
,  // measure 28
1000
0100
0000
0001
0100
0000
1000
0000
0010
0100
0000
0001
1000
0000
0100
0000
,  // measure 29
1000
0010
0000
0100
0001
0000
0100
0000
1000
0001
0000
0010
0100
0000
1000
0000
,  // measure 30
0010
1000
0000
0001
0100
0000
1000
0000
0010
0100
0000
1000
0001
0000
0100
0000
,  // measure 31
0010
0100
0000
1000
0001
0000
0100
0000
1000
0010
0000
0100
0001
0000
0100
0000
,  // measure 32
1000
0100
1000
0010
0100
0010
1000
0001
,  // measure 33
1000
0100
0010
0001
0010
0100
1000
0010
0100
0001
0100
0010
1000
0001
0100
0010
,  // measure 34
1000
0100
0010
0001
0010
0100
1000
0010
,  // measure 35
1100
0001
0010
0100
1000
0010
0100
0001
,  // measure 36
1100
0010
0100
0001
0100
0010
1000
0010
,  // measure 37
0101
1000
0001
1000
0100
0010
0100
1000
,  // measure 38
1001
1000
0010
0100
0001
0100
0010
1000
,  // measure 39
0011
0100
1000
0010
0100
0001
0100
0010
,  // measure 40
1010
0100
0010
0001
0010
0100
1000
0010
,  // measure 41
1100
0001
0010
0100
1000
0010
0100
0001
,  // measure 42
1100
0010
0100
0001
0100
0010
1000
0010
,  // measure 43
0101
1000
0001
1000
0100
0010
0100
1000
,  // measure 44
1001
1000
0010
0100
0001
0100
0010
1000
,  // measure 45
0011
0100
1000
0010
0100
0001
0100
0010
,  // measure 46
1010
0100
0010
0001
0010
0100
1000
0010
,  // measure 47
1100
0001
0010
0100
1000
0010
0100
0001
,  // measure 48
1001
1000
0100
0010
0001
0010
0100
1000
,  // measure 49
0100
0010
0001
0100
0010
1000
0010
0100
,  // measure 50
1000
0100
0000
0010
1000
0000
0010
0000
0100
0001
0000
0010
1000
0000
0100
0000
,  // measure 51
0001
1000
0000
0010
0100
0000
1000
0000
0010
0100
0000
0010
1000
0000
0001
0000
,  // measure 52
0100
0010
0000
1000
0100
0000
1000
0000
0001
0100
0000
0010
1000
0000
0001
0000
,  // measure 53
0010
0001
0000
0100
1000
0000
0001
0000
0010
1000
0000
0001
0100
0000
1000
0000
,  // measure 54
0010
1000
0000
0001
0100
0000
1000
0000
0001
0010
0000
1000
0100
0000
1000
0000
,  // measure 55
0010
0001
0000
1000
0100
0000
1000
0000
0010
0001
0000
0100
1000
0000
0001
0000
,  // measure 56
1000
0100
0000
0010
0001
0000
1000
0000
0100
0001
0000
1000
0010
0000
0100
0000
,  // measure 57
1000
0010
0000
1000
0001
0000
0100
0000
0010
1000
0000
0001
1000
0000
0100
0000
,  // measure 58
0001
1000
0000
0010
0100
0000
1000
0000
0010
1000
0000
0010
0100
0000
0001
0000
,  // measure 59
0100
0010
0000
0001
0010
0000
0100
0000
1000
0010
0000
0001
0100
0000
0010
0000
,  // measure 60
0100
1000
0000
0010
0001
0000
0010
0000
0100
0001
0000
1000
0010
0000
0100
0000
,  // measure 61
1000
0100
0000
0001
0010
0000
0100
0000
1000
0010
0000
0100
0001
0000
0010
0000
,  // measure 62
0100
0010
0000
1000
0001
0000
0010
0000
1000
0010
0000
1000
0001
0000
0100
0000
,  // measure 63
0001
1000
0000
0100
1000
0000
0001
0000
0010
1000
0000
0100
0001
0000
1000
0000
,  // measure 64
0001
0010
0000
1000
0100
0000
1000
0000
0001
0100
0000
0010
1000
0000
0001
0000
,  // measure 65
0010
0001
0000
0100
1000
0000
0001
0000
0010
1000
0000
0001
0100
0000
1000
0000
,  // measure 66
2002
0000
0000
0000
,  // measure 67
0000
0000
0000
0000
,  // measure 68
3003
0000
0000
0000
;
