#TITLE:Green Hills (Sonic 1);
#SUBTITLE:paulybfromda303.newgrounds.com;
#ARTIST:PaulyBFromDa303;
#TITLETRANSLIT:;
#SUBTITLETRANSLIT:;
#ARTISTTRANSLIT:;
#CREDIT:Owem;
#BANNER:../banner.png;
#BACKGROUND:../bg.png;
#LYRICSPATH:;
#CDTITLE:../cdtitleowem.png;
#MUSIC:Sonic 1 - Green Hills.ogg;
#OFFSET:-0.021;
#SAMPLESTART:49.139;
#SAMPLELENGTH:29.999;
#SELECTABLE:YES;
#BPMS:0.000=171.000;
#STOPS:;
#BGCHANGES:;
// cache tags:
#FIRSTBEAT:0.000;
#LASTBEAT:525.000;
#SONGFILENAME:Songs/Owem's Simfiles 08 - 1.2/Green Hills (Sonic 1) - [Owem] v1.0.0/Green Hills.sm;
#HASMUSIC:1;
#HASBANNER:1;
#MUSICLENGTH:195.127;
// end cache tags

//---------------dance-single - 15- (Owem)----------------
#NOTES:
     dance-single:
     15- (Owem):
     Challenge:
     15:
     1.000,1.000,0.220,0.507,1.000,1605.000,43.000,99.000,9.000,0.000:
1000
0100
0010
0001
1000
0010
0100
0001
1000
0100
0010
0001
1000
0010
0100
0001
,
10M0
0100
1000
0010
0100
0001
1000
0100
1000
0010
0100
0001
1000
0100
0010
0001
,
0100
0010
1000
0001
0100
0001
0010
0100
1000
0001
0010
0001
1000
0100
0010
0100
,
1000
0001
1000
0010
0100
0001
1000
0100
1000
0001
0100
0010
0100
0001
1000
0010
,
1000
0001
1000
0100
0010
0100
1000
0001
0100
0001
1000
0100
0010
0001
1000
0010
,
0100
0001
1000
0001
0010
0100
1000
0001
1000
0010
0100
0001
1000
0100
1000
0001
,
0100
0001
0010
0100
1000
0010
0100
0001
1000
0010
0100
0001
0100
0010
1000
0001
,
0100
0010
0100
0001
1000
0100
1000
0001
0100
0010
1000
0001
0010
0100
1000
0001
,
0100
0000
0010
0000
0100
0000
0001
0000
1000
0100
0010
0000
0001
0100
0010
0000
,
1000
0001
1000
0100
0010
0001
0100
0010
1000
0001
0100
0001
1000
0100
1000
0010
,
0100
0001
1000
0001
0100
0010
1000
0001
0100
0001
0010
0100
1000
0001
0010
0001
,
0100
0010
1000
0001
0100
0010
1000
0001
0100
0010
0100
0001
1000
0010
1000
0100
,
0010
0001
1000
0100
1000
0001
0100
0010
1000
0001
0100
0001
0010
0100
1000
0001
,
0010
0001
0100
0010
1000
0001
0100
0010
0100
0001
1000
0100
1000
0001
0100
0010
,
1000
0001
0100
0001
0010
0100
1000
0001
0010
0001
0100
0010
1000
0001
0100
0010
,
1000
0100
1000
0001
0100
0001
0010
0100
1000
0100
0010
0001
1000
0100
1000
0001
,
0100
0010
1000
0001
0100
0001
0010
0100
1000
0001
0010
0001
0100
0010
1000
0001
,
0100
0010
0100
0001
1000
0010
1000
0001
0100
0010
0100
0001
1000
0100
0010
0001
,
1000
0100
1000
0010
0100
0001
1000
0100
1000
0010
0100
0001
1000
0100
0010
0001
,
1000
0100
1000
0001
0010
0001
0100
0010
1000
0001
0100
0010
0100
0001
1000
0100
,
1000
0001
0010
0001
1000
0100
0010
0001
1000
0100
1000
0001
0100
0010
1000
0001
,
0100
0010
0100
0001
1000
0100
0010
0001
1000
0100
1000
0001
0100
0010
1000
0001
,
0100
0001
0010
0100
1000
0100
1000
0001
0010
0001
0100
0010
1000
0001
0100
0001
,
1000
0100
0010
0100
1000
0001
0010
0001
0100
0010
1000
0001
0100
0010
0100
0001
,
1000
0100
0010
0001
1000
0100
1000
0001
1000
0010
0100
0001
1000
0100
0010
0001
,
2000
0000
0000
0010
0000
0000
0100
0000
,
0000
0000
0001
0000
0000
0000
0000
0000
0100
0000
3100
0010
0001
0000
1000
0000
,
0002
0000
0000
0100
0000
0000
1000
0000
,
0000
0000
0010
0000
0000
0000
0000
0000
0100
0000
0103
0010
1000
0000
0001
0000
,
2000
0000
0000
0100
0000
0000
0010
0000
,
0000
0000
0001
0000
0000
0000
0000
0000
3100
0010
0001
1000
0001
0000
0100
0000
,
0010
0100
0001
1000
0100
1000
0001
0100
0010
1000
0100
1000
0001
0010
0001
1000
,
0100
0010
0001
1000
0001
0100
0010
1000
0001
0100
0001
1000
0100
0010
0001
1000
,
0010
0000
0100
0000
0001
0000
1000
0000
0100
0000
0010
0001
1000
0000
0010
0000
,
0010
0000
0100
0000
0001
0000
1000
0000
0100
0000
0010
0001
1000
0000
1000
0000
,
0010
0100
0001
1000
0100
1000
0001
0100
0001
0010
0100
1000
0001
0010
0001
1000
,
0100
1000
0010
0100
0001
1000
0100
1000
0001
0100
0010
0100
0001
1000
0100
1000
,
0010
1000
0001
0100
0001
0010
0100
1000
0100
0010
0001
1000
0010
1000
0001
0100
,
0010
0100
0001
1000
0100
1000
0001
0010
0001
1000
0100
0010
0001
1000
0010
1000
,
0001
0100
0010
1000
0100
1000
0001
0100
0001
0010
0100
1000
0001
0010
0001
1000
,
0100
1000
0001
1000
0010
0100
0001
1000
0100
1000
0010
0100
0001
1000
0010
1000
,
0100
0010
0001
1000
0100
1000
0001
0100
0001
0010
0100
1000
0001
0010
0001
1000
,
0100
1000
0001
0100
0010
1000
0001
1000
0100
0010
0100
1000
0001
0010
0001
1000
,
0100
1000
0001
0010
0001
1000
0100
0010
0001
1000
0001
0100
0010
1000
0001
0100
,
0001
0010
0100
1000
0001
0010
0001
1000
0010
0100
0001
1000
0100
1000
0010
1000
,
0001
0100
0001
0010
0100
1000
0001
1000
0010
0100
0001
1000
0100
1000
0001
0100
,
0010
1000
0100
1000
0001
0010
0001
0100
0010
1000
0001
0100
0001
0010
0100
1000
,
0001
0010
0001
1000
0100
1000
0001
0100
0001
1000
0100
0010
0100
1000
0001
0010
,
0001
0100
0010
1000
0001
0100
0001
1000
0010
1000
0001
0100
0010
1000
0001
1000
,
0100
0010
0001
1000
0100
1000
0010
0100
0001
1000
0100
0010
0001
1000
0010
1000
,
0001
0100
0010
1000
0100
1000
0001
0010
0001
1000
0100
0010
0001
1000
0100
1000
,
0010
0000
0100
0001
0100
0000
0010
1000
0010
0000
1000
0001
1000
0001
1000
0001
,
1000
0000
0010
0100
0010
0000
0100
0001
0100
0000
0010
1000
0002
0000
0023
0000
,
0130
0000
1000
0001
1000
0000
0010
1000
0010
0000
0100
0001
0100
0001
0100
0001
,
0100
0000
0010
1000
0010
0000
1000
0100
1000
0000
0100
0010
0002
0000
4003
0000
,
3010
0000
0100
0001
0100
0000
0001
0010
0001
0000
1000
0100
1000
0100
1000
0100
,
1000
0000
0010
0100
0010
0000
1000
0001
1000
0000
0100
0010
0002
0000
2003
0000
,
3010
0000
0100
0001
0100
0000
0010
1000
0010
0000
1000
0001
1000
0001
2000
0000
,
0000
3200
0000
0320
0000
0032
2003
3010
,
0110
0000
0000
0101
0000
0000
2001
0000
0000
0000
3010
0100
0010
0100
0020
0000
,
0000
0000
0130
0001
1000
0010
1000
0100
0020
0000
0032
0000
0003
0000
0000
0000
,
0101
0000
0000
0110
0000
0000
2010
0000
0000
0000
3001
0100
0001
1000
0020
0000
,
0000
0000
0130
0001
1000
0010
1000
0001
0200
0000
0320
0000
0030
0000
0000
0000
,
1010
0000
0000
1001
0000
0000
0102
0000
0000
0000
1003
0100
1000
0010
0200
0000
,
0000
0000
0301
1000
0001
0100
0010
1000
0020
0000
0230
0000
0300
0000
0000
0000
,
0101
0000
0000
0110
0000
0000
1020
0000
0000
0000
1030
0001
1000
0010
0200
0000
,
0000
0000
0301
1000
0001
1000
0001
0010
0200
0000
2300
0000
0000
0000
0000
0000
,
3001
0100
0001
0100
0010
1000
0020
0000
0130
0000
0001
1000
0001
0010
0200
0000
,
1000
0000
1300
0010
1000
0001
0100
0010
0200
0000
0302
1003
0001
0000
0010
0000
,
0400
1300
0001
4000
3010
0100
0004
0000
1003
0000
0010
1000
0010
0100
0002
0000
,
1000
0000
1003
0100
0010
0001
1000
0001
0200
0000
0320
0000
1030
0000
0001
0000
,
10M0
0100
1000
0001
0100
0010
0200
0000
0301
0000
1000
0100
0010
0001
0200
0000
,
0310
0000
1000
0010
0100
0001
1000
0001
0020
0000
0230
0000
1300
0000
0010
0000
,
1000
0100
0010
0001
1000
0100
0010
0001
1000
0100
0010
0001
1000
0100
0010
0001
,
1000
0100
0010
0001
1000
0100
0010
0001
1000
0100
0010
0001
1000
0100
0010
0001
,
1M00
0010
0100
0001
1000
0100
1000
0001
0010
0001
0100
0010
1000
0001
0100
0001
,
1000
0100
0010
0001
0100
0010
0100
0001
1000
0100
1000
0001
0010
0001
0100
0001
,
1000
0010
0100
0001
1000
0100
1000
0001
0010
0100
1000
0001
1000
0010
0100
0001
,
1000
0100
1000
0001
0100
0010
1000
0001
0100
0001
0010
0100
1000
0001
0010
0001
,
0100
0010
1000
0001
0100
0001
1000
0010
0100
0001
1000
0100
1000
0001
0010
0001
,
0100
0010
1000
0001
0100
0010
0100
0001
1000
0100
0010
0001
1000
0001
0010
0001
,
0100
0010
1000
0001
0100
0010
0100
0001
1000
0010
1000
0001
0100
0010
0100
0001
,
1000
0100
0010
0001
1000
0100
1000
0010
0100
0001
1000
0100
1000
0010
0100
0001
,
1000
0100
0010
0001
1000
0100
1000
0001
0010
0001
0100
0010
1000
0001
0100
0010
,
0100
0001
1000
0100
1000
0001
0010
0001
1000
0100
0010
0001
1000
0100
1000
0001
,
0100
0010
1000
0001
0100
0010
0100
0001
1000
0100
0010
0001
1000
0100
1000
0001
,
0100
0010
1000
0001
0100
0001
0010
0100
1000
0100
1000
0001
0010
0001
0100
0010
,
1000
0001
0100
0001
1000
0100
0010
0100
1000
0001
0010
0001
0100
0010
1000
0001
,
0100
0010
0100
0001
0010
0100
1000
0001
0010
0001
0100
0010
1000
0001
0100
0010
,
0100
0001
1000
0100
0010
0100
1000
0001
0100
0001
0010
0100
1000
0001
0010
0001
,
0100
0010
1000
0001
0100
0010
0100
0001
1000
0010
1000
0100
0010
0001
1000
0010
,
0200
0000
0302
2003
3002
0000
0203
0000
,
0320
0000
0000
0000
2030
0000
0000
0000
3002
0000
0103
0010
1000
0000
0001
0000
,
0020
0000
0230
2300
3002
0000
0203
0000
,
0320
0000
0000
0000
0230
0000
0000
0000
0302
0000
1003
0010
0100
0000
0001
0000
,
0200
0000
0320
2030
3002
0000
0023
0000
,
0230
0000
0000
0000
2300
0000
0000
0000
3001
0100
0010
1000
0001
0000
0100
0000
,
0010
1000
0001
0100
0001
0010
0100
1000
0100
0010
0001
1000
0100
1000
0001
0100
,
0010
1000
0100
1000
0001
0010
0001
0100
0010
1000
0001
0100
0001
1000
0100
0010
,
0001
0100
0010
1000
0100
1000
0010
0100
0001
0010
0100
1000
0001
0010
0001
1000
,
0100
1000
0010
0100
0001
1000
0100
1000
0001
0100
0010
0100
0001
1000
0100
1000
,
0010
1000
0001
0100
0001
0010
0100
1000
0100
0010
0001
1000
0010
1000
0001
0100
,
0010
0100
0001
1000
0100
1000
0001
0010
0001
1000
0100
0010
0001
1000
0010
1000
,
0001
0100
0010
1000
0100
1000
0001
0100
0001
0010
0100
1000
0001
0010
0001
1000
,
0100
1000
0001
1000
0010
0100
0001
1000
0100
1000
0010
0100
0001
1000
0010
1000
,
0100
0010
0001
1000
0100
1000
0001
0100
0001
0010
0100
1000
0001
0010
0001
1000
,
0100
1000
0001
0100
0010
1000
0001
1000
0100
0010
0100
1000
0001
0010
0001
1000
,
0010
0000
1000
0001
1000
0000
0010
0100
0010
0000
0100
0001
0100
0001
0100
0001
,
0100
0000
0010
1000
0010
0000
1000
0001
1000
0000
0010
0100
0002
0000
0023
0000
,
0130
0000
1000
0001
1000
0000
0010
1000
0010
0000
0100
0001
0100
0001
0100
0001
,
0100
0000
0010
1000
0010
0000
1000
0100
1000
0000
0100
0010
0002
0000
4003
0000
,
3010
0000
0100
0001
0100
0000
0001
0010
0001
0000
1000
0100
1000
0100
1000
0100
,
1000
0000
0010
0100
0010
0000
1000
0001
1000
0000
0100
0010
0002
0000
2003
0000
,
3010
0000
0100
0001
0100
0000
0010
1000
0010
0000
1000
0001
1000
0001
2000
0000
,
0000
3200
0000
0320
0000
0032
2003
3020
,
0230
0000
0000
0302
0000
0000
2003
0000
,
0000
3200
0000
0000
0320
0000
0032
0000
,
2003
0000
0000
3020
0000
0000
0230
0000
,
0000
0000
0000
0300
,
0202
0000
0000
0000
0000
0303
2020
0000
0000
0000
0000
3030
2002
0000
0000
3003
,
2002
0000
0000
0000
0000
3003
0022
0000
0000
0000
0000
0033
0220
0000
0000
0330
,
0220
0000
0000
0000
0000
0330
2200
0000
0000
0000
0000
0000
0000
0000
0000
0000
,
0000
0000
0000
3300
,
1100
1000
0010
0110
0100
0001
1001
1000
,
0100
0110
0010
0001
1001
1000
1010
0010
,
0110
0100
0001
1001
1000
0010
1010
1000
,
0001
0100
0010
0100
0001
1000
0100
0010
,
0011
0001
1000
1010
0010
0100
0110
0100
,
0101
0001
1000
1100
0100
0010
0011
0001
,
1001
1000
0010
0110
0100
0001
0100
0010
,
1000
0100
0010
0001
1000
0010
0100
0001
,
1MM1
MMMM
0000
0000
;
