#TITLE:DYNAMITE RAVE;
#SUBTITLE:(B4 ZA BEAT MIX);
#ARTIST:NAOKI;
#TITLETRANSLIT:;
#SUBTITLETRANSLIT:;
#ARTISTTRANSLIT:;
#CREDIT:;
#BANNER:Dynamite Rave-bn.jpg;
#BACKGROUND:Dance-Dance-Revolution-0001.jpg;
#LYRICSPATH:;
#CDTITLE:;
#MUSIC:dynamite rave b4 za beat mix 1.mp3;
#OFFSET:-0.100;
#SAMPLESTART:49.500;
#SAMPLELENGTH:12.000;
#SELECTABLE:YES;
#BPMS:0.000=170.000;
#STOPS:;
#BGCHANGES:;
// cache tags:
#FIRSTBEAT:4.000;
#LASTBEAT:248.000;
#SONGFILENAME:Songs/juju steps/DYNAMITE RAVE (B4 ZA BEAT MIX)/dynamite rave b4 za beat mix 1.sm;
#HASMUSIC:1;
#HASBANNER:1;
#MUSICLENGTH:89.346;
// end cache tags

//---------------dance-single - ----------------
#NOTES:
     dance-single:
     :
     Challenge:
     10:
     0.825,0.659,0.067,0.056,0.515,505.000,6.000,5.000,0.000,0.000:
0000
0000
0000
0000
,
2000
0010
0000
0001
0000
0100
3000
0001
,
1000
0000
0100
0000
0010
0000
0001
0010
0000
0010
0001
0000
0100
0000
0010
0000
,
1000
0000
0001
0000
0100
0000
0010
1000
0000
1000
0100
0000
0010
0000
0001
0000
,
1000
0000
0100
0000
0001
0000
0100
0010
0000
0010
0100
0000
0001
0000
0100
0000
,
1000
0000
0010
0000
0100
0000
0001
0010
0000
0010
0100
0000
1000
0000
0000
0000
,
0100
0000
0010
0000
1000
0000
0001
0010
0000
0010
0100
0000
1000
0000
0010
0000
,
1000
0000
0001
0000
0100
0000
0010
1000
0000
1000
0010
0000
0100
0000
0001
0000
,
1000
0000
0100
0000
0010
0000
0100
1000
0000
1000
0100
0000
0010
0000
0001
0000
,
0100
0000
0010
0000
1000
0000
0100
0010
0000
0010
0100
0000
1000
0000
0000
0000
,
0001
0000
0100
0000
0010
0000
1000
0100
0000
0100
1000
0000
0100
0000
0010
0000
,
0001
0000
1000
0000
0010
0000
0001
0010
0000
0010
0001
0000
0010
0000
0100
0000
,
1000
0000
0001
0000
0100
0000
0010
1000
0000
1000
0100
0000
0010
0000
0001
0000
,
1000
0000
0010
0000
0100
0000
0001
1000
0000
0001
1000
0000
0100
0000
0000
0000
,
0100
0000
1000
0000
0010
0000
0100
0010
0000
1000
0001
0000
0010
0000
0100
0000
,
1000
0000
0100
0000
0010
0000
0001
1000
0000
0100
0010
0000
0001
0000
0010
0000
,
0100
0000
1000
0000
0001
0000
0100
0010
0000
0100
0010
0000
0100
0000
0001
0000
,
0010
0000
0100
0000
1000
0000
0100
0010
0000
0010
0001
0000
0010
0000
0000
0000
,
2002
0000
0000
3003
,
1000
0000
0100
0000
0010
0000
0001
0000
0100
0010
0100
0000
0001
0000
0010
0000
,
0100
0000
0010
0000
0001
0000
0100
0000
0001
0010
0001
0000
0100
0000
0100
0000
,
0100
0000
0001
0000
0010
0000
0100
0000
0010
0001
0010
0000
0100
0000
1000
0000
,
0010
0000
0100
0000
0001
0000
0100
0000
0010
0100
0010
0000
1000
0000
1000
0000
,
1000
0000
0100
0000
0010
0000
0001
0000
0100
0010
0100
0000
0010
0000
1000
0000
,
0001
0000
0100
0000
0010
0000
1000
0000
0001
0100
0001
0000
0010
0000
0010
0000
,
0010
0000
0001
0000
0100
0000
0010
0000
0100
0001
0100
0000
0001
0000
0100
0000
,
0010
0000
1000
0000
0001
0000
0010
0000
0100
1000
0100
0000
0010
0000
0010
0000
,
0010
0000
0100
0000
1000
0000
0001
0000
0100
0001
0100
0000
0010
0000
0100
0000
,
0001
0000
1000
0000
0010
0000
0100
0000
0001
0010
0001
0000
0100
0000
0100
0000
,
0100
0000
0001
0000
1000
0000
0010
0000
0001
1000
0001
0000
0010
0000
1000
0000
,
0001
0000
1000
0000
0010
0000
0001
0000
0010
1000
0010
0000
0001
0000
0001
0000
,
0001
0000
0010
0000
1000
0000
0001
0000
1000
0010
1000
0000
0001
0000
0100
0000
,
1000
0000
0001
0000
0010
0000
0001
0000
1000
0001
1000
0000
0100
0000
0100
0000
,
0100
0000
0001
0000
1000
0000
0010
0000
0001
1000
0001
0000
1000
0000
0100
0000
,
0010
0000
0001
0000
1000
0000
0100
0000
0010
0001
0010
0000
1000
0000
1000
0000
,
1000
0000
0001
0000
0010
0000
0001
0000
0100
0000
0000
0100
0000
0000
0100
0000
,
0001
0000
0000
0001
0000
0000
0001
0000
0010
0100
0010
0000
0100
1000
0100
0000
,
0010
0000
0001
0000
0010
0000
0100
0000
1000
0000
0000
0001
0000
0000
1000
0000
,
0100
0000
0000
0010
0000
0000
0100
0000
0010
0001
0010
0000
1000
0100
1000
0000
,
0100
0000
0010
0000
0001
0000
0100
0000
0010
0000
0000
0100
0000
0000
0001
0000
,
0010
0000
0000
1000
0000
0000
0100
0000
0010
0001
1000
0000
0001
0100
0010
0000
,
1000
0000
0100
0000
1000
0000
0100
0000
0010
0000
0000
0001
0000
0000
1000
0000
,
0100
0000
0000
0010
0000
0000
0001
0000
1000
0100
0010
0000
0010
0001
0100
0000
,
1001
0110
1001
0110
,
0010
0000
1000
0000
0001
0000
0100
0000
1000
0001
1000
0000
0100
0000
0001
0000
,
1000
0000
0001
0000
0100
0000
1000
0000
0100
0001
0100
0000
1000
0000
1000
0000
,
1000
0000
0100
0000
0001
0000
1000
0000
0001
0100
0001
0000
1000
0000
0010
0000
,
0001
0000
1000
0000
0100
0000
1000
0000
0001
1000
0001
0000
0010
0000
0010
0000
,
0010
0000
1000
0000
0001
0000
0100
0000
1000
0001
1000
0000
0001
0000
0010
0000
,
0100
0000
1000
0000
0001
0000
0010
0000
0100
1000
0100
0000
0001
0000
0001
0000
,
0001
0000
0100
0000
1000
0000
0001
0000
1000
0100
1000
0000
0100
0000
1000
0000
,
0001
0000
0010
0000
0100
0000
0001
0000
1000
0010
1000
0000
0001
0000
0001
0000
,
0001
0000
1000
0000
0100
0000
1000
0000
0010
0000
0000
0010
0000
0000
0010
0000
,
1000
0000
0000
1000
0000
0000
1000
0000
0100
0010
0100
0000
0010
0001
0010
0000
,
0100
0000
1000
0000
0100
0000
0010
0000
0001
0000
0000
1000
0000
0000
0001
0000
,
0010
0000
0000
0100
0000
0000
0010
0000
0100
1000
0100
0000
0001
0010
0001
0000
,
0010
0000
0100
0000
1000
0000
0010
0000
0100
0000
0000
0010
0000
0000
1000
0000
,
0100
0000
0000
0001
0000
0000
0010
0000
0100
1000
0001
0000
1000
0010
0100
0000
,
0001
0000
0010
0000
0001
0000
0010
0000
0100
0000
0000
1000
0000
0000
0001
0000
,
0010
0000
0000
0100
0000
0000
1000
0000
0001
0010
0001
0000
1000
0100
1000
0000
,
0001
0100
0000
0100
0010
0000
0010
1000
0000
1000
0001
0000
1000
0000
0100
0000
,
0220
0000
0000
0000
,
0330
0000
0000
0000
;
