#TITLE:My Addiction;
#SUBTITLE:;
#ARTIST:goreshit;
#TITLETRANSLIT:;
#SUBTITLETRANSLIT:;
#ARTISTTRANSLIT:;
#CREDIT:Rynker;
#BANNER:myaddiction-bn.png;
#BACKGROUND:myaddiction-bg.png;
#LYRICSPATH:;
#CDTITLE:;
#MUSIC:goreshit - my addiction.ogg;
#OFFSET:-0.047;
#SAMPLESTART:18.896;
#SAMPLELENGTH:12.000;
#SELECTABLE:YES;
#BPMS:0.000=197.000;
#STOPS:;
#BGCHANGES:;
// cache tags:
#FIRSTBEAT:15.000;
#LASTBEAT:542.500;
#SONGFILENAME:Songs/SPEEEDCOOOORE 4/My Addiction - [Rynker]/myaddiction.sm;
#HASMUSIC:1;
#HASBANNER:1;
#MUSICLENGTH:165.975;
// end cache tags

//---------------dance-single - Rynker----------------
#NOTES:
     dance-single:
     Rynker:
     Challenge:
     15:
     1.000,1.000,0.169,0.169,1.000,1507.000,28.000,28.000,0.000,0.000:
0000
0000
0000
0000
,
0000
0000
0000
0000
,
0000
0000
0000
0000
,
0000
0000
0000
0000
,
1000
0000
0020
0030
1000
0000
0100
1000
0001
1000
0100
0010
0002
0003
1000
0001
,
0100
0000
0020
0030
0100
0000
0001
1000
0100
1000
0001
0000
2000
3000
0100
0000
,
0010
0000
0002
0003
0100
0000
0010
0100
0001
0100
0010
1000
0002
0003
1000
0000
,
0100
0010
0200
0310
0001
0000
0100
0010
0100
0010
1000
0000
0002
0013
0100
1000
,
0010
0000
0200
0300
0001
0000
1000
0100
0010
0100
1000
0000
0002
0003
0010
0100
,
1000
0000
0002
0003
0100
0000
0010
1000
0001
1000
0100
0000
2000
3000
0001
0000
,
0100
0000
0020
0030
1000
0000
0001
0100
0010
0100
0001
0000
2000
3000
0010
0000
,
0100
0001
2000
3100
0010
0000
0100
1000
0001
0100
0010
0000
2000
3010
0100
0001
,
0100
0000
0020
0030
1000
0000
0100
1000
0001
1000
0100
0010
0002
0003
1000
0001
,
0100
0000
0020
0030
0100
0000
0001
1000
0100
1000
0001
0000
2000
3000
0100
0000
,
0010
0000
0002
0003
0100
0000
0010
0100
0001
0100
0010
1000
0002
0003
1000
0000
,
0200
0300
0000
0000
,
1000
0100
0010
0001
1000
0001
0100
0010
0100
0001
1000
0100
0010
0001
0010
0100
,
1000
0001
0100
0010
1000
0010
0100
0001
1000
0001
0100
0010
0100
0001
0010
0100
,
1000
0010
0100
0001
0100
0010
1000
0001
0010
0100
0010
0001
1000
0001
0100
0010
,
0100
0001
1000
0100
0010
0001
0010
0100
1000
0010
0100
0010
0100
0001
1000
0100
,
0010
0001
1000
0001
0100
0010
0100
0001
1000
0100
0010
0001
0100
0010
0100
0001
,
1000
0100
0010
0100
1000
0010
0100
0001
1000
0100
0010
0100
1000
0010
0100
0001
,
0010
0100
0010
0001
1000
0010
0100
0001
0100
0010
1000
0001
0010
0100
1000
0100
,
0010
0001
1000
0001
0100
0010
0100
0001
1000
0100
0010
0001
1000
0001
0100
0010
,
0100
0001
1000
0100
0010
0001
0010
0100
1000
0001
0100
0010
0100
0001
0010
0100
,
1000
0100
0010
0001
1000
0001
0100
0010
1000
0010
0100
0001
1000
0100
0010
0001
,
0100
0010
1000
0001
1000
0001
0100
0010
0100
0001
1000
0100
0010
0100
1000
0100
,
0010
0001
1000
0001
0100
0010
0100
0001
1000
0010
0100
0001
0010
0100
1000
0100
,
0010
0001
1000
0001
0100
0010
0100
0001
1000
0100
0010
0001
0010
0100
1000
0001
,
0100
0001
0100
0010
1000
0010
0100
0001
1000
0100
1000
0001
0010
0100
1000
0010
,
0100
0001
1000
0001
0100
0010
0100
0001
1000
0100
0010
0001
1000
0001
0100
0001
,
1000
0100
0010
0001
0010
0100
1000
0001
0100
0010
0100
0001
1000
0100
0010
0001
,
1000
0001
0010
0100
1000
0100
0010
0001
1000
0001
1000
0001
0100
0010
0100
0001
,
1000
0010
0100
0001
0100
0010
1000
0001
0100
0001
1000
0010
1000
0001
1000
0100
,
0010
0001
0010
0100
1000
0001
1000
0001
0100
0010
0100
0001
1000
0100
0010
0001
,
1000
0100
0010
0100
1000
0001
1000
0001
0100
0010
0100
0001
1000
0100
0010
0001
,
1000
0001
0100
0010
0100
0001
1000
0100
0010
0100
1000
0001
0010
0100
1000
0001
,
0100
0010
0100
0001
1000
0010
0100
0010
1000
0001
0100
0010
0100
0001
1000
0100
,
0010
0001
0010
0100
1000
0001
0100
0010
0100
0001
1000
0100
0010
0001
0010
0100
,
1000
0000
0000
0000
0001
0000
0000
0000
0000
0000
1000
0000
0001
0100
0001
0100
,
0001
0000
1000
0000
0100
0000
1000
0100
0000
1000
0001
0000
0100
0000
0001
0100
,
0000
0001
0010
0000
0100
0000
1000
0100
0000
1000
0010
0000
0100
0000
0001
0100
,
0000
0010
1000
0000
0010
0000
0100
0001
0000
1000
0100
0000
0010
0000
0001
0010
,
0000
0100
1000
0000
0001
0000
0100
0010
0000
0100
0001
0000
1000
0000
0001
0000
,
0010
0100
1000
0000
0100
0000
0010
0001
0000
1000
0001
0000
0100
0000
0010
0100
,
0000
0001
1000
0000
0001
0000
0100
0010
0000
0100
0001
0000
1000
0000
0100
0010
,
0000
0100
1000
0000
0001
0000
0100
0010
0000
1000
0001
0000
1000
0000
0100
0010
,
0000
0001
1000
0000
0100
0000
0010
0001
0000
1000
0001
0000
0100
0000
0010
0000
,
1000
0001
0100
0000
0010
0000
0000
0000
1000
0000
0000
0000
0100
0000
0000
0000
,
0010
0000
0001
0000
0100
0000
0010
1000
,
0100
0010
0001
1000
,
0001
0000
0000
0000
0100
0000
0000
0000
0010
0100
0010
0100
0001
1000
0001
1000
,
0100
1000
0000
0001
0010
0001
0200
0000
,
0310
1000
0000
0001
0010
0001
0200
0000
,
0310
1000
0000
0001
0010
0001
0200
0000
,
0310
1000
0000
0001
0010
0001
0200
0000
,
0310
1000
0001
0000
0010
0000
1100
0000
,
1000
0001
0100
0000
0001
0000
0011
0001
,
0010
0100
1000
0000
0001
0000
0101
0000
,
0100
0010
1000
0000
0001
0000
1001
1000
,
0100
0010
0001
0100
0010
1000
0100
0010
,
0001
1000
0001
0100
0010
0100
0001
1000
,
0100
0010
0100
1000
0001
0100
0010
0100
0001
0010
0100
1000
0100
0010
0001
0100
,
0010
0000
0000
0000
,
1001
0000
0001
0000
0100
0000
0010
0000
0100
0000
0001
1000
0001
0000
0010
0000
,
0100
1000
0100
0010
0001
0100
0010
0100
,
0001
0000
0010
0000
0100
0000
1000
0000
0001
0000
0100
0001
0100
0000
0010
0000
,
1000
0001
1000
0010
1000
0001
0010
0100
,
1000
0000
0100
0000
0010
0000
0001
0000
1000
0000
0001
0100
0001
0000
1000
0000
,
0010
0100
0001
1000
0100
0010
0100
1000
,
0001
0000
0100
0000
0010
0000
1000
0000
0001
0000
0100
0001
0100
0000
0001
0000
,
1000
0100
0010
0100
1000
0010
0100
0001
,
1000
0000
1000
0000
0100
0000
0010
0000
0001
0000
1000
0010
1000
0000
0001
0000
,
0100
0010
0100
0001
1000
0100
0010
0001
,
1000
0000
0010
0000
0100
0000
0001
0000
1000
0000
0010
1000
0010
0000
0100
0000
,
0001
0010
0001
1000
0100
0010
0001
1000
,
0010
0000
0100
0000
0001
0000
1000
0000
0010
0000
1000
0100
1000
0000
0001
0000
,
0100
0010
0100
0001
0010
0100
0010
0001
,
0100
0000
0010
0000
1000
0000
0001
0000
1000
0000
0100
0010
0001
0000
2000
0000
,
3010
0000
0100
0001
0100
0000
0001
0010
0001
0000
0010
0100
1000
0010
0100
0001
,
0010
0000
0001
0000
0100
0000
0010
0000
1000
0000
0100
0010
0001
0010
0100
1000
,
0001
0100
0001
1001
1000
0100
0010
0001
,
0001
0000
1000
0001
1000
0000
1100
0000
0100
0000
1000
0001
0100
0000
0001
1000
,
0010
0000
0100
0001
0100
0000
0001
1000
0001
0100
0001
1000
0100
0000
0010
0000
,
0001
0000
0100
0000
0010
0000
1000
0000
1000
0000
0001
0010
0001
0000
1000
0000
,
1010
0000
0010
0000
0100
0000
0001
0000
1000
0000
0100
0000
0110
0000
0010
0001
,
1000
0000
0001
0000
0100
0000
0010
1000
0001
1000
0001
1000
0100
0000
0010
0001
,
1000
0000
0001
0100
0010
0000
1000
0000
0100
0000
0010
0001
1000
0000
0001
0000
,
0000
0100
0001
0100
0001
0000
1000
0010
1000
0000
0001
0000
0010
0000
0100
0000
,
1000
0001
1001
1000
0100
0010
0001
1000
,
0001
0010
0100
1000
0001
0000
1000
0010
0100
0000
0001
0000
1000
0000
0100
0000
,
0010
0000
0001
0000
1000
0000
0100
0000
0010
0000
0001
0000
1000
0000
0010
0100
,
0001
1000
0010
0100
0001
1000
0100
0010
,
0001
0000
1000
0001
0010
0000
0100
0000
1000
0001
1000
0000
0010
0000
0100
0001
,
1000
0001
0010
0000
0001
0000
0010
0000
0100
0000
1000
0000
0010
0000
0100
0000
,
0001
0000
0010
0001
0100
0000
0010
1000
0100
0000
1000
0100
0010
0001
0100
0010
,
0100
0001
1000
0001
0100
0001
1100
0001
,
1000
0011
1000
0001
0010
0001
1010
0001
,
1000
0101
1000
0001
0100
0001
1100
0001
,
1000
0011
1000
0001
0010
0100
1010
0001
,
1000
0101
1000
0001
0100
0001
1100
0001
,
1000
0011
1000
0001
0010
0100
1010
0001
,
0010
0101
1000
0001
0100
0010
1100
0001
,
1000
0011
0100
0010
0100
0011
1100
0011
,
1100
0000
0001
0000
1000
0000
0100
0010
0001
0000
1000
0000
0001
0000
0100
0001
,
1000
0000
0010
0000
1000
0000
0001
0100
0010
0000
0100
0000
0001
0000
1000
0001
,
0010
0100
1000
0100
0010
0000
0100
1000
0010
0000
0100
0000
0001
0000
1000
0000
,
0100
0000
1000
0000
0100
0000
1000
0001
0100
0000
0001
0000
0100
0000
0010
1000
,
0100
0000
1000
0000
0010
0000
0100
0001
0100
0010
1000
0000
0100
0000
0010
0100
,
1000
0000
0001
0100
0010
0000
1000
0100
0010
0001
1000
0000
0001
0000
0010
0100
,
0010
0001
1000
0000
0001
0000
1000
0010
1000
0001
0100
0000
0001
0000
0010
0100
,
1000
0000
0001
0100
0010
0000
0100
0010
1000
0000
0100
1000
0010
0100
0001
0010
,
0100
0000
0000
0000
0000
0000
0000
0000
1000
0100
0010
0001
1000
0001
0100
0010
,
0100
0001
1000
0100
0010
0001
0010
0100
1000
0001
0100
0010
1000
0010
0100
0001
,
1000
0001
0100
0010
0100
0001
0010
0100
1000
0010
0100
0001
0100
0010
1000
0001
,
0010
0100
0010
0001
1000
0001
0100
0010
0100
0001
1000
0100
0010
0001
0010
0100
,
1000
0001
0100
0001
0010
0100
1000
0100
0010
0001
0100
0001
1000
0010
0100
0001
,
1000
0100
0010
0001
1000
0100
0010
0001
1000
0100
0010
0100
1000
0010
0100
0001
,
1000
0100
0010
0100
1000
0001
0100
0001
0010
0100
0010
0001
1000
0010
0100
0001
,
0100
0010
1000
0001
0010
0000
0001
0100
0010
1000
0001
1000
0010
0100
0010
1000
,
0001
0010
0100
1000
0001
1000
0010
0100
0010
1000
0001
0010
0100
1000
0100
0010
,
0001
1000
0010
0100
0010
1000
0100
0010
0001
0010
0100
1000
0001
1000
0010
0100
,
0001
0100
0010
1000
0001
0010
0100
1000
0010
0100
0001
1000
0001
1000
0010
0100
,
0010
1000
0001
0010
0001
1000
0100
0010
0100
1000
0001
1000
0010
0100
0010
1000
,
0001
1000
0010
0100
0001
0010
0001
1000
0100
1000
0001
0010
0100
1000
0001
0100
,
0001
1000
0100
1000
0001
0010
0001
1000
0010
1000
0001
0100
0001
0100
0010
1000
,
0001
0010
0001
1000
0100
0010
0001
0100
0010
1000
0001
1000
0010
0100
0010
1000
,
0001
0010
0100
1000
0001
0000
0100
0001
1000
0100
0010
0001
0010
0100
1000
0001
,
0100
0010
0100
0001
1000
0100
0010
0001
1000
0001
0010
0100
1000
0100
0010
0001
,
1000
0001
1000
0001
0100
0010
0100
0001
1000
0010
0100
0001
0100
0010
1000
0001
,
0100
0001
1000
0010
1000
0001
1000
0100
0010
0001
0010
0100
1000
0001
1000
0001
,
0100
0010
0100
0001
1000
0100
0010
0001
1000
0100
0010
0100
1000
0001
1000
0001
,
0100
0010
0100
0001
1000
0100
0010
0001
1000
0001
0100
0010
0100
0001
1000
0100
,
0010
0100
1000
0001
0010
0100
1000
0001
0100
0010
0100
0001
1000
0010
0100
0010
,
1000
0001
0100
0010
0100
0001
1000
0100
0010
0001
0010
0100
1000
0001
0100
0010
,
0100
0001
1000
0100
0010
0001
0010
0100
1000
0000
0000
0000
0000
0000
0000
0000
;

//---------------dance-single - Rynker----------------
#NOTES:
     dance-single:
     Rynker:
     Medium:
     9:
     0.633,0.981,0.157,0.331,0.127,654.000,26.000,55.000,0.000,0.000:
0000
0000
0000
0000
,
0000
0000
0000
0000
,
0000
0000
0000
0000
,
0000
0000
0000
0000
0000
0000
0000
0000
0000
0000
0000
0000
2000
3000
0001
0000
,
1000
0000
0002
0003
0000
0000
1000
0000
0010
0000
0000
0000
2000
3000
0000
0000
,
0100
0000
0020
0030
0000
0000
0100
0000
0000
0000
1000
0000
0002
0003
0000
0000
,
0100
0000
0020
0030
0000
0000
0100
0000
0000
0000
0001
0000
2000
3000
0000
0000
,
0100
0000
0020
0030
0000
0000
0100
0000
0000
0000
1000
0000
0002
0003
0000
0000
,
0010
0000
0200
0300
0000
0000
1000
0000
0000
0000
0001
0000
0200
0300
0000
0000
,
0010
0000
2000
3000
0000
0000
0001
0000
0000
0000
0100
0000
0020
0030
0000
0000
,
0100
0000
0002
0003
0000
0000
2000
3000
0000
0000
0100
0000
0010
0000
0000
0000
,
0200
0300
1000
0000
0000
0000
0002
0003
0000
0000
0100
0000
0010
0000
0000
0000
,
0200
0300
0001
0000
0000
0000
2000
3000
0000
0000
0001
0000
0010
0000
0000
0000
,
0002
0003
1000
0000
0000
0000
0020
0030
0000
0000
1000
0000
0001
0000
0000
0000
,
2000
3000
0010
0000
0000
0000
2000
3000
0000
0000
0001
0000
0010
0000
0000
0000
,
0200
0000
0000
0300
0000
0000
0000
0000
0000
0000
0000
0000
0000
0000
0000
0000
,
0000
0000
1000
0000
0000
0000
0001
0000
0100
0000
0010
1000
0000
0000
0001
0000
,
0000
0100
0000
0001
0010
0100
2000
0000
,
3000
0000
0001
0000
0000
0000
1000
0000
0001
0000
0100
0010
0000
0000
1000
0000
,
0000
0001
0000
0100
0010
1000
0002
0000
,
0003
0000
1000
0000
0000
0000
0001
0000
0010
0000
0100
1000
0000
0000
0100
0000
,
0000
0010
0000
0001
1000
0001
0200
0000
,
0300
0000
0010
0000
0000
0000
1000
0000
0010
0000
0100
0001
0000
0000
1000
0000
,
0000
0001
0000
0010
0100
1000
0002
0000
,
0003
0000
1000
0000
0000
0000
0001
0000
0100
0000
0010
1000
0000
0000
0010
0000
,
0000
0100
0000
0001
1000
0100
0020
0000
,
0030
0000
0001
0000
0000
0000
0100
0000
0010
0000
1000
0001
0000
0000
1000
0000
,
0000
0001
0000
0100
0010
1000
0002
0000
,
0003
0000
1000
0000
0000
0000
0001
0000
0010
0000
0100
1000
0000
0000
0100
0000
,
0000
0010
0000
0001
1000
0001
0200
0000
,
0300
0000
0010
0000
0000
0000
1000
0000
0010
0000
0100
0001
0000
0000
1000
0000
,
0000
0001
0000
0010
0100
1000
0002
0000
,
0003
0000
1000
0000
0000
0000
0001
0000
0100
0000
0010
1000
0000
0000
0010
0000
,
0000
0100
0000
0001
1000
0100
0020
0000
,
0030
0000
0001
0000
0000
0000
0100
0000
0010
0000
1000
0001
0000
0000
1000
0000
,
0000
0001
0000
0100
0010
1000
0002
0000
,
0003
0000
1000
0000
0000
0000
0001
0000
0010
0000
0100
1000
0000
0000
0100
0000
,
0000
0010
0000
0001
1000
0001
0200
0000
,
0300
0000
0010
0000
0000
0000
1000
0000
0010
0000
0100
0001
0000
0000
2000
0000
,
0000
3001
0000
0010
0100
1000
0002
0000
,
0003
0000
1000
0000
0000
0000
0010
0000
0100
0000
0000
0001
0000
0000
1000
0000
,
0000
0001
0000
0010
0100
1000
0001
0000
,
0000
0000
1000
0000
0000
0000
0001
0000
0100
0000
0000
0010
0000
0000
0100
0000
,
0000
0001
0000
1000
0100
0010
0001
0000
,
0000
0000
0010
0000
0000
0000
0100
0000
1000
0000
0000
0001
0000
0000
0100
0000
,
0000
0010
0000
1000
0010
0100
0001
0000
,
0000
0000
1000
0000
0000
0000
0001
0000
0010
0000
0000
0100
0000
0000
1000
0000
,
0000
0001
0000
0010
0100
1000
0001
0000
,
0000
0000
0100
0000
0000
0000
0001
0000
1000
0000
0000
0010
0000
0000
0100
0000
,
0000
0010
0000
1000
0100
0010
0001
0000
,
0000
0010
0000
0001
0010
0100
0000
0010
,
0000
0001
0000
1000
0010
1000
0200
0000
,
0310
0001
0000
1000
0010
1000
0200
0000
,
0310
0001
0000
1000
0010
1000
0200
0000
,
0310
0001
0000
1000
0010
1000
0200
0000
,
0310
0001
0000
1000
0010
1000
0200
0000
,
0300
0010
0000
0000
0000
0000
0001
0000
,
0000
1000
0000
0000
0000
0000
0010
0000
,
0000
0100
0000
0000
0000
0000
0001
0000
,
0000
1000
0000
0000
0000
0000
0100
0000
,
0000
0010
0000
0000
0000
0000
0001
0000
,
0000
1000
0000
0000
0000
0000
0010
0000
,
0000
0100
0000
0000
0000
0001
0000
0000
,
0010
0000
0000
0000
,
1001
0000
0001
0000
0100
0000
0010
0000
0100
0000
0001
1000
0001
0000
0010
0000
,
0100
1000
0100
0010
0001
0100
0010
0100
,
0001
0000
0010
0000
0100
0000
1000
0000
0001
0000
0100
0001
0100
0000
0010
0000
,
1000
0001
1000
0010
1000
0001
0010
0100
,
1000
0000
0100
0000
0010
0000
0001
0000
1000
0000
0001
0100
0001
0000
1000
0000
,
0010
0100
0001
1000
0100
0010
0100
1000
,
0001
0000
0100
0000
0010
0000
1000
0000
0001
0000
0100
0001
0100
0000
0001
0000
,
1000
0100
0010
0100
1000
0010
0100
0001
,
1000
0000
1000
0000
0100
0000
0010
0000
0001
0000
1000
0010
1000
0000
0001
0000
,
0100
0010
0100
0001
1000
0100
0010
0001
,
1000
0000
0010
0000
0100
0000
0001
0000
1000
0000
0010
1000
0010
0000
0100
0000
,
0001
0010
0001
1000
0100
0010
0001
1000
,
0010
0000
0100
0000
0001
0000
1000
0000
0010
0000
1000
0100
1000
0000
0001
0000
,
0100
0010
0100
0001
0010
0100
0010
0001
,
0100
0000
0010
0000
1000
0000
0001
0000
1000
0000
0100
0010
0001
0000
2000
0000
,
3010
0000
0100
0001
0100
0000
0001
0010
0001
0000
1000
0100
1000
0100
1000
0001
,
1000
0001
1000
0100
,
0010
0001
1000
0010
,
0100
0001
1000
0100
,
0100
0010
0010
0001
,
0001
1000
0001
0100
,
0010
1000
0001
0010
,
0100
1000
0001
0010
,
0100
0100
1000
1000
,
0001
0100
0000
0010
1000
0000
0001
0000
,
0010
0100
1000
1000
,
0001
0100
0010
0100
,
0001
0001
1000
1000
,
0100
0010
0001
1000
,
0001
0100
0010
0100
,
0001
1000
0100
0010
,
0001
1000
1000
0010
,
0000
1001
0000
0000
0000
0000
1100
0000
,
0000
0110
0000
0000
0000
0000
0011
0000
,
0000
1001
0000
0000
0000
0000
0101
0000
,
0000
1001
0000
0000
0000
0000
1010
0000
,
0000
1001
0000
0000
0000
0000
0011
0000
,
0000
1100
0000
0000
0000
0000
1010
0000
,
0000
0101
0000
0000
0000
0000
1001
0000
,
0000
1100
0000
0000
0000
0000
0110
0000
,
0000
0011
0000
0000
0000
0000
1001
0000
,
0000
0101
0000
0000
0000
0000
0110
0000
,
0000
1010
0000
0000
0000
0000
1001
0000
,
0000
1100
0000
0000
0000
0000
0110
0000
,
0000
0011
0000
0000
0000
0000
1000
0000
,
0000
0001
0000
0000
0000
0000
0010
0000
,
0000
0100
0000
0000
0000
0000
1000
0000
,
0000
0001
0000
0000
0000
0000
1000
0000
,
0000
0000
0000
0000
0000
1000
0000
0001
,
0100
0000
0010
1000
0000
0000
0001
0000
0000
0000
0100
0000
0000
0000
0001
0000
,
0010
0100
2000
0000
3000
0001
0000
1000
,
0001
0000
0100
0010
0000
0000
1000
0000
0000
0000
0001
0000
0000
0000
0100
0000
,
0010
1000
0002
0000
0003
1000
0000
0001
,
0010
0000
0100
1000
0000
0000
0100
0000
0000
0000
0010
0000
0000
0000
0001
0000
,
1000
0001
0200
0000
0300
0010
0000
1000
,
0010
0000
0100
0001
0000
0000
1000
0000
0000
0000
0001
0000
0000
0000
0010
0000
,
0100
1000
0002
0000
0003
1000
0000
0001
,
0100
0000
0010
1000
0000
0000
0010
0000
0000
0000
0100
0000
0000
0000
0001
0000
,
1000
0100
0020
0000
0030
0001
0000
0100
,
0010
0000
1000
0001
0000
0000
1000
0000
0000
0000
0001
0000
0000
0000
0100
0000
,
0010
1000
0002
0000
0003
1000
0000
0001
,
0010
0000
0100
1000
0000
0000
0100
0000
0000
0000
0010
0000
0000
0000
0001
0000
,
1000
0001
0200
0000
0300
0010
0000
1000
,
0010
0000
0100
0001
0000
0000
1000
0000
0000
0000
0001
0000
0000
0000
0010
0000
,
0100
1000
0002
0000
0003
1000
0000
0001
,
0100
0000
0010
1000
0000
0000
0010
0000
0000
0000
0100
0000
0000
0000
0001
0000
,
1000
0100
0020
0000
0030
0001
0000
0100
,
0010
0000
1000
0001
0000
0000
1000
0000
0000
0000
0001
0000
0000
0000
0100
0000
,
0010
1000
0002
0000
0003
1000
0000
0001
,
0010
0000
0100
1000
0000
0000
0100
0000
0000
0000
0010
0000
0000
0000
0001
0000
,
1000
0001
0200
0000
0300
0010
0000
1000
,
0010
0000
0100
0001
0000
0000
2000
0000
0000
0000
3000
0000
0000
0000
0000
0000
;
