#TITLE:Wisdom of The Kings;
#SUBTITLE:;
#ARTIST:Rhapsody;
#TITLETRANSLIT:;
#SUBTITLETRANSLIT:;
#ARTISTTRANSLIT:;
#CREDIT:;
#BANNER:ba.jpg;
#BACKGROUND:bg.jpg;
#LYRICSPATH:lyric.lrc;
#CDTITLE:cd.png;
#MUSIC:Wisdom Of The Kings.mp3;
#OFFSET:-0.100;
#SAMPLESTART:105.960;
#SAMPLELENGTH:23.000;
#SELECTABLE:YES;
#BPMS:0.000=80.000,34.000=180.000,116.000=90.000,132.000=180.000,228.000=90.000,244.000=180.000,308.000=90.000,324.000=180.000,356.000=90.000,372.000=180.000,436.000=90.000,453.000=180.000,517.000=90.000,533.000=180.000;
#STOPS:33.000=0.520
;
#BGCHANGES:;
// cache tags:
#FIRSTBEAT:0.000;
#LASTBEAT:663.000;
#SONGFILENAME:Songs/toune 2/(AS)[P]Wisdom of the Kings/WOTK.sm;
#HASMUSIC:1;
#HASBANNER:1;
#MUSICLENGTH:268.754;
// end cache tags

//---------------dance-single - ----------------
#NOTES:
     dance-single:
     :
     Hard:
     12:
     1.000,1.000,0.770,0.387,1.000,1912.000,207.000,104.000,0.000,0.000:
0001
0010
0100
0010
0002
0000
0103
0010
,
1000
0100
0002
0000
0000
0000
0000
0003
,
0010
0100
1000
0100
0020
0000
0130
1000
,
0002
0000
0203
0000
0000
0000
0000
0300
,
0010
0100
1000
0100
0002
0000
0000
0103
,
2000
0000
0000
3010
0002
0000
0000
0103
,
1000
0000
0000
0100
0000
0000
0010
0000
0000
0000
0001
0000
0000
0000
0000
0020
0000
0000
0000
0000
0000
0000
0000
0000
,
0000
0000
0000
0000
,
0000
0000
0000
0000
0030
0000
0000
0000
1001
0100
0010
0001
0100
0001
0100
0001
,
0200
0000
0000
0000
0000
0000
0000
0000
0000
0000
0000
0000
0000
0000
0000
0000
1300
0000
0000
0000
0000
0000
0000
0000
0010
0000
0000
0000
0000
0000
0000
0000
2100
0000
0000
0000
0000
0000
0000
0000
0010
0000
0000
0000
0000
0000
0000
0000
0002
0000
0000
0000
0000
0000
0000
0000
0000
0000
0000
0000
0000
0000
0000
0003
,
0100
0000
0010
0000
0001
0000
0010
3000
1010
0100
0010
0100
1000
0001
1000
0001
,
2000
0000
0000
0000
0000
0000
0000
0000
0000
0000
0000
0000
0000
0000
0000
0000
3001
0000
0000
0000
0000
0000
0000
0000
0100
0000
0000
0000
0000
0000
0000
0000
1020
0000
0000
0000
0000
0000
0000
0000
0100
0000
0000
0000
0000
0000
0000
0000
0002
0000
0000
0000
0000
0000
0000
0000
0000
0000
0000
0000
0000
0000
0000
0003
,
1000
0000
0100
0000
0002
0000
0000
0033
1100
0010
0100
1000
0100
0010
0100
0010
,
0200
0000
0000
0000
0000
0000
0301
0000
0010
0100
2000
0000
0000
0000
3010
0000
,
0102
0000
0010
0000
0000
0000
1000
0100
0010
0000
0100
0000
0010
0100
0010
0003
,
2200
0000
0000
0000
0000
0000
0000
0000
0000
0000
0000
0000
0000
0000
0000
0000
0000
0000
0000
0000
0000
0000
0000
0000
0000
0000
0000
0300
0100
0000
0000
0000
0020
0000
0000
0000
0000
0000
0000
0000
0000
0000
0000
0000
0000
0000
0000
0030
0002
0000
0000
0000
0000
0000
0000
0000
0000
0000
0000
0000
3003
0000
0000
0000
,
1000
0010
1000
0010
0100
0010
0001
0010
0100
1000
0010
1000
0100
0010
0001
0010
,
0100
1000
0010
1000
0100
0010
0100
1000
0001
0010
0100
1000
0010
0100
1000
0100
,
0010
1000
0010
1000
0100
1000
0100
0010
0001
1000
0001
1000
0010
0100
0010
0100
,
0001
0010
0100
0010
0001
1000
0001
1000
0100
0010
0100
1000
0001
0100
0001
0100
,
0010
0100
1000
0100
0010
0001
0100
0001
0100
0010
0100
1000
0100
0010
0100
0010
,
0001
0100
0001
0100
0010
0100
1000
0100
0002
0010
0100
1000
0100
0010
1003
0100
,
0020
0000
0000
0000
0001
0000
0000
0000
0100
0000
0000
0000
1000
0000
0000
0030
0001
0000
0000
0000
0000
0000
0000
0000
0100
0000
0000
0000
0000
0000
0000
0000
0010
0000
0000
0000
1000
0000
0000
0000
0010
0000
0000
0000
1000
0000
0000
0000
0100
0000
0000
0000
0010
0000
0000
0000
0001
0000
0000
0000
0010
0000
0000
0000
,
0100
0001
0100
0001
1000
0100
0010
0001
0100
0010
0001
0010
0100
0010
0100
1000
,
0100
0010
0001
0010
0100
0001
0100
0001
0010
0100
1000
0100
0010
1000
0010
1000
,
0100
0010
0100
0010
0001
0010
0100
1000
0010
0001
0010
0100
0010
0001
0100
0010
,
0001
0010
0100
1000
0010
0100
1000
0100
0010
1000
0010
1000
0100
0010
0001
0010
,
0100
0001
0100
0001
0010
0001
0010
0100
0010
0001
0100
0010
0001
0010
0100
0010
,
0002
0000
0000
0000
0000
0000
0000
0000
0000
0000
0000
0000
1000
0000
0000
0000
0000
0000
0000
0000
0000
0000
0000
0000
0100
0000
0000
0000
0000
0000
0000
0000
0000
0000
0000
0000
0010
0000
0000
0000
0000
0000
0000
0000
0000
0000
0000
0000
0100
0000
0000
0000
0000
0000
0000
0000
0000
0000
0000
0000
1000
0000
0000
0000
0000
0000
0000
0000
0000
0000
0000
0000
0103
0000
0000
0000
0000
0000
0000
0000
0000
0000
0000
0000
0010
0000
0000
0000
0000
0000
0000
0000
0000
0000
0000
0000
2000
0000
0000
0000
0000
0000
0000
0000
0000
0000
0000
0000
0000
0000
0000
0000
0010
0000
0000
0000
0000
0000
0000
0000
0000
0000
0000
0000
0000
0000
0000
0000
0001
0000
0000
0000
0000
0000
0000
0000
0000
0000
0000
0000
0000
3000
0000
0000
1010
0000
0000
0000
0000
0000
0000
0000
0000
0000
0000
0000
0000
0000
0000
0000
0000
0000
0000
0000
0000
0000
0000
0000
0000
0000
0000
0000
0000
0000
0000
0000
0000
0000
0000
0000
0000
0000
0000
0000
0000
0000
0000
0000
0000
0000
0000
0000
,
0220
0000
0000
0000
0000
0000
0000
0000
0000
0000
0000
0000
0000
0000
0000
0000
0000
0000
0000
0000
0000
0000
0000
0000
0000
0000
0000
0000
0000
0000
0000
0000
0000
0000
0000
0000
0000
0000
0000
0000
0000
0000
0000
0000
0000
0000
0000
0000
0000
0000
0000
0000
0000
0000
0000
0000
0000
0000
0000
0000
0000
0000
0000
0000
0000
0000
0000
0000
0000
0000
0000
0000
0000
0000
0000
0000
0000
0000
0000
0000
0000
0000
0000
0000
0000
0000
0000
0000
0000
0000
0000
0000
0000
0000
0000
0000
0000
0000
0000
0000
0000
0000
0000
0000
0000
0000
0000
0000
0330
0000
0000
0000
0000
0000
0000
0000
0000
0000
0000
0000
0001
0000
0000
0000
0000
0000
0010
0000
0000
0000
0000
0000
0100
0000
0000
0000
0000
0000
1000
0000
0000
0000
0000
0000
0000
0000
0000
0000
0000
0000
0000
0000
0001
0000
0000
0000
0000
0000
0000
0000
0100
0000
0000
0000
0000
0000
0000
0000
0010
0000
0000
0000
0000
0000
0001
0000
0000
0000
0000
0000
0010
0000
0000
0000
0000
0000
0000
0000
0000
0000
0000
0000
,
2200
0000
0000
0000
0000
0000
0000
0000
0000
0000
0000
0000
0000
0000
0000
0000
0000
0000
0000
0000
0000
0000
0000
0000
0000
0000
0000
0000
0000
0000
0000
0300
0020
0000
0000
0000
0000
0000
0000
0000
0000
0000
0000
0000
0000
0000
0000
0030
0010
0000
0000
0000
3010
0000
0100
0000
1000
0000
0000
0000
0000
0000
0000
0000
,
0202
0000
0000
0000
0000
0000
0000
0000
0000
0000
0000
0000
0000
0000
0000
0000
0000
0000
0000
0000
0000
0000
0000
0000
0000
0000
0000
0000
0000
0000
0000
0000
0000
0000
0000
0000
0303
0000
0000
0000
0000
0000
0000
0000
0000
0000
0000
0100
1010
0000
0000
0000
0000
0000
0000
0001
1010
0000
0000
0000
0000
0000
0000
0000
,
0220
0000
0000
0000
0000
0000
0000
0000
0000
0000
0000
0000
0000
0000
0000
0000
0000
0000
0000
0000
0000
0000
0000
0000
0000
0000
0000
0000
0000
0000
0000
0000
0000
0000
0000
0000
0000
0000
0000
0000
0000
0000
0000
0000
0000
0000
0000
0000
0000
0000
0000
0000
0000
0000
0000
0000
0000
0000
0000
0000
0000
0000
0000
0000
0000
0000
0000
0000
0000
0000
0000
0000
0000
0000
0000
0000
0000
0000
0000
0000
0000
0000
0000
0000
0000
0000
0000
0000
0000
0000
0000
0000
0000
0300
0000
0000
2000
0000
0000
0000
0000
0000
0000
0000
0000
0000
0000
0000
0000
0000
0000
0000
0000
0000
0000
0000
0000
0000
0000
0000
0000
0000
0000
0000
0000
0000
0000
0000
0000
0000
0000
0000
0000
0000
0000
0000
0000
0000
0000
0000
0000
3000
0000
0000
1030
0000
0000
0000
0000
0000
0000
0000
0100
0000
0000
0000
0000
0000
0000
0000
0010
0000
0000
0000
0000
0000
0000
0000
0001
0000
0000
0000
0000
0000
0000
0000
0000
0000
0000
0000
0010
0000
0000
0000
0000
0000
0000
0000
0000
0000
0000
0000
,
1100
0001
0010
0000
0101
0000
0100
0000
1010
0100
1000
0000
1001
0000
0010
0000
,
0101
0010
0100
0000
1010
0000
1000
0000
0110
0001
0010
0000
0101
0000
0010
0000
,
1001
0010
0100
0000
1100
0000
0100
0000
1010
0100
0010
0000
0101
0000
1000
0000
,
0110
0001
0010
0000
0011
0000
0100
0000
1010
0100
0010
0000
0101
0000
0100
0000
,
2010
0000
0100
0000
0010
3000
0102
0000
0010
0000
0100
0003
1020
0000
0001
0030
,
0210
0000
1000
0000
0010
0300
0102
0000
0010
0000
0100
0003
2001
0000
0100
3000
,
0021
0000
0100
0000
0001
0030
2100
0000
0010
0000
0001
3000
0210
0000
1000
0300
,
0012
0000
0000
0000
0000
0000
0100
0000
0000
0000
0000
0003
1010
0000
0000
0000
,
0010
1000
0010
1000
0010
0000
0100
0000
0011
0000
0010
0000
0100
0000
0010
0000
,
1000
0100
0010
0001
0010
0000
0100
0000
0011
0000
0010
0000
1000
0000
0100
0000
,
1010
0010
0110
0100
0101
0001
1001
1000
,
1100
0100
0110
0010
1010
1000
1100
0100
,
0001
0010
0100
0010
0001
0000
0010
0100
1000
0000
0100
0000
0011
0000
0000
0000
,
1000
0010
1000
0010
0100
0000
0001
0100
1000
0000
0010
0000
0101
0000
0000
0000
,
1010
0000
0000
0000
0000
0000
0000
0000
0001
0100
0001
0100
0010
0100
1000
0100
,
0012
0000
0000
0000
0010
0000
0000
0000
0010
0000
0000
0000
0013
0100
1000
0000
,
0001
0010
0100
0000
0010
0001
0010
0000
1000
0100
0010
0001
0010
0100
0010
0000
,
2100
0010
0001
0000
0001
0010
0100
0000
0001
0100
0001
0100
0010
0001
3010
0000
,
1000
0010
1000
0000
0010
1000
0010
0000
0100
0010
0001
0010
0100
0010
0100
0000
,
1002
0100
0010
0000
1000
0010
1000
0000
0010
1000
0010
1000
0100
0010
0103
0000
,
1010
0001
0100
0000
0010
0000
0101
0000
0010
0000
0100
0000
1001
0000
0010
0000
,
0101
1000
0010
0000
0100
0000
1010
0000
0100
0000
1000
0000
0110
0000
0010
0000
,
1001
0100
0010
0000
0100
0000
1010
0000
0100
0000
1000
0000
0011
0000
0100
0000
,
2001
0000
0000
0000
0010
0000
0000
0000
0100
0000
0000
0000
0000
0000
0000
0000
0000
0000
0000
0000
0000
0000
0000
0000
0010
0000
0000
0000
0000
0000
0000
0000
0000
0000
0000
0000
0000
0000
0000
0000
0000
0000
0000
0000
0000
0000
0000
3000
0101
0000
0000
0000
0000
0000
0000
0000
0000
0000
0000
0000
0000
0000
0000
0000
,
1001
0000
0010
0100
1000
0100
0001
0010
,
1000
0100
0010
0001
0001
0010
0100
1000
,
0110
0000
1000
0100
0001
0010
0001
0100
,
0001
0000
0000
0000
0010
0000
0000
0000
0100
0000
0000
0000
1000
0000
0000
0000
0001
0000
0000
0000
0010
0000
0000
0000
0100
0000
0000
0000
1000
0000
0000
0000
0011
0000
0000
0000
0000
0000
0000
0000
0000
0000
0000
0000
0000
0000
0000
0000
2020
0000
0000
0000
0000
0000
0000
3030
0202
0000
0000
0000
0000
0000
0000
0303
,
0010
1000
0010
1000
0010
1000
0010
1000
0010
1000
0010
1000
0010
1000
0010
1000
,
0010
0100
0010
0100
0010
0100
0010
0100
0010
0100
0010
0100
0010
0100
0010
0100
,
1000
0010
1000
0100
0010
0100
1000
0001
0010
0100
1000
0010
1000
0010
0100
0010
,
0001
0100
1000
0100
0010
0001
0100
0010
0001
0100
0001
0100
0010
0100
1000
0100
,
0001
1000
0001
1000
0010
0100
1000
0100
0010
1000
0010
1000
0100
0010
0001
0010
,
0100
0001
0100
0001
0010
0100
1000
0100
0010
1000
0010
1000
0100
0010
0001
0010
,
1000
0100
0010
0001
0010
0100
1000
0100
0010
0001
0010
0100
1000
0100
0010
0001
,
0010
0000
0000
0000
0100
0000
0000
0000
1000
0000
0000
0000
0100
0000
0000
0000
0010
0000
0000
0000
0001
0000
0000
0000
0010
0000
0000
0000
0100
0000
0000
0000
0022
0000
0000
0000
0000
0000
0000
0000
0000
0000
0000
0000
0000
0000
0000
0033
2200
0000
0000
0000
0000
0000
0000
0000
0000
0000
0000
0000
0000
0000
0000
3300
,
0001
1000
0001
1000
0001
1000
0001
1000
0001
1000
0001
1000
0100
0010
0001
0010
,
0100
0010
0100
0010
0100
0010
0100
0010
0100
0010
0100
0010
0100
0010
0100
0010
,
1000
0100
0010
0100
1000
0001
1000
0001
0100
0010
0001
0010
0100
0001
0010
0100
,
1000
0100
0010
0100
0010
0001
1000
0001
1000
0100
0010
0100
1000
0001
1000
0001
,
0010
1000
0010
1000
0010
1000
0010
1000
0010
0100
0010
0100
0010
0100
0010
0100
,
0001
0100
0001
0100
0001
0100
0001
0100
0001
0010
0001
0010
0001
0010
0001
0010
,
0001
1000
0001
1000
0001
1000
0001
1000
0001
1000
0001
1000
0001
1000
0001
1000
,
0001
1000
0001
1000
0001
1000
0001
1000
0001
1000
0001
1000
0001
0000
0000
0000
,
1100
0010
0001
0010
0100
0000
1000
0100
1001
0010
0100
1000
0110
0000
0000
0000
,
1010
0100
0010
0001
0010
0000
0010
0100
1001
0010
0100
1000
0011
0100
1000
0010
,
0100
1000
0100
0010
1001
0010
0100
0000
0010
0000
1000
0100
0011
0000
0010
0000
,
0100
1000
0100
0010
0101
1000
0100
0010
1000
0100
0010
0001
2010
0010
0010
3010
,
0100
0100
1010
0001
0010
0100
0011
0100
,
1000
0100
1001
0010
0100
0010
1100
0010
,
0001
0100
1010
0001
0010
0100
1001
0100
,
0100
0000
0010
0000
0101
0010
0001
0000
0100
0010
0100
0000
1010
0100
0010
0001
,
0010
0010
1100
0010
0100
0001
0110
0010
,
0001
0100
1001
0010
1000
0100
0011
0010
,
1000
0010
0101
1000
0100
0100
0011
0100
,
0010
0100
1010
0110
0011
0110
1001
0000
,
1000
0100
1000
0100
1000
0010
1000
0010
1000
0100
1000
0100
1000
0010
1000
0010
,
1000
0001
1000
0001
1100
0110
0011
0101
1000
0100
1000
0100
1010
0110
0011
0101
,
0010
1000
0010
1000
0010
0100
0010
0100
0010
1000
0010
1000
0010
0100
0010
0100
,
0010
0001
0010
0001
0110
1100
1001
0110
0010
0100
1000
0100
0011
0101
0110
1010
,
0201
0000
0000
0000
0001
0000
0310
0100
2001
0000
0010
0000
3100
0000
0000
0000
,
1020
0000
0000
0000
0100
0000
0031
0010
2100
0000
0010
0000
3001
0000
0000
0000
,
1020
0000
0000
0000
0000
0000
0000
0000
0000
0000
0000
0000
0000
0000
0000
0000
1000
0000
0000
0000
0000
0000
0000
0000
0000
0000
0000
0000
0000
0000
0000
0030
1002
0000
0000
0000
0100
0000
0000
0000
0010
0000
0000
0000
0000
0000
0000
0003
1200
0000
0000
0000
0000
0000
0000
0000
0010
0000
0000
0000
0000
0000
0000
0300
,
1002
0000
0000
0000
0000
0000
0000
0000
0100
0000
0000
0000
0000
0000
0000
0000
0010
0000
0000
0000
0000
0000
0000
0000
0100
0000
0000
0000
0000
0000
0000
0003
1020
0000
0000
0000
0000
0000
0000
0000
0000
0000
0000
0000
0000
0000
0000
0000
0100
0000
0000
0000
0000
0000
0000
0000
0000
0000
0000
0000
0030
0000
0000
0000
,
0201
0000
0010
0000
0001
0000
0310
0100
2001
0000
0010
0000
3001
0010
0100
0010
,
2100
0000
0010
0000
0001
0000
3010
0100
1020
0000
0100
0000
1030
0100
0010
0100
,
2001
0000
0000
0000
0000
0000
0000
0000
0010
0000
0000
0000
0000
0000
0000
0000
0001
0000
0000
0000
0000
0000
0000
0000
0010
0000
0000
0000
0000
0000
0000
3000
0201
0000
0000
0000
0010
0000
0000
0000
1000
0000
0000
0000
0000
0000
0000
0300
0120
0000
0000
0000
0001
0000
0000
0000
0100
0000
0000
0000
0000
0000
0000
0030
,
2001
0000
0000
0000
0000
0000
0000
0000
0010
0000
0000
0000
0000
0000
0000
0000
0100
0000
0000
0000
0000
0000
0000
0000
0010
0000
0000
0000
0000
0000
0000
3000
0102
0000
0000
0000
0000
0000
0000
0000
1000
0000
0000
0000
0000
0000
0000
0000
0100
0000
0000
0000
0000
0000
0000
0000
0010
0000
0000
0000
0003
0000
0000
0000
,
1000
0010
1000
0010
1000
0010
0100
0000
1010
0000
0100
0000
1001
0000
0100
0000
,
0010
0100
0010
0100
0010
0100
1000
0000
0110
0000
0100
0000
0101
0000
0010
0000
,
1000
0100
0010
0001
0010
0100
1000
0000
0110
0000
0010
0000
1001
0000
0100
0000
,
0010
0000
0100
0000
0010
0000
1000
0000
0000
0100
0000
0000
1010
0000
0000
0000
0000
0000
0110
0000
0000
0000
0000
0000
,
0201
0000
0000
0000
0010
0000
0000
0000
0301
0010
0100
1000
0010
0100
1000
0000
,
0021
0000
0000
0000
1000
0000
0000
0000
0130
1000
0100
0010
1000
0100
0010
0000
,
1002
0000
0000
0000
0100
0000
0000
0000
0013
0100
1000
0100
0001
0010
0100
0000
,
0201
0000
0010
0000
1000
0000
0010
0000
0301
0010
0100
0001
0010
0100
0010
0001
,
1100
0100
0100
0100
0010
0000
0001
0000
1010
0000
0100
0000
1001
0010
0001
0000
,
1010
0010
0010
0010
0100
0000
0100
0000
1010
0100
0010
0001
1100
0000
0010
0100
,
0011
1000
0001
1000
0101
0010
0100
0010
0001
1000
0100
0010
1001
0000
0100
0000
,
0001
0010
0100
1000
0011
0100
1000
0100
0002
0010
0100
1000
0200
0000
0000
0000
,
0000
0000
0000
0303
1010
0000
0010
0000
0011
0100
1000
0000
0100
0010
0100
0000
,
0001
0000
1000
0000
0101
0000
0100
0000
0110
0001
0010
0000
1000
0100
0010
0000
,
1000
0000
0001
0000
1000
0010
1000
0000
0100
0010
0100
0000
0001
0010
0100
0000
,
0001
1000
0001
0000
0010
0100
1000
0100
0010
0001
0100
0010
0001
0000
0100
0000
,
1010
0000
0000
0000
0010
0100
1000
0100
0010
1000
0010
1000
0100
0010
0001
0000
,
0110
0000
0100
0000
0010
0100
0010
0001
0100
0001
0100
0001
0010
0100
1000
0000
,
0101
0010
1100
0100
1010
0001
0110
0001
,
1010
0000
0100
0000
0010
0000
0000
0000
1002
0000
0000
0000
0000
0000
0000
0000
0100
1000
0000
0000
0000
0000
0000
0000
0100
1000
0000
0000
0003
0000
0000
0000
,
0010
0100
1000
0000
0011
0100
0001
0000
1010
0001
0100
0000
1001
0100
0010
0100
,
1000
0100
0010
0000
1001
0100
0010
0000
1010
0100
1000
0000
0101
0010
0001
0010
,
0100
1000
0100
0000
0011
1000
0100
0000
1010
0100
0010
0000
0101
0010
0100
1000
,
0100
0010
0001
0000
1010
0100
0010
0000
1001
0010
0001
0000
0110
1000
0100
0010
,
0100
1000
0100
0000
1010
0001
0100
0000
0010
0000
0101
0000
0010
0000
1000
0000
,
0011
0100
0010
0000
0110
0001
1000
0000
0100
0001
1010
0000
0010
0000
0100
0000
,
0101
1000
0010
0000
0110
1000
0001
0000
0010
0000
1100
0000
0100
0000
0010
0000
,
0011
0000
0000
0000
0000
0000
0000
0000
0100
0000
0000
0000
0000
0000
0000
0000
1002
0000
0000
0000
0100
0000
0000
0000
0010
0000
0000
0000
0000
0000
0000
0000
0000
0000
0000
0000
0000
0000
0000
0010
0100
0000
0000
0000
0000
0000
0000
0000
0000
0000
0000
0000
0000
0000
0000
0000
0000
0000
0000
0000
0000
0000
0000
0013
,
1000
0000
0110
0000
0010
1000
0001
0100
,
0010
0100
1000
0001
0100
0001
0010
1000
,
0001
0100
0010
0000
0100
0010
0001
0010
,
0100
0000
1000
0000
0001
0100
0010
1000
0001
0100
0010
1000
0101
0000
0000
0000
,
2200
0000
0000
0000
0000
0000
0000
3300
0202
0000
0000
0000
0000
0000
0000
0303
0010
0000
0000
0000
1000
0000
0000
0000
0010
0000
0000
0000
1000
0000
0000
0000
0010
0000
0000
0000
1000
0000
0000
0000
0010
0000
0000
0000
1000
0000
0000
0000
0010
0000
0000
0000
1000
0000
0000
0000
0010
0000
0000
0000
1000
0000
0000
0000
,
0010
1000
0010
1000
0001
0100
0001
0100
0001
0100
0001
0100
0001
0100
0001
0100
,
0001
0100
0001
0100
0001
0010
0100
1000
0100
0010
1000
0010
0100
0010
0100
1000
,
0001
0010
0100
1000
0010
0100
1000
0100
0010
1000
0010
1000
0100
0010
0100
1000
,
0001
0010
0100
0010
0001
1000
0001
1000
0010
0100
1000
0100
0010
1000
0010
1000
,
0100
0010
0100
1000
0001
0010
0100
0010
0001
1000
0100
0010
0001
0100
0010
0001
,
1000
0100
0010
0001
0100
0010
0001
0010
0100
1000
0100
0010
0001
0010
0100
1000
,
0100
0000
0000
0000
0010
0000
0000
0000
0001
0000
0000
0000
0010
0000
0000
0000
0100
0000
0000
0000
1000
0000
0000
0000
0100
0000
0000
0000
0010
0000
0000
0000
0001
0000
0000
0000
0010
0000
0000
0000
0100
0000
0000
0000
1000
0000
0000
0000
0202
0000
0000
0000
0000
0000
0000
0000
0000
0000
0000
0000
0000
0000
0000
0303
,
0220
0000
0000
0000
0000
0000
0000
0000
0000
0000
0000
0000
0000
0000
0000
0330
1000
0000
0000
0000
0001
0000
0000
0000
1000
0000
0000
0000
0001
0000
0000
0000
1000
0000
0000
0000
0001
0000
0000
0000
1000
0000
0000
0000
0001
0000
0000
0000
1000
0000
0000
0000
0001
0000
0000
0000
1000
0000
0000
0000
0001
0000
0000
0000
,
0100
0001
0100
0001
0010
0100
0010
0100
0010
0100
0010
0100
0010
0100
0010
0100
,
0010
0100
0010
0100
1000
0100
0010
0100
1000
0001
1000
0001
0100
0010
0001
0010
,
0100
0001
0100
0001
0010
0100
1000
0010
0100
1000
0100
0010
0001
1000
0100
0010
,
0001
0100
0001
0100
0001
1000
0001
1000
0001
1000
0001
1000
0001
0100
0001
0100
,
0001
0100
0001
0100
0001
0010
0001
0010
0001
0010
0001
0010
0001
0100
0001
0100
,
0001
0100
0001
0100
1000
0100
0010
0001
0010
0100
1000
0100
0010
0001
0010
0100
,
1000
0000
0000
0000
0000
0000
0000
0000
0000
0000
0000
0000
0100
0000
0000
0000
0000
0000
0000
0000
0000
0000
0000
0000
0010
0000
0000
0000
0000
0000
0000
0000
0000
0000
0000
0000
0001
0000
0000
0000
0000
0000
0000
0000
0000
0000
0000
0000
0110
0000
0000
0000
0000
0000
0000
0000
0000
0000
0000
0000
0000
0000
0000
0000
0000
0000
0000
0000
0000
0000
0000
0000
0000
0000
0000
0000
0000
0000
0000
0000
0000
0000
0000
0000
0000
0000
0000
0000
0000
0000
0000
0000
0000
0000
0000
0000
0000
0000
0000
0000
0000
0000
0000
0000
0000
0000
0000
0000
0000
0000
0000
0000
0011
0000
0000
0000
0000
0000
0000
0000
0000
0000
0000
0000
0000
0000
0000
0000
0000
0000
0000
0000
0000
0000
0000
0000
0000
0000
0000
0000
0000
0000
0000
0000
0220
0000
0000
0000
0000
0000
0000
0000
0000
0000
0000
0000
0000
0000
0000
0000
0000
0000
0000
0000
0000
0300
0000
0000
1000
0000
0000
0000
0000
0000
0000
0000
0000
0000
0000
0000
0000
0000
0000
0000
0000
0000
0000
0000
0000
0030
0000
0000
,
0202
0000
0000
0000
0000
0000
0000
0003
0001
0000
0000
0000
0000
0000
0000
0300
0010
0000
0000
0000
0100
0000
0000
0000
0010
0000
0000
0000
0100
0000
0000
0000
0010
0000
0000
0000
0100
0000
0000
0000
0010
0000
0000
0000
0100
0000
0000
0000
0010
0000
0000
0000
0100
0000
0000
0000
0010
0000
0000
0000
0100
0000
0000
0000
,
0010
0100
0010
0100
0010
1000
0010
1000
0010
1000
0010
1000
0010
1000
0010
1000
,
0010
1000
0010
1000
0100
0010
0100
1000
0001
0010
0100
1000
0010
0100
0010
0001
,
1000
0100
0010
0100
0001
1000
0001
1000
0100
0010
0001
0010
0100
0001
0100
0001
,
0010
0100
1000
0100
0010
1000
0010
1000
0100
0010
0001
0010
0100
0001
0100
0001
,
0010
0100
1000
0100
0010
0001
0010
0001
1000
0100
0010
0001
1000
0100
0010
0001
,
0010
0100
0010
0001
1000
0100
0010
0001
0010
0100
1000
0100
0010
0001
0010
0100
,
1000
0000
0000
0000
0100
0000
0000
0000
0010
0000
0000
0000
0001
0000
0000
0000
0010
0000
0000
0000
0100
0000
0000
0000
1000
0000
0000
0000
0100
0000
0000
0000
0010
0000
0000
0000
0001
0000
0000
0000
0010
0000
0000
0000
0100
0000
0000
0000
2020
0000
0000
0000
0000
0000
0000
0030
0010
0000
0000
0000
0000
0000
0000
3000
,
0202
0000
0000
0000
0000
0000
0000
0300
0100
0000
0000
0000
0000
0000
0000
0003
0010
0000
0000
0000
1000
0000
0000
0000
0010
0000
0000
0000
1000
0000
0000
0000
0010
0000
0000
0000
1000
0000
0000
0000
0010
0000
0000
0000
1000
0000
0000
0000
0010
0000
0000
0000
1000
0000
0000
0000
0010
0000
0000
0000
1000
0000
0000
0000
,
0010
0100
0010
0100
0001
1000
0001
1000
0001
1000
0001
1000
0001
1000
0001
1000
,
0001
1000
0001
1000
0100
0010
0001
0010
0100
0001
0100
0001
0010
0100
1000
0100
,
0010
1000
0010
1000
0010
1000
0100
0010
0100
0010
0001
0010
0100
0010
0001
0010
,
1000
0100
0010
0001
1000
0010
1000
0010
1000
0010
1000
0010
0100
0010
0100
0010
,
0100
0010
0100
0010
0100
0001
0100
0001
0100
0001
0100
0001
0100
0010
0100
0010
,
0100
0010
0100
0010
1000
0100
0010
0001
0010
0100
1000
0100
0010
0001
0010
0100
,
1000
0100
0010
0001
0010
0100
1000
0100
0010
0001
0010
0100
1000
0100
0010
0001
,
0010
0100
1000
0100
0022
0000
0000
0000
0000
0000
0000
0000
0033
0000
0000
0000
;

//---------------dance-single - ----------------
#NOTES:
     dance-single:
     :
     Medium:
     9:
     0.893,0.987,1.000,0.424,0.322,1254.000,312.000,114.000,0.000,0.000:
0001
0010
0100
0010
0002
0000
0103
0010
,
1000
0100
0002
0000
0000
0000
0000
0003
,
0010
0100
1000
0100
0020
0000
0130
1000
,
0002
0000
0203
0000
0000
0000
0000
0300
,
0010
0100
1000
0100
0002
0000
0000
0103
,
2000
0000
0000
3010
0002
0000
0000
0103
,
1000
0000
0000
0100
0000
0000
0010
0000
0000
0000
0001
0000
0000
0000
0000
0020
0000
0000
0000
0000
0000
0000
0000
0000
,
0000
0000
0000
0000
,
0000
0000
0030
0000
1001
0010
0000
0010
,
0200
0000
1300
0010
2100
0010
0001
0000
,
0000
0000
0000
0000
0000
0000
0000
3000
1010
0000
0100
0000
0000
0000
0100
0000
,
2000
0000
3001
0100
1020
0100
0001
0000
,
0000
0000
0000
0000
0000
0000
0000
0030
1100
0000
0010
0000
0001
0000
0010
0000
,
0200
0000
0000
0301
0010
2000
0000
3010
,
0102
0000
0010
0000
0000
0000
1000
0000
0000
0000
0100
0000
0000
0000
0010
0003
,
2200
0000
0000
0000
0000
0000
0000
0000
0000
0000
0000
0000
0000
0000
0000
0000
0000
0000
0000
0000
0000
0000
0000
0000
0000
0000
0000
0300
0000
0000
0000
0000
0020
0000
0000
0000
0000
0000
0000
0000
0000
0000
0000
0000
0000
0000
0000
0030
0002
0000
0000
0000
0000
0000
0000
0000
0000
0000
0000
0000
3003
0000
0000
0000
,
1010
0100
0011
0010
0101
1000
0110
0010
,
1001
0100
1010
0010
0101
1000
0110
0001
,
1010
0100
1010
0010
0101
0010
1100
0100
,
1001
0010
0101
0010
1100
0001
0110
0010
,
0101
0010
1100
0010
0101
0010
1100
0100
,
1001
0010
0101
1000
0012
0100
1000
0103
,
0021
0000
0000
0000
0000
0000
0000
0000
0100
0000
0000
0000
0000
0000
0000
0030
0001
0000
0000
0000
0000
0000
0000
0000
0100
0000
0000
0000
0000
0000
0000
0000
1010
0000
0000
0000
0000
0000
0000
0000
0100
0000
0000
0000
0000
0000
0000
0000
0011
0000
0000
0000
0000
0000
0000
0000
0010
0000
0000
0000
0000
0000
0000
0000
,
0101
0010
1001
0100
1010
0001
0110
0010
,
1100
0001
0110
0010
0101
1000
0110
0010
,
0101
1000
0101
0010
1001
0100
1010
0001
,
0110
0010
1100
0100
0011
1000
0101
0010
,
1100
0001
1010
0100
0011
0001
0110
0010
,
1002
0000
0000
0000
0000
0000
0000
0000
0000
0000
0000
0000
0000
0000
0000
0000
0000
0000
0000
0000
0000
0000
0000
0000
0100
0000
0000
0000
0000
0000
0000
0000
0000
0000
0000
0000
0000
0000
0000
0000
0000
0000
0000
0000
0000
0000
0000
0000
0010
0000
0000
0000
0000
0000
0000
0000
0000
0000
0000
0000
0000
0000
0000
0000
0000
0000
0000
0000
0000
0000
0000
0000
0103
0000
0000
0000
0000
0000
0000
0000
0000
0000
0000
0000
0000
0000
0000
0000
0000
0000
0000
0000
0000
0000
0000
0000
2001
0000
0000
0000
0000
0000
0000
0000
0000
0000
0000
0000
0000
0000
0000
0000
0010
0000
0000
0000
0000
0000
0000
0000
0000
0000
0000
0000
0000
0000
0000
0000
0100
0000
0000
0000
0000
0000
0000
0000
0000
0000
0000
0000
0000
3000
0000
0000
1001
0000
0000
0000
0000
0000
0000
0000
0000
0000
0000
0000
0000
0000
0000
0000
0000
0000
0000
0000
0000
0000
0000
0000
0000
0000
0000
0000
0000
0000
0000
0000
0000
0000
0000
0000
0000
0000
0000
0000
0000
0000
0000
0000
0000
0000
0000
0000
,
0220
0000
0000
0000
0000
0000
0000
0000
0000
0000
0000
0330
0000
0000
0000
0000
,
2200
0000
0000
0000
0000
0000
0000
0000
0000
0000
0000
0000
0000
0000
0000
0000
0000
0000
0000
0000
0000
0000
0000
0000
0000
0000
0000
0000
0000
0000
0000
0300
0020
0000
0000
0000
0000
0000
0000
0000
0000
0000
0000
0000
0000
0000
0000
0000
0000
0000
0000
0000
0000
0000
0000
0000
3030
0000
0000
0000
0000
0000
0000
0000
,
0202
0000
0000
0000
0000
0303
1001
1001
,
0220
0000
0000
0000
0000
0000
0000
0000
0000
0000
0000
0000
0000
0000
0000
0000
0000
0000
0000
0000
0000
0000
0000
0000
0000
0000
0000
0000
0000
0000
0000
0300
2000
0000
0000
0000
0000
0000
0000
0000
0000
0000
0000
0000
0000
0000
0000
0000
0000
0000
0000
0000
0000
0000
0000
0000
3030
0000
0000
0000
0000
0000
0000
0000
,
1100
0101
1010
1001
,
0101
0100
1010
0001
0110
1000
0101
0010
,
1001
1100
1010
0101
,
0110
0010
0011
0100
1010
0010
0101
0100
,
2010
0000
0000
0000
0000
3000
0102
0000
0000
0000
0000
0003
1020
0000
0000
0030
,
0210
0000
0000
0000
0000
0300
0102
0000
0000
0000
0000
0003
2001
0000
0000
3000
,
0021
0000
0000
0000
0000
0030
2100
0000
0000
0000
0000
3000
0210
0000
0000
0300
,
0012
0000
0000
0000
0000
0000
0100
0000
0000
0000
0000
0003
1010
0000
0000
0000
,
1010
0100
0010
0101
0001
0010
0101
0010
,
1001
0100
0010
1100
0010
0001
0110
0100
,
0010
0010
0100
0100
0001
0001
1000
1000
,
0100
0100
0010
0010
1000
1000
1000
0000
,
0001
0010
0100
0000
0001
0000
0010
0000
1000
0000
0100
0000
0010
0000
0100
0000
,
1000
0100
0010
0000
0100
0000
0001
0000
0010
0000
1000
0000
0100
0000
0000
0000
,
1010
0000
0000
0000
0000
0000
0000
0000
0101
0000
0000
0110
0000
0000
1100
0000
,
0012
0000
0010
0000
0010
0000
0013
0100
,
1001
0100
0011
0010
0101
1000
0110
0001
,
2100
0010
0001
0100
0001
0010
0100
3001
,
1010
0100
0011
1000
0110
0001
1010
0100
,
1002
0010
0100
1000
0100
0010
0100
1003
,
0010
0001
0100
0000
0010
0000
1001
0000
0010
0000
0100
0000
1001
0000
0010
0000
,
0100
1000
0100
0000
0001
0000
1010
0000
0100
0000
1000
0000
0110
0000
0010
0000
,
1000
0100
0010
0000
0100
0000
1010
0000
0100
0000
1000
0000
0011
0000
0100
0000
,
2001
0000
0000
0000
0000
0000
0000
0000
0100
0000
0000
0000
0000
0000
0000
0000
0000
0000
0000
0000
0000
0000
0000
0000
0010
0000
0000
0000
0000
0000
0000
0000
0000
0000
0000
0000
0000
0000
0000
0000
0000
0000
0000
0000
0000
0000
0000
3000
0101
0000
0000
0000
0000
0000
0000
0000
0000
0000
0000
0000
0000
0000
0000
0000
,
1001
0000
0010
0100
1000
0100
0001
0010
,
1000
0100
0010
0001
0001
0010
0100
1000
,
0110
0000
1000
0100
0001
0010
0001
0100
,
0001
0000
0000
0000
0010
0000
0000
0000
0100
0000
0000
0000
1000
0000
0000
0000
0001
0000
0000
0000
0010
0000
0000
0000
0100
0000
0000
0000
1000
0000
0000
0000
0011
0000
0000
0000
0000
0000
0000
0000
0000
0000
0000
0000
0000
0000
0000
0000
2020
0000
0000
0000
0000
0000
0000
3030
0202
0000
0000
0000
0000
0000
0000
0303
,
0010
1000
0010
1000
0010
0000
0100
0000
0001
0000
0010
0000
1001
0000
0100
0000
,
0010
0100
0010
0100
0010
0000
0001
0000
1000
0000
0010
0000
0101
0000
0010
0000
,
1000
0010
1000
0000
0010
0000
0101
0000
0010
0000
0100
0000
1000
0100
0010
0000
,
0001
0100
0001
0100
0001
0000
0100
0000
0001
0000
0010
0000
1010
0000
0100
0000
,
1001
0010
0100
0011
0100
0001
0110
1000
,
0101
0010
1000
0101
0010
0100
1010
0100
,
1100
0100
0100
0100
0011
0010
0010
0010
,
1001
0000
0000
0000
0000
0000
0000
0000
1000
0000
0000
0000
0000
0000
0000
0000
1000
0000
0000
0000
0000
0000
0000
0000
1000
0000
0000
0000
0000
0000
0000
0000
0022
0000
0000
0000
0000
0000
0000
0000
0000
0000
0000
0000
0000
0000
0000
0033
2200
0000
0000
0000
0000
0000
0000
0000
0000
0000
0000
0000
0000
0000
0000
3300
,
0001
1000
0001
1000
0001
1000
0001
1000
0001
0000
0100
0000
1010
0000
0001
0000
,
0100
0010
0100
0010
0100
0010
0100
0010
0100
0000
0001
0000
1010
0000
0100
0000
,
1010
0001
0010
1100
0010
0001
0110
0010
,
2002
0000
0000
0000
0000
0000
0000
0000
0000
0000
3003
0000
1000
0100
0010
0000
,
1002
0000
0100
0000
0010
0000
0100
0003
1020
0000
0100
0000
0001
0000
1000
0030
,
0201
0000
0010
0000
0001
0000
0010
0300
2001
0000
0010
0000
0100
0000
0001
3000
,
0220
0000
0000
0000
,
0000
0000
0000
0330
,
1100
0000
1001
0110
,
1010
0000
1001
0011
,
0100
1000
0100
0010
1001
0010
0100
0000
0010
0000
1000
0100
0011
0000
0010
0000
,
0100
1000
0100
0010
0101
1000
0100
0010
1000
0100
0010
0001
2010
0001
0010
3001
,
0100
0100
1010
0001
0010
0100
0011
0100
,
1000
0100
1001
0010
0100
0010
1100
0010
,
0001
0100
1010
0001
0010
0100
1001
0100
,
0100
0010
0101
0010
0100
0001
1010
0100
,
0010
0001
1100
0010
0100
0001
0110
0010
,
0001
0100
1001
0010
1000
0100
0011
0010
,
1000
0010
0101
1000
0100
0100
0011
0100
,
0010
0100
1010
0110
0110
0110
1001
0000
,
0010
0100
1001
0100
1001
0010
1100
0010
,
1001
0000
0100
0000
1000
0100
0010
0001
1100
0000
0010
0000
1000
0100
0010
0001
,
1100
0010
1010
0001
0110
1000
0011
0100
,
1010
0000
0001
0000
0100
1000
0100
0010
1001
0000
0010
0000
0100
1000
0100
0010
,
0201
0000
0001
0310
2001
0000
3100
0000
,
1020
0000
0100
0031
2100
0000
3001
0000
,
1020
0000
0000
0000
0000
0000
0000
0000
0000
0000
0000
0000
0000
0000
0000
0000
0100
0000
0000
0000
0000
0000
0000
0000
0000
0000
0000
0000
0000
0000
0000
0030
1002
0000
0000
0000
0000
0000
0000
0000
0000
0000
0000
0000
0000
0000
0000
0003
1200
0000
0000
0000
0000
0000
0000
0000
0000
0000
0000
0000
0000
0000
0000
0300
,
1002
0000
0000
0000
0000
0000
0000
0000
0100
0000
0000
0000
0000
0000
0000
0000
0010
0000
0000
0000
0000
0000
0000
0000
0100
0000
0000
0000
0000
0000
0000
0003
1020
0000
0000
0000
0000
0000
0000
0000
0000
0000
0000
0000
0000
0000
0000
0000
0100
0000
0000
0000
0000
0000
0000
0000
0000
0000
0000
0000
0030
0000
0000
0000
,
0201
0010
0001
0310
2001
0100
3001
0000
,
2100
0010
0001
3100
1020
0100
1030
0000
,
2001
0000
0000
0000
0000
0000
0000
0000
0010
0000
0000
0000
0000
0000
0000
0000
0001
0000
0000
0000
0000
0000
0000
0000
0010
0000
0000
0000
0000
0000
0000
3000
0201
0000
0000
0000
0000
0000
0000
0000
1000
0000
0000
0000
0000
0000
0000
0300
0120
0000
0000
0000
0000
0000
0000
0000
0001
0000
0000
0000
0000
0000
0000
0030
,
2100
0000
0000
0000
0000
0000
0000
0000
0001
0000
0000
0000
0000
0000
0000
0000
0010
0000
0000
0000
0000
0000
0000
0000
0100
0000
0000
0000
0000
0000
0000
3000
0012
0000
0000
0000
0000
0000
0000
0000
0000
0000
0000
0000
0000
0000
0000
0000
0000
0000
0000
0000
0000
0000
0000
0000
0000
0000
0000
0000
0003
0000
0000
0000
,
1000
0010
1000
0010
1000
0010
1000
0000
0100
0000
0010
0000
1001
0000
0000
0000
,
0010
0100
0010
0100
0010
0100
0010
0000
0100
0000
1000
0000
0101
0000
0000
0000
,
1000
0100
0010
0001
0010
0100
1000
0000
0100
0000
0010
0000
1001
0000
0000
0000
,
1000
0000
0100
0000
0010
0000
0001
0000
0000
0100
0000
0000
1010
0000
0000
0000
0000
0000
0110
0000
0000
0000
0000
0000
,
0201
0000
0010
0000
0301
0100
0100
1000
,
0021
0000
1000
0000
0130
0010
0010
0100
,
1002
0000
0100
0000
0013
1000
1000
0010
,
0201
0010
1000
0010
0300
0100
0100
0010
,
0100
0010
0100
0010
0100
0000
0001
0000
1010
0000
0100
0000
1000
0010
0001
0000
,
1000
0010
1000
0010
1000
0000
0100
0000
1000
0100
0010
0001
0100
0000
1000
0010
,
0001
1000
0001
1000
0100
0010
0100
0010
0001
1000
0100
0010
0001
0000
0100
0000
,
0001
0010
0100
1000
0010
0100
1000
0100
0002
0010
0100
1000
0200
0000
0000
0000
,
0000
0000
0000
0303
1000
0010
0001
0000
0000
0000
0001
0010
1000
0000
0000
0000
,
1001
0000
0000
0000
0010
0100
1000
0000
0000
0000
0100
0010
0001
0000
0000
0000
,
1001
0000
0000
0000
1000
0010
1000
0000
0100
0010
0100
0000
0010
0001
0010
0000
,
0001
1000
0001
0000
1010
0000
0100
0000
0011
0000
0100
0000
1001
0000
0000
0000
,
0110
0000
0000
0000
0010
0100
1000
0100
0010
0000
0000
0000
0100
0010
0001
0000
,
0110
0000
0000
0000
0001
0010
0100
1000
0100
0000
0010
0000
0001
0100
1000
0000
,
0101
0000
1100
0100
1010
0001
0110
0001
,
1010
0100
1002
0000
1000
0000
1000
0003
,
1000
0100
0011
0010
0110
0000
1001
1000
,
1010
0000
1010
0010
0110
0000
0101
0100
,
1100
0000
1001
0100
0011
0010
1100
0010
,
1001
0010
1010
0100
1001
0010
0110
0001
,
1010
0000
1001
0010
1000
0101
0010
1000
,
0011
0100
0110
0010
0100
1010
0010
0100
,
1001
0010
0110
0001
0010
1100
0100
1000
,
0101
0000
0000
0000
0000
0000
0000
0000
0010
0000
0000
0000
0000
0000
0000
0000
1002
0000
0000
0000
0000
0000
0000
0000
0100
0000
0000
0000
0000
0000
0000
0000
0000
0000
0000
0000
0000
0000
0000
0000
0100
0000
0000
0000
0000
0000
0000
0000
0000
0000
0000
0000
0000
0000
0000
0000
0000
0000
0000
0000
0000
0000
0000
0003
,
1010
0000
0110
0000
0010
1000
0001
0100
,
0010
0100
1000
0001
0100
0001
0010
1000
,
0001
0100
0010
0000
0100
0010
0001
0010
,
0100
0000
1000
0000
0001
0100
0010
1000
0001
0100
0010
1000
0101
0000
0000
0000
,
2200
0000
0000
0000
0000
0000
0000
3300
0202
0000
0000
0000
0000
0000
0000
0303
1000
0000
0000
0000
0001
0000
0000
0000
1000
0000
0000
0000
0001
0000
0000
0000
1000
0000
0000
0000
0001
0000
0000
0000
1000
0000
0000
0000
0001
0000
0000
0000
1000
0000
0000
0000
0000
0000
0000
0000
0010
0000
0000
0000
0000
0000
0000
0000
,
1010
0000
0100
0000
0010
0100
0010
0100
0010
0100
0010
0100
0010
0000
1000
0000
,
0101
0010
1001
0100
0001
1010
0100
1000
,
0011
0000
0100
0000
0010
0100
1000
0000
0100
0000
0010
0000
1000
0100
0010
0000
,
0001
0010
0100
0000
1001
0000
0010
0000
0100
0000
1010
0000
0001
0000
0010
0000
,
1100
0010
1001
0100
0010
1100
0001
0100
,
1001
0010
1100
1000
1000
1000
1010
0010
,
0010
0000
0000
0000
0000
0000
0000
0000
0010
0000
0000
0000
0000
0000
0000
0000
1010
0000
0000
0000
0000
0000
0000
0000
1000
0000
0000
0000
0000
0000
0000
0000
1000
0000
0000
0000
0000
0000
0000
0000
1000
0000
0000
0000
0000
0000
0000
0000
0202
0000
0000
0000
0000
0000
0000
0000
0000
0000
0000
0000
0000
0000
0000
0303
,
0220
0000
0000
0000
0000
0000
0000
0000
0000
0000
0000
0000
0000
0000
0000
0330
1000
0000
0000
0000
0001
0000
0000
0000
1000
0000
0000
0000
0001
0000
0000
0000
1000
0000
0000
0000
0001
0000
0000
0000
1000
0000
0000
0000
0001
0000
0000
0000
1000
0000
0000
0000
0000
0000
0000
0000
0010
0000
0000
0000
0000
0000
0000
0000
,
1100
0000
0001
0000
0010
0100
0010
0100
0010
0100
0010
0100
0010
0000
1000
0000
,
0101
0000
0010
0000
1000
0100
0010
0000
0100
0000
1001
0000
0010
0000
0100
0000
,
1100
0010
0011
0100
1000
0100
0001
0010
,
0001
0010
0100
0000
1002
0000
0100
0000
0010
0000
1000
0003
0120
0000
0001
0000
,
1000
0000
0001
0030
0210
0000
0001
0000
0010
0000
0001
0300
2010
0000
0100
0000
,
0001
0000
0100
3000
1020
0000
0100
0000
0001
0000
0100
0000
1000
0000
0100
0000
,
0001
0000
0000
0000
0000
0000
0000
0000
0000
0000
0000
0000
0000
0000
0000
0000
0000
0000
0000
0000
0000
0000
0000
0000
0100
0000
0000
0000
0000
0000
0000
0000
0000
0000
0000
0000
0030
0000
0000
0000
0000
0000
0000
0000
0000
0000
0000
0000
1001
0000
0000
0000
0000
0000
0000
0000
0000
0000
0000
0000
0000
0000
0000
0000
0000
0000
0000
0000
0000
0000
0000
0000
0000
0000
0000
0000
0000
0000
0000
0000
0000
0000
0000
0000
0000
0000
0000
0000
0000
0000
0000
0000
0000
0000
0000
0000
0000
0000
0000
0000
0000
0000
0000
0000
0000
0000
0000
0000
0000
0000
0000
0000
0011
0000
0000
0000
0000
0000
0000
0000
0000
0000
0000
0000
0000
0000
0000
0000
0000
0000
0000
0000
0000
0000
0000
0000
0000
0000
0000
0000
0000
0000
0000
0000
0220
0000
0000
0000
0000
0000
0000
0000
0000
0000
0000
0000
0000
0000
0000
0000
0000
0000
0000
0000
0000
0300
0000
0000
1000
0000
0000
0000
0000
0000
0000
0000
0000
0000
0000
0000
0000
0000
0000
0000
0000
0000
0000
0000
0000
0030
0000
0000
,
0202
0000
0000
0000
0000
0000
0000
0003
0001
0000
0000
0000
0000
0000
0000
0300
0010
0000
0000
0000
0100
0000
0000
0000
0010
0000
0000
0000
0100
0000
0000
0000
0010
0000
0000
0000
0100
0000
0000
0000
0010
0000
0000
0000
0100
0000
0000
0000
0010
0000
0000
0000
0100
0000
0000
0000
0010
0000
0000
0000
0000
0000
0000
0000
,
1001
0000
0100
0000
0010
1000
0010
1000
0010
1000
0010
1000
0010
1000
0010
0000
,
0101
0000
0010
0000
1000
0100
0010
0000
0100
0000
0001
0010
0100
0000
0010
0000
,
1000
0100
0010
0000
0100
0010
0100
0010
0100
0000
0010
0000
0100
0000
0000
0000
,
0110
0000
1010
0100
0010
0101
0010
0100
,
1010
0100
1010
0100
0001
0110
0010
0100
,
1010
0000
0000
0000
1000
0100
0010
0001
0010
0100
1000
0100
0010
0001
0010
0100
,
1000
0000
0000
0000
0100
0000
0000
0000
0010
0000
0000
0000
0001
0000
0000
0000
0010
0000
0000
0000
0100
0000
0000
0000
1000
0000
0000
0000
0100
0000
0000
0000
0010
0000
0000
0000
0000
0000
0000
0000
0000
0000
0000
0000
0000
0000
0000
0000
2020
0000
0000
0000
0000
0000
0000
0030
0010
0000
0000
0000
0000
0000
0000
3000
,
0202
0000
0000
0000
0000
0000
0000
0300
0100
0000
0000
0000
0000
0000
0000
0003
0010
0000
0000
0000
1000
0000
0000
0000
0010
0000
0000
0000
1000
0000
0000
0000
0010
0000
0000
0000
1000
0000
0000
0000
0010
0000
0000
0000
1000
0000
0000
0000
0010
0000
0000
0000
1000
0000
0000
0000
0010
0000
0000
0000
0000
0000
0000
0000
,
1010
0000
0010
0000
0001
1000
0001
1000
0001
1000
0001
1000
0001
1000
0001
0000
,
0110
0000
0001
0000
0100
0010
0001
0000
0010
0000
1000
0100
0010
0000
0100
0000
,
0010
0100
0010
0000
0100
0010
0100
0000
1001
0000
0100
0000
0010
0000
1000
0000
,
0001
0010
0100
0000
1000
0010
1000
0010
1000
0010
1000
0000
0100
0010
0100
0010
,
0100
0010
0100
0000
0001
0100
0001
0100
0001
0100
0001
0000
0100
0010
0100
0010
,
0100
0010
0100
0000
1010
0000
0000
0000
0000
0000
0110
0000
0000
0000
0000
0000
,
0101
0000
1010
0000
0000
0110
0000
0000
,
1100
0022
0000
0033
;
