#TITLE:Horobita Star;
#SUBTITLE:Kirby 64 The Crystal Shards;
#ARTIST:Jun Ishikawa, Hirokazu Ando;
#TITLETRANSLIT:;
#SUBTITLETRANSLIT:;
#ARTISTTRANSLIT:;
#CREDIT:;
#BANNER:HorobitaStar-banner.png;
#BACKGROUND:HorobitaStar-bg.png;
#LYRICSPATH:;
#CDTITLE:!kommi-cdtitle.png;
#MUSIC:16_-_horobita_star.mp3;
#OFFSET:0.160;
#SAMPLESTART:30.100;
#SAMPLELENGTH:12.500;
#SELECTABLE:YES;
#BPMS:0.000=167.060;
#STOPS:;
#BGCHANGES:;
// cache tags:
#FIRSTBEAT:2.000;
#LASTBEAT:320.000;
#SONGFILENAME:Songs/KBU/Horobita Star (Kommisar)/bs.sm;
#HASMUSIC:1;
#HASBANNER:1;
#MUSICLENGTH:120.346;
// end cache tags

//---------------dance-single - ----------------
#NOTES:
     dance-single:
     :
     Hard:
     12:
     1.000,1.000,0.324,0.540,1.000,879.000,39.000,65.000,4.000,0.000:
0000
0000
0000
0000
0000
0000
0000
0000
1001
0000
1000
0100
0010
0100
0010
0001
,
1000
0100
0010
0001
0010
0000
0001
1000
0200
0300
0001
0010
0001
0000
1000
0100
,
0001
0010
0100
1000
0001
0010
0100
1000
0100
0010
0100
1000
0100
0010
0001
0010
,
0100
0010
0100
1000
0100
0000
0100
0010
0100
0000
0100
0010
0100
0000
0010
0100
,
1000
0000
0010
0001
0100
0000
0010
1000
0100
0000
0010
1000
0001
0000
0100
0010
,
1000
0100
0010
0001
0010
0000
0001
0010
0200
0300
1000
0001
1000
0000
0001
0010
,
1000
0100
0010
0001
1000
0100
0010
0001
0010
0100
0010
0001
1000
0100
0010
0100
,
1000
0100
0010
0001
1000
0000
0001
0100
0001
0000
0001
0100
0001
0000
0001
0100
,
0010
0100
1000
0100
0010
0100
0001
0010
0100
0000
0100
0010
0100
0000
0100
0010
,
1000
0100
0010
0001
0010
0000
0100
0010
0100
0000
0100
0010
0100
0000
0001
0010
,
0100
1000
0001
0100
0001
0000
0001
1000
0001
0000
0001
1000
0010
0000
0001
0100
,
0100
0000
0010
1000
0010
0000
0010
1000
0010
0000
0010
1000
0010
0000
0010
1000
,
1000
0000
0100
0001
0100
0000
0100
0010
0010
0000
0001
0100
0100
0000
0100
0010
,
1000
0100
0010
0001
0010
0000
0100
0010
0100
0000
0100
0010
0100
0000
0001
0010
,
0100
1000
0010
1000
0010
0000
0010
1000
0010
0000
0010
1000
0100
0000
0100
0001
,
0001
0000
1000
0010
1000
0000
1000
0010
1000
0000
1000
0010
1000
0000
1000
0010
,
0010
0000
1000
0010
1000
0000
1000
0010
0010
0000
1000
0010
1000
0100
0010
0001
,
0100
0010
0001
0010
0100
0000
1000
0010
0200
0300
0001
1000
0001
0000
0100
0010
,
0001
0010
0100
1000
0001
0010
0100
1000
0010
0100
0010
0100
1000
0100
0010
0001
,
0010
0100
1000
0100
0010
0000
0001
0100
0001
0000
0001
0100
0001
0000
0001
0010
,
0100
0000
0010
0100
1000
0000
0100
0010
0001
0000
0100
0010
0100
0000
0100
0010
,
1000
0100
0010
0100
0001
0000
0100
0010
0200
0300
1000
0001
1000
0000
0001
0010
,
1000
0100
0010
0001
1000
0100
0010
0001
0010
0100
0010
0100
1000
0100
0010
0001
,
0010
0100
0001
1000
0100
0000
1000
0001
1000
0000
1000
0001
1000
0000
1000
0001
,
0100
0010
0100
0010
0001
0010
0100
0010
0100
0000
0010
0001
0010
0000
0010
0001
,
1000
0100
0010
0001
0100
0000
0100
0001
0100
0000
0100
0001
0100
0000
0100
0010
,
0001
0010
0100
0001
0100
0000
0100
0001
0100
0000
0100
0001
0010
0000
1000
0100
,
0100
0000
1000
0010
1000
0000
1000
0010
1000
0000
1000
0010
1000
0000
1000
0010
,
0010
0000
0100
0010
0100
0000
0100
1000
1000
0000
0100
0010
0010
0000
0010
0100
,
0010
0100
0001
1000
0010
0000
0001
1000
0001
0000
0001
1000
0001
0000
1000
0100
,
0010
0001
0100
0010
0001
0000
0001
0100
0001
0000
0001
0100
0010
0000
0010
0100
,
0100
0000
0010
1000
0010
0000
0010
1000
0010
0000
0010
1000
0010
0000
0010
1000
,
1000
0000
0100
0010
0100
0000
0100
0001
0001
0000
0100
0010
0001
0010
0100
0010
,
2000
0000
0000
3001
0020
0000
0000
1030
0200
0000
0000
0301
0020
0000
0000
0130
,
2000
0000
0000
3001
0020
0000
0000
0130
0002
0000
0000
1003
0200
0000
0000
0310
,
2000
0000
0000
3010
0002
0000
0000
0000
0003
0000
0000
0000
1000
0000
0000
0000
,
0100
0000
0000
0000
0000
0000
0000
1000
0100
0000
0000
0000
0020
0000
0000
0130
,
0002
0000
0000
1003
0200
0000
0000
0310
0002
0000
0000
0013
2000
0000
0000
3010
,
0200
0000
0000
0301
0020
0000
0000
0130
0002
0000
0000
1003
0200
0000
0000
0310
,
2000
0000
0000
3100
0020
0000
0000
0030
0000
0000
0000
0010
0100
0000
0000
0010
,
1000
0000
0000
0000
0000
0000
0000
0010
0100
0000
0000
0010
2000
0000
0000
3001
,
0200
0000
0000
0310
2000
0000
0000
0000
0000
0000
0000
3010
0200
0000
0000
0310
,
0002
0000
0000
0000
0000
0000
0000
0013
0200
0000
0000
0310
2000
0000
0000
3100
,
0002
0000
0000
0103
0020
0000
0000
0000
0000
0030
0000
0000
0200
0000
0000
0310
,
0002
0000
0000
0103
2000
0000
0000
0000
3000
0000
0000
0000
0011
0000
0000
0010
,
0100
0000
0000
0000
0000
0000
0000
0000
0000
0100
0000
0000
1100
0000
0000
0000
0011
0000
0000
0000
0101
0000
0000
0000
1001
0000
0000
0000
0000
0000
0000
0000
0000
0010
0000
0000
0011
0000
0000
0000
1001
0000
0000
0000
0110
0000
0000
0000
,
1100
0000
0000
0000
0000
0000
0000
0000
0000
0011
0000
0000
0022
0000
0000
0000
0000
0000
0000
0000
0000
0000
0000
0000
0000
0000
0000
0033
0000
0000
0000
0000
0000
0000
0000
0000
1100
0000
0000
0000
0110
0000
0000
0000
1010
0000
0000
0000
,
0101
0000
0000
0100
2200
0000
0000
0000
0000
0000
3300
0000
0011
0000
0000
0010
,
0220
0000
0000
0000
0000
0000
0000
0000
0000
0000
0000
0330
0000
0000
0000
0100
,
0011
0000
0000
0000
0000
0000
0000
0000
0000
0010
0000
0000
1010
0000
0000
0000
0110
0000
0000
0000
0011
0000
0000
0000
1001
0000
0000
0000
0000
0000
0000
0000
0000
0001
0000
0000
0011
0000
0000
0000
1010
0000
0000
0000
0101
0000
0000
0000
,
1001
0000
0000
0000
0000
0000
0000
0000
0000
0100
0000
0000
0101
0000
0000
0000
0000
0000
0000
0000
0000
0000
0000
0000
0011
0000
0000
0000
0000
0000
0000
0000
0000
0001
0000
0000
0011
0000
0000
0000
1010
0000
0000
0000
0110
0000
0000
0000
,
0101
0000
0000
1000
2200
0000
0000
0000
0000
0000
3300
0000
0110
0000
0000
0001
,
0022
0000
0000
0000
0000
0000
0000
0000
0000
0000
0000
0033
1001
0000
0000
0010
,
0002
0000
0003
0010
0200
0000
0000
0000
0300
0000
0000
0000
0020
0000
0030
0001
,
0200
0000
0300
0001
2000
0000
0000
0000
0000
3000
0000
0000
0200
0000
0300
0010
,
0002
0000
0000
0000
0000
0003
0000
0100
0020
0000
0030
1000
0200
0000
0300
0001
,
0020
0000
0030
0001
2000
0000
3000
0001
2200
3300
0010
0100
1000
0100
0010
0001
,
1000
0100
0010
0001
0010
0000
0100
0010
0002
0003
1000
0100
1000
0000
1000
0100
,
0010
0100
1000
0100
0010
0100
0010
0001
0010
0001
0010
0100
0010
0100
1000
0100
,
0010
0001
0010
0100
1000
0000
0100
0001
0100
0000
0100
0001
0100
0000
0100
0010
,
0001
0000
0010
0100
1000
0000
0010
0001
0100
0000
0010
1000
0010
0000
0010
1000
,
0100
0010
0001
0010
0100
0000
0010
0100
2000
3000
0001
0010
0001
0000
0001
0010
,
0100
1000
0100
0010
0100
1000
0100
0010
0100
0010
0001
0010
0100
0010
0001
0010
,
0100
1000
0100
0010
0100
0000
1000
0010
1000
0000
1000
0010
1000
0000
1000
0100
,
0010
0001
0010
0100
1000
0100
0010
0100
1000
0000
1000
0010
1000
0000
1000
0010
,
1000
0100
0010
0001
0010
0000
0100
0001
0100
0000
0100
0001
0100
0000
0001
0010
,
0100
1000
0001
0010
0001
0000
0001
0010
0001
0000
0001
0010
0100
0000
0010
1000
,
1000
0000
0100
0001
0100
0000
0100
0001
0100
0000
0100
0001
0100
0000
0100
0001
,
0001
0000
0100
0010
0100
0000
0100
0001
0001
0000
0010
0100
0100
0000
0001
0010
,
0100
0010
0001
0010
0100
0000
0010
1000
0010
0000
0010
1000
0010
0000
1000
0100
,
0010
0001
0010
0100
1000
0000
1000
0010
1000
0000
1000
0010
0100
0000
0100
0010
,
0010
0000
0100
0001
0100
0000
0100
0001
0100
0000
0100
0001
0100
0000
0100
0001
,
0001
0000
1000
0010
1000
0000
1000
0100
0100
0000
0010
0100
0010
0001
0010
0100
,
1000
0100
0010
0100
1000
0000
0001
0010
0200
0300
0001
1000
0001
0000
0001
0010
,
0100
0010
0100
1000
0100
0010
0100
0010
0001
0010
0100
1000
0100
0010
0100
1000
,
0100
0010
0001
0010
0100
0000
0001
1000
0001
0000
0001
1000
0001
0000
0001
1000
,
0100
0000
0001
1000
0100
0000
1000
0010
0100
0000
0100
0010
0100
0000
0100
0010
,
1000
0100
0010
0100
1000
0000
0100
0010
0002
0003
1000
0100
1000
0000
0100
0010
,
0001
0010
0100
0010
0001
0010
0100
0010
0100
1000
0100
0010
0100
0010
0001
0010
,
0100
1000
0100
0010
0200
0000
0000
0000
0000
0000
0000
0000
0000
0000
0000
0300
,
MMMM
0000
0000
0000
;

//---------------dance-single - Copied from----------------
#NOTES:
     dance-single:
     Copied from:
     Challenge:
     13:
     1.000,1.000,1.000,0.432,1.000,902.000,209.000,52.000,4.000,0.000:
0000
0000
0000
0000
0000
0000
0000
0000
1001
0000
0100
0010
1001
0010
0100
0010
,
1000
0100
0010
0001
0010
0000
0001
1000
0200
0000
0001
0010
0301
0000
1000
0100
,
0001
0010
0100
1000
0001
0010
0100
1000
0100
0010
0100
1000
0100
0010
0001
0010
,
0100
0010
0100
1000
0100
0000
0100
0010
0100
0000
0100
0010
0100
0000
0010
0100
,
1000
0000
0110
0001
1100
0000
0011
1000
0101
0000
0010
1000
0001
0000
0100
0010
,
1000
0100
0010
0001
0010
0000
0001
0010
0200
0000
1000
0001
1000
0300
0001
0010
,
1000
0100
0010
0001
1000
0100
0010
0001
0010
0100
0010
0001
1000
0100
0010
0100
,
1000
0100
0010
0001
1000
0000
0001
0100
0001
0000
0001
0100
0001
0000
0001
0100
,
0010
0100
1000
0100
0010
0100
0001
0010
0100
0000
0100
0010
0100
0000
0100
0010
,
1100
0110
0011
1001
0011
0000
0100
0010
0100
0000
0100
0010
0100
0000
1001
0011
,
0110
1001
1100
0001
1000
0000
0001
1000
0001
0000
0001
1000
0011
0000
0001
1100
,
1100
0000
0010
1000
0010
0000
0010
1000
0010
0000
0010
1000
0010
0000
0010
1001
,
1001
0000
0100
0001
0100
0000
0100
0011
0110
0000
0001
0110
1100
0000
0100
0010
,
1100
0110
0011
1001
0011
0000
0100
0010
0100
0000
0100
0010
0100
0000
0011
0110
,
1010
0110
1100
0010
1000
0000
0010
1000
0010
0000
0010
1000
0110
0000
0100
0011
,
0011
0000
1000
0010
1000
0000
1000
0010
1000
0000
1000
0010
1000
0000
1000
0110
,
0110
0000
1000
0010
1000
0000
1000
0110
1001
0000
1000
0010
1001
0100
1010
0001
,
0100
0010
0001
0010
0100
0000
1000
0010
0200
0000
0001
1000
0301
0000
0100
0010
,
0001
0010
0100
1000
0001
0010
0100
1000
0010
0100
0010
0100
1000
0100
0010
0001
,
0010
0100
1000
0100
0010
0000
0001
0100
0001
0000
0001
0100
0001
0000
0001
0010
,
1100
0000
0011
0100
1010
0000
1100
0010
1001
0000
0100
0010
0100
0000
0100
0010
,
1000
0100
0010
0100
0001
0000
0100
0010
0200
0000
1000
0001
1000
0300
0001
0010
,
1000
0100
0010
0001
1000
0100
0010
0001
0010
0100
0010
0100
1000
0100
0010
0001
,
0010
0100
0001
1000
0100
0000
1000
0001
1000
0000
1000
0001
1000
0000
1000
0001
,
0100
0010
0100
0010
0001
0010
0100
0010
0100
0000
0010
0001
0010
0000
0010
0001
,
1100
0110
0101
1001
0011
0000
0100
0001
0100
0000
0100
0001
0100
0000
0101
0110
,
1100
1010
0110
0001
0100
0000
0100
0001
0100
0000
0100
0001
0110
0000
1000
0110
,
0110
0000
1000
0010
1000
0000
1000
0010
1000
0000
1000
0010
1000
0000
1000
0011
,
0011
0000
0100
0010
0100
0000
0100
0011
1100
0000
0100
1010
0101
0000
0010
0100
,
0011
0110
1100
1010
0110
0000
0001
1000
0001
0000
0001
1000
0001
0000
1010
0110
,
0011
0101
1001
0100
0001
0000
0001
0100
0001
0000
0001
0100
1001
0000
0010
1100
,
1100
0000
0010
1000
0010
0000
0010
1000
0010
0000
0010
1000
0010
0000
0010
1001
,
1001
0000
0100
0010
0100
0000
0100
0011
1100
0000
0100
0010
0101
0010
1100
0010
,
2000
0000
0000
3001
0020
0000
0000
1030
0200
0000
0000
0301
0020
0000
0000
0130
,
2000
0000
0000
3001
0020
0000
0000
0130
0002
0000
0000
1003
0200
0000
0000
0310
,
2000
0000
0000
3010
0002
0000
0000
0000
0003
0000
0000
0000
1000
0000
0000
0000
,
0100
0000
0000
0000
0000
0000
0000
1000
0100
0000
0000
0000
0020
0000
0000
0130
,
2000
0000
0000
3001
0200
0000
0000
0310
0002
0000
0000
0013
2000
0000
0000
3010
,
0200
0000
0000
0301
0020
0000
0000
0130
0002
0000
0000
1003
0200
0000
0000
0310
,
2000
0000
0000
3100
0020
0000
0000
0030
0000
0000
0000
0010
0100
0000
0000
0010
,
1000
0000
0000
0000
0000
0000
0000
0010
0100
0000
0000
0010
2000
0000
0000
3001
,
0200
0000
0000
0310
2000
0000
0000
0000
0000
0000
0000
3010
0200
0000
0000
0310
,
0002
0000
0000
0000
0000
0000
0000
0013
0200
0000
0000
0310
2000
0000
0000
3100
,
0002
0000
0000
0103
0020
0000
0000
0000
0000
0030
0000
0000
0200
0000
0000
0310
,
0002
0000
0000
0103
2000
0000
0000
0000
3000
0000
0000
0000
0011
0000
0000
0011
,
1100
0000
0000
0000
0000
0000
0000
0000
0000
0011
0000
0000
1100
0000
0000
0000
0011
0000
0000
0000
0101
0000
0000
0000
1001
0000
0000
0000
0000
0000
0000
0000
0000
1100
0000
0000
0011
0000
0000
0000
1001
0000
0000
0000
0110
0000
0000
0000
,
1100
0000
0000
0000
0000
0000
0000
0000
0000
0011
0000
0000
0022
0000
0000
0000
0000
0000
0000
0000
0000
0000
0000
0000
0000
0000
0000
0033
0000
0000
0000
0000
0000
0000
0000
0000
1100
0000
0000
0000
0110
0000
0000
0000
1010
0000
0000
0000
,
0101
0000
0000
1100
2200
0000
0000
0000
0000
0000
3300
0000
0011
0000
0000
0110
,
0220
0000
0000
0000
0000
0000
0000
0000
0000
0000
0000
0330
0000
0000
0000
1100
,
0011
0000
0000
0000
0000
0000
0000
0000
0000
0101
0000
0000
1010
0000
0000
0000
0110
0000
0000
0000
0011
0000
0000
0000
1001
0000
0000
0000
0000
0000
0000
0000
0000
1100
0000
0000
0011
0000
0000
0000
1010
0000
0000
0000
0101
0000
0000
0000
,
1001
0000
0000
0000
0000
0000
0000
0000
0000
0101
0000
0000
0101
0000
0000
0000
0000
0000
0000
0000
0000
0000
0000
0000
0011
0000
0000
0000
0000
0000
0000
0000
0000
1100
0000
0000
0011
0000
0000
0000
1010
0000
0000
0000
0110
0000
0000
0000
,
0101
0000
0000
1100
2200
0000
0000
0000
0000
0000
3300
0000
0110
0000
0000
0011
,
0022
0000
0000
0000
0000
0000
0000
0000
0000
0000
0000
0033
1001
0000
0000
0110
,
1001
0000
0100
0011
1100
0000
0100
0010
0100
0000
0100
0010
0101
0000
0100
1001
,
0110
0000
1000
0011
1100
0000
1000
0001
1000
0000
1000
0001
1100
0000
1000
0011
,
1100
0000
0010
1000
0010
0000
0010
1100
0011
0000
0100
1010
0101
0000
0010
1001
,
0110
0000
1000
0011
1100
1000
1000
1001
1100
0000
0010
0100
1001
0001
0001
0001
,
1000
0100
0010
0001
0010
0000
0100
0010
0002
0000
1000
0100
1000
0003
1000
0100
,
0010
0100
1000
0100
0010
0100
0010
0001
0010
0001
0010
0100
0010
0100
1000
0100
,
0010
0001
0010
0100
1000
0000
0100
0001
0100
0000
0100
0001
0100
0000
0100
0010
,
1001
0000
0011
0100
1010
0000
0110
0001
1100
0000
0010
1000
0010
0000
0010
1000
,
0100
0010
0001
0010
0100
0000
0010
0100
2000
0000
0001
0010
0001
3000
0001
0010
,
0100
1000
0100
0010
0100
1000
0100
0010
0100
0010
0001
0010
0100
0010
0001
0010
,
0100
1000
0100
0010
0100
0000
1000
0010
1000
0000
1000
0010
1000
0000
1000
0100
,
0010
0001
0010
0100
1000
0100
0010
0100
1000
0000
1000
0010
1000
0000
1000
0010
,
1100
0110
0101
1001
1010
0000
0100
0001
0100
0000
0100
0001
0100
0000
0011
0101
,
0110
1010
1001
0010
0001
0000
0001
0010
0001
0000
0001
0010
1001
0000
0010
1001
,
1001
0000
0100
0001
0100
0000
0100
0001
0100
0000
0100
0001
0100
0000
0100
0011
,
0011
0000
0100
0010
0100
0000
0100
0011
1100
0000
0010
1100
0011
0000
0100
0010
,
1100
1010
0110
0101
1001
0000
0010
1000
0010
0000
0010
1000
0010
0000
0101
0110
,
1010
1100
1001
0010
1000
0000
1000
0010
1000
0000
1000
0010
1001
0000
0100
0011
,
0011
0000
0100
0001
0100
0000
0100
0001
0100
0000
0100
0001
0100
0000
0100
0011
,
0011
0000
1000
0010
1000
0000
1000
0110
1001
0000
0010
0100
1001
0010
1100
0010
,
0101
0010
0100
1000
0100
0000
0001
0010
0200
0000
0001
1000
0001
0300
0001
0010
,
0100
0010
0100
1000
0100
0010
0100
0010
0001
0010
0100
1000
0100
0010
0100
1000
,
0100
0010
0001
0010
0100
0000
0001
1000
0001
0000
0001
1000
0001
0000
0001
1000
,
0110
0000
0101
1000
0110
0000
1100
0010
1001
0000
0100
0010
0100
0000
0100
0010
,
1000
0100
0010
0100
1000
0000
0100
0010
0002
0000
1000
0100
1000
0003
0100
0010
,
0001
0010
0100
0010
0001
0010
0100
0010
0100
1000
0100
0010
0100
0010
0001
0010
,
0100
1000
0100
0010
0200
0000
0000
0000
0000
0000
0000
0000
0000
0000
0000
0300
,
MMMM
0000
0000
0000
;

//---------------dance-single - Kommi's Edit----------------
#NOTES:
     dance-single:
     Kommi's Edit:
     Edit:
     15:
     1.000,1.000,1.000,0.432,1.000,895.000,432.000,52.000,9.000,30.000:
0000
0000
0000
0000
,
1001
0100
1010
0001
0110
0000
0011
1000
0210
0000
0001
0001
0301
0000
1010
0100
,
1001
0010
0101
1000
0101
0010
0101
1000
0110
0001
0110
1000
0011
0100
1010
0001
,
0110
1000
0101
0010
1100
0000
0100
0100
0100
0000
0100
0100
0100
0000
0011
0110
,
1100
0000
0110
0010
0110
0000
0011
0001
0011
0000
0100
0100
0100
0000
0100
0100
,
1010
0100
1010
0001
0110
0000
1001
0010
0201
0000
1000
1000
1300
0000
0101
0010
,
1001
0100
1010
0001
1010
0100
0011
0100
1010
0100
0011
0100
1001
0100
0011
0100
,
1010
0001
1100
0001
1100
0000
0001
0001
0001
0000
0001
0001
0001
0000
0101
1000
,
0011
0100
1010
0100
0011
0100
1001
0010
1100
0000
0100
0100
0100
0000
0100
0100
,
1100
0110
0011
1001
0011
0000
0100
0100
0100
0000
0100
0100
0100
0000
1001
0011
,
0110
1001
1100
0001
1000
0000
0001
0001
0001
0000
0001
0001
0011
0000
0100
1100
,
1100
0000
0010
0010
0010
0000
0010
0010
0010
0000
0010
0010
0010
0000
0010
0011
,
0011
0000
0100
0100
0100
0000
0010
0011
0110
0000
0010
0110
1100
0000
0100
0100
,
1100
0110
0011
1001
0011
0000
0100
0100
0100
0000
0100
0100
0100
0000
0011
0110
,
1010
0110
1100
1000
1000
0000
1000
1000
1000
0000
1000
1000
1100
0000
0001
0011
,
0011
0000
0100
0100
0100
0000
0100
0100
0100
0000
0100
0100
0100
0000
0100
0110
,
0110
0000
1000
1000
1000
0000
0100
0110
1001
0000
1000
1000
1001
0001
0001
0001
,
1100
0010
0101
0010
1100
0000
1001
0010
1200
0000
0001
0001
0301
0000
1100
0010
,
0101
0010
0101
0010
1100
0010
1001
0100
0011
0100
1010
0100
0011
0100
1010
0001
,
0110
0001
1010
0100
1010
0000
0001
0001
0001
0000
0001
0001
0001
0000
0011
0110
,
1100
0000
0011
0010
0011
0000
1100
1000
1100
0000
0100
0100
0100
0000
0100
0100
,
1010
0100
0011
0100
0011
0000
1100
0010
0201
0000
1000
1000
1000
0300
0101
0010
,
1001
0100
1010
0100
0011
0100
1010
0001
0110
1000
0011
0100
1010
0100
0011
0100
,
1001
0100
0011
1000
0110
0000
1000
1000
1000
0000
1000
1000
1000
0000
1010
0001
,
1100
0010
0101
0010
1001
0010
1100
0010
0101
0000
0010
0010
0010
0000
0100
0100
,
1100
0110
0101
1001
0011
0000
0100
0100
0100
0000
0100
0100
0100
0000
0101
0110
,
1100
1010
0110
0100
0100
0000
0100
0100
0100
0000
0100
0100
0110
0000
0001
0101
,
0101
0000
1000
1000
1000
0000
1000
1000
1000
0000
1000
1000
1000
0000
1000
1010
,
1010
0000
0100
0100
0100
0000
0010
0011
1100
0000
0010
1010
0101
0000
0010
0010
,
0011
0110
1100
1010
0110
0000
0001
0001
0001
0000
0001
0001
0001
0000
1010
0110
,
0011
0101
1001
0001
0001
0000
0001
0001
0001
0000
0001
0001
1001
0000
0100
1100
,
1100
0000
0010
0010
0010
0000
0010
0010
0010
0000
0010
0010
0010
0000
1000
1001
,
1001
0000
0100
0100
0100
0000
0010
0011
1100
0000
0100
0010
0101
0010
1100
0010
,
2100
0000
0000
3011
0120
0000
0000
1130
0210
0000
0000
0311
1020
0000
0000
0131
,
2100
0000
0000
3011
0120
0000
0000
0131
0012
0000
0000
1103
0201
0000
0000
0311
,
2010
0000
0000
0000
0000
0000
0000
0000
0000
3011
0000
0000
0102
0000
0000
0000
0000
0000
0000
0000
0000
0000
0000
0000
0003
0000
0000
0000
0000
0000
0000
0000
0000
0000
0000
0000
1000
0000
M000
0000
0000
0000
0000
0000
0000
0000
0000
0000
,
0100
0000
0M00
0000
0000
0000
0000
0000
0000
0000
0000
0000
0000
0000
0000
0000
0000
0000
0000
0000
0000
1000
0000
0000
0100
0000
0000
0000
0000
0000
0000
0000
0000
0000
0000
0000
0021
0000
0000
0000
0000
0000
0000
0000
0000
1130
0000
0000
,
2010
0000
0000
3011
0210
0000
0000
0311
0102
0000
0000
1013
2100
0000
0000
3011
,
0210
0000
0000
0311
0120
0000
0000
0131
0012
0000
0000
1013
0210
0000
0000
1310
,
2100
0000
0000
0000
0000
0000
0000
0000
0000
3110
0000
0000
0021
0000
0000
0000
0000
0000
0000
0000
0000
0030
0000
0000
0000
0000
0000
0000
0000
0000
0000
0000
0000
0010
0000
0000
0100
0000
0M00
0000
0000
0000
0000
0000
0000
0010
0000
0000
,
1000
0000
M000
0000
0000
0000
0000
0000
0000
0000
0000
0000
0000
0000
0000
0000
0000
0000
0000
0000
0000
0010
0000
0000
0100
0000
0M00
0000
0000
0000
0000
0000
0000
0110
0000
0000
2010
0000
0000
0000
0000
0000
0000
0000
0000
3011
0000
0000
,
0201
0000
0000
0311
2010
0000
0000
0000
0000
0000
0000
3011
0210
0000
0000
0311
,
0102
0000
0000
0000
0000
0000
0000
1013
0210
0000
0000
0311
2010
0000
0000
3110
,
0012
0000
0000
1103
0120
0000
0000
0000
0000
0030
0000
0000
0210
0000
0000
0311
,
0102
0000
0000
0113
2010
0000
0000
0000
3000
0000
0000
0000
0011
0000
0000
0011
,
1100
0000
0000
0000
0000
0000
0000
0000
0000
0011
0000
0000
1100
0000
0000
0000
0011
0000
0000
0000
0101
0000
0000
0000
1001
0000
0000
0000
0000
0000
0000
0000
0000
1100
0000
0000
0011
0000
0000
0000
1001
0000
0000
0000
0110
0000
0000
0000
,
1100
0000
0000
0000
0000
0000
0000
0000
0000
0011
0000
0000
0022
0000
0000
0000
0000
0000
0000
0000
0000
0000
0000
0000
0000
0000
0000
0033
0000
0000
0000
0000
0000
0000
0000
0000
1100
0000
0000
0000
0110
0000
0000
0000
1010
0000
0000
0000
,
0101
0000
0000
1100
2200
0000
0000
0000
0000
0000
3300
0000
0011
0000
0000
0110
,
0220
0000
0000
0000
0000
0000
0000
0000
0000
0000
0000
0330
0000
0000
0000
1100
,
0011
0000
0000
0000
0000
0000
0000
0000
0000
0101
0000
0000
1010
0000
0000
0000
0110
0000
0000
0000
0011
0000
0000
0000
1001
0000
0000
0000
0000
0000
0000
0000
0000
1100
0000
0000
0011
0000
0000
0000
1010
0000
0000
0000
0101
0000
0000
0000
,
1001
0000
0000
0000
0000
0000
0000
0000
0000
0101
0000
0000
0101
0000
0000
0000
0000
0000
0000
0000
0000
0000
0000
0000
0011
0000
0000
0000
0000
0000
0000
0000
0000
1100
0000
0000
0011
0000
0000
0000
1010
0000
0000
0000
0110
0000
0000
0000
,
0101
0000
0000
1100
2200
0000
0000
0000
0000
0000
3300
0000
0110
0000
0000
0011
,
0022
0000
0000
0000
0000
0000
0000
0000
0000
0000
0000
0033
1001
0000
0000
0110
,
1001
0000
0100
0011
1100
0000
0100
0100
0100
0000
0100
0100
0101
0000
1000
1001
,
0110
0000
0001
0011
1100
0000
1000
1000
1000
0000
1000
1000
1100
0000
0010
0011
,
1100
0000
0010
0010
0010
0000
0100
1100
0011
0000
1000
1010
0101
0000
0001
1001
,
0110
0000
0001
0011
1100
1000
1000
1001
1100
0000
0010
0100
1001
0001
0001
0001
,
1010
0100
1010
0001
0110
0000
1100
0010
0102
0000
1000
1000
1000
0003
1010
0100
,
0011
0100
1010
0100
0011
0100
1010
0001
0110
0001
1010
0100
0011
0100
1001
0100
,
1010
0001
0110
0001
1100
0000
0100
0100
0100
0000
0100
0100
0100
0000
0101
0110
,
1001
0000
0011
0010
1010
0000
0110
0100
1100
0000
0010
0010
0010
0000
0100
0100
,
0101
0010
1001
0010
1100
0000
0011
0100
2010
0000
0001
0001
0001
3000
0101
0010
,
0101
1000
0110
0001
1100
0010
1001
0010
1100
0010
0101
0010
1100
0010
0101
1000
,
0011
1000
0110
0001
1100
0000
1000
1000
1000
0000
1000
1000
1000
0000
1010
0100
,
1010
0100
0011
0100
0011
0100
1001
0100
1010
0000
1000
1000
1000
0000
1000
1000
,
1100
0110
0101
1001
1010
0000
0100
0100
0100
0000
0100
0100
0100
0000
0011
0101
,
0110
1010
1001
0001
0001
0000
0001
0001
0001
0000
0001
0001
1001
0000
1000
1001
,
1001
0000
0100
0100
0100
0000
0100
0100
0100
0000
0100
0100
0100
0000
0010
0011
,
0011
0000
0100
0100
0100
0000
0010
0011
1100
0000
1000
1100
0011
0000
0100
0100
,
1100
1010
0110
0101
1001
0000
0010
0010
0010
0000
0010
0010
0010
0000
0101
0110
,
1010
1100
1001
1000
1000
0000
1000
1000
1000
0000
1000
1000
1001
0000
0001
0011
,
0011
0000
0100
0100
0100
0000
0100
0100
0100
0000
0100
0100
0100
0000
0001
0011
,
0011
0000
1000
1000
1000
0000
0100
0110
1001
0000
0011
0100
1001
1000
1100
1000
,
1010
0100
0011
1000
0110
0000
1001
0010
0201
0000
0001
0001
0001
0300
0101
0010
,
1100
0010
0101
1000
0110
0001
1100
0010
1001
0010
0101
1000
0110
0001
1100
0010
,
1100
0010
0101
0010
0101
0000
0001
0001
0001
0000
0001
0001
0001
0000
0011
1100
,
0110
0000
0101
0100
0110
0000
1100
1000
1001
0000
0100
0100
0100
0000
0100
0100
,
1010
0100
0011
0100
1010
0000
1100
0010
0102
0000
1000
1000
1000
0003
1100
0010
,
0101
0010
1100
0010
1001
0010
0101
0010
1100
0010
0101
0010
1100
0010
0101
0010
,
0101
1000
0110
0001
1210
0000
0000
0000
0000
0000
0000
0000
0000
0000
0000
0300
,
MMMM
0000
0000
0000
;
