#TITLE:Dignity;
#SUBTITLE:(Full ver);
#ARTIST:Crash;
#TITLETRANSLIT:;
#SUBTITLETRANSLIT:;
#ARTISTTRANSLIT:;
#CREDIT:;
#BANNER:Dignity (Full ver).png;
#BACKGROUND:Dignity (Full ver)-bg.png;
#LYRICSPATH:;
#CDTITLE:NVLM-cdtitle.png;
#MUSIC:Dignity (Full ver).mp3;
#OFFSET:-1.278;
#SAMPLESTART:2.497;
#SAMPLELENGTH:12.000;
#SELECTABLE:YES;
#BPMS:0.000=195.000;
#STOPS:;
#BGCHANGES:;
// cache tags:
#FIRSTBEAT:0.000;
#LASTBEAT:480.500;
#SONGFILENAME:Songs/IzzySM Keyboard Mega Pack/Dignity (Full ver)/Dignity (Full ver).sm;
#HASMUSIC:1;
#HASBANNER:1;
#MUSICLENGTH:151.797;
// end cache tags

//---------------dance-single - ----------------
#NOTES:
     dance-single:
     :
     Hard:
     12:
     1.000,1.000,0.975,0.290,0.599,1009.000,148.000,44.000,0.000,28.000:  // measure 1
2112
0000
0100
3013
,  // measure 2
1100
0000
0010
0000
0001
0000
0100
0000
0010
1000
0010
0000
1000
0100
0010
0000
,  // measure 3
0001
0000
0100
0000
0010
0000
1000
0000
0001
0010
0001
0000
0110
0000
1000
0000
,  // measure 4
1000
0000
0010
0000
0100
0000
0001
0000
0010
0100
1000
0000
0001
0100
0001
0000
,  // measure 5
1000
0000
0100
0000
0010
0000
0001
0000
0100
0010
0100
0000
1010
0000
0010
0000
,  // measure 6
1000
0000
0100
0000
0010
0000
0001
0000
1000
0010
0100
0000
0001
0010
0001
0000
,  // measure 7
0100
0000
0010
0000
1000
0000
0100
0000
0010
0001
0010
0000
0100
0000
1000
0000
,  // measure 8
0001
0000
0100
0000
0010
0000
1000
0000
0100
0010
0001
0000
0010
0000
0100
0000
,  // measure 9
1000
0000
0001
0000
0100
0000
0010
0000
1000
0100
1000
0100
1000
0100
1000
0000
,  // measure 10
0110
0100
0001
0010
0100
1000
1001
0100
,  // measure 11
0010
0000
0001
0000
1000
0000
0010
0000
0100
0001
0100
0000
0101
0000
0010
0000
,  // measure 12
1000
0100
0010
0001
1000
0010
0110
0001
,  // measure 13
0100
0000
0010
0000
1000
0000
0100
0000
0010
0001
0010
0000
0011
0000
0100
0000
,  // measure 14
1000
0001
0100
0010
1000
0100
0110
0001
,  // measure 15
1000
0000
0010
0000
0100
0000
0001
0000
0010
0100
0010
0000
0110
0000
1000
0000
,  // measure 16
0001
0100
0010
1000
0100
0010
0011
1000
,  // measure 17
0001
0100
0001
0100
0001
0010
0100
0000
1000
0010
1000
0010
1000
0100
0010
0000
,  // measure 18
2202
0000
3303
0111
,  // measure 19
2022
0000
3033
1110
,  // measure 20
0222
0000
0333
1101
,  // measure 21
1000
0100
1000
0100
1000
0100
0010
0000
0001
1000
0001
1000
0001
1000
0100
0000
,  // measure 22
0110
0000
0001
0000
0100
0000
0010
0000
1000
0100
1000
0000
0001
0000
0010
0000
,  // measure 23
0100
0000
1000
0000
0010
0000
0100
0000
0001
1000
0001
0000
0100
0000
0010
0000
,  // measure 24
1001
0000
0100
0000
1000
0000
0010
0000
0100
0001
0010
0000
0001
0000
0100
0000
,  // measure 25
0010
0000
1000
0000
0001
0000
0010
0000
0100
1000
0100
0000
1000
0000
0010
0000
,  // measure 26
1001
0000
0100
0000
0010
0000
0001
0000
1000
0010
1000
0000
0100
0000
0010
0000
,  // measure 27
0001
0000
0100
0000
0010
0000
1000
0000
0100
0010
0001
0000
0011
0000
0100
0000
,  // measure 28
1000
0000
0010
0000
0100
0000
0001
0000
1000
0100
0010
0000
0011
0000
0100
0000
,  // measure 29
1000
0000
0010
0000
0100
0000
0001
0000
0010
0100
1000
0000
0100
0000
0001
0000
,  // measure 30
1001
0000
0100
0000
0010
0000
1000
0000
0100
0010
0001
0000
1000
0000
0010
0000
,  // measure 31
0100
0000
0001
0000
0010
0000
0100
0000
1000
0001
0010
0000
0100
0000
0001
0000
,  // measure 32
1000
0000
0100
0000
0010
0000
0001
0000
0100
0010
1000
0000
0100
0000
0001
0000
,  // measure 33
1000
0000
0010
0000
0100
0000
0001
0000
1000
0000
0101
0000
0001
0010
0100
0000
,  // measure 34
1100
0000
1000
0000
0001
0000
0100
0000
0010
1000
0010
0000
0100
0001
0100
0000
,  // measure 35
0001
0000
0010
0000
0100
0000
1000
0000
0010
0100
0001
0000
0100
0000
0010
0000
,  // measure 36
1000
0000
0100
0000
0010
0000
0001
0000
1000
0100
1000
0000
0010
0100
0010
0000
,  // measure 37
0100
0000
0001
0000
1000
0000
0100
0000
0010
0001
0010
0000
0100
0000
1000
0000
,  // measure 38
0110
0000
0001
0000
1000
0000
0010
0000
0100
0001
0100
0000
0001
0000
0010
0000
,  // measure 39
0100
0000
1000
0000
0100
0000
0001
0000
1000
0100
1000
0000
0010
0000
0100
0000
,  // measure 40
0011
0000
0001
0000
0100
0000
0010
0000
1000
0100
1000
0000
0001
0000
0100
0000
,  // measure 41
1000
0001
1000
0001
1000
0100
0010
0000
0001
1000
0001
1000
0001
0100
0010
0000
,  // measure 42
2220
0000
3330
0111
,  // measure 43
2202
0000
3303
1110
,  // measure 44
0222
0000
0333
1011
,  // measure 45
2220
0000
3330
0111
,  // measure 46
2202
0000
3303
1110
,  // measure 47
2022
0000
3033
1101
,  // measure 48
0222
0000
0333
1110
,  // measure 49
1000
0010
1000
0010
0100
0001
0010
0000
0100
1000
0100
1000
0001
0100
0010
0000
,  // measure 50
1010
0000
0100
0000
0001
0000
0010
0000
0100
1000
0100
0000
1000
0010
0100
0000
,  // measure 51
0001
0000
1000
0000
0100
0000
0010
0000
0001
1000
0100
0000
1000
0010
1000
0000
,  // measure 52
0100
0000
0010
0000
0001
0000
1000
0000
0010
0100
0001
0000
0001
1000
0100
0000
,  // measure 53
0010
0000
0001
0000
1000
0000
0010
0000
0100
0001
0100
0000
0010
1000
0100
0000
,  // measure 54
0011
0101
0000
1010
1100
0000
0011
2202
,  // measure 55
0000
3303
0000
0000
,  // measure 56
1010
1100
0000
0101
0011
0000
0101
1101
,  // measure 57
1001
0100
0010
1000
0001
0101
0110
1010
,  // measure 58
1100
0000
0001
0000
0010
0000
0100
0000
1000
0010
1000
0000
0100
0000
0010
0000
,  // measure 59
1001
1100
0000
0110
0011
0000
1001
1010
,  // measure 60
0100
0000
0001
0000
0010
0000
0100
0000
1000
0010
1000
0000
0001
0000
0010
0000
,  // measure 61
0100
0000
1000
0000
0010
0000
0100
0000
0001
1000
0001
1000
0100
0000
0000
0000
,  // measure 62
0010
0000
0001
0000
0100
0000
0010
0000
1000
0100
0001
0000
0100
0000
1000
0000
,  // measure 63
1010
0110
0000
0011
1001
0000
1100
0110
,  // measure 64
0001
0000
1000
0000
0100
0000
0010
0000
0001
0100
0010
0000
1000
0000
0100
0000
,  // measure 65
0010
0000
0001
0000
1000
0000
0010
0000
0100
1000
0100
1000
0001
0000
0000
0000
,  // measure 66
0100
0000
0010
0000
1000
0000
0100
0000
0010
0001
1000
0000
0001
0000
0010
0000
,  // measure 67
1100
1001
0000
0110
0101
0000
1001
1100
,  // measure 68
0010
0000
0001
0000
0100
0000
0010
0000
1000
0001
1000
0000
0100
0000
0001
0000
,  // measure 69
0010
0000
0100
0000
1000
0000
0010
0000
0100
0001
0100
0001
0010
0000
0000
0000
,  // measure 70
0100
0000
1000
0000
0010
0000
0100
0000
0001
1000
0001
0000
0100
0000
0010
0000
,  // measure 71
1001
1100
0000
0110
0011
0000
1001
1010
,  // measure 72
0100
0000
0001
0000
1000
0000
0100
0000
0010
0001
1000
0000
0100
0000
0001
0000
,  // measure 73
0010
0000
0100
0000
1000
0000
0010
0000
0100
0001
0100
0001
0010
0000
0100
0000
,  // measure 74
1001
1100
0000
0110
0011
0000
1001
1010
,  // measure 75
0000
0000
0110
0000
0101
0000
0000
0000
1000
0100
1000
0100
0010
0000
0001
0000
,  // measure 76
1001
1100
0000
0110
1001
0000
1100
0011
,  // measure 77
0000
0000
0101
0000
0110
0000
0000
0000
1000
0001
1000
0001
0010
0000
0100
0000
,  // measure 78
1100
1001
0000
0110
0011
0000
1100
1010
,  // measure 79
0000
0000
0101
0000
1001
0000
0000
0000
0010
0100
0010
0100
0001
0000
1000
0000
,  // measure 80
1100
0011
0000
0101
0110
0000
1010
1100
,  // measure 81
0000
0000
0110
0000
0101
0000
0000
0000
1000
0010
1000
0010
0100
0001
0010
0100
,  // measure 82
1000
0100
0010
0001
0100
0010
1000
0100
0010
0001
0100
1000
,  // measure 83
0100
0001
0010
0100
1000
0010
0100
0001
1000
0100
0010
0001
,  // measure 84
1000
0100
1000
0000
0001
0010
0001
0000
1000
0010
1000
0000
0001
0100
0001
0000
,  // measure 85
0110
0000
1000
0000
0001
0000
0100
0000
0010
1000
0100
0000
0100
0010
0100
0000
,  // measure 86
1000
0000
0001
0000
0100
0000
0010
0000
1000
0100
0001
0000
0001
0100
0001
0000
,  // measure 87
0100
0000
0010
0000
1000
0000
0100
0000
0010
0001
1000
0000
1000
0010
1000
0000
,  // measure 88
0100
0000
0010
0000
0001
0000
1000
0000
0010
0100
0001
0000
0001
0010
0001
0000
,  // measure 89
1000
0000
0010
0000
0100
0000
0001
0000
0010
0100
1000
0000
1000
0010
1000
0000
,  // measure 90
0100
0000
0010
0000
0001
0000
1000
0000
0010
0100
0010
0000
0010
1000
0001
0000
,  // measure 91
1000
0000
0010
0000
0100
0000
0001
0000
0010
0100
1000
0000
1000
0001
1000
0000
,  // measure 92
0100
0000
0010
0000
0001
0000
0100
0000
0010
1000
0100
0000
0100
0010
0001
0000
,  // measure 93
1000
0010
1000
0010
1000
0100
0010
0000
0001
1000
0001
1000
0100
0010
0001
0000
,  // measure 94
0001
0100
0001
0010
0100
1000
0100
0000
1000
0010
1000
0001
0010
0001
0010
0000
,  // measure 95
0100
1000
0100
1000
0001
1000
0001
0000
0100
0010
0100
0010
1000
0100
0010
0000
,  // measure 96
0100
1000
0100
1000
0100
1000
0100
1000
0001
0100
0001
0100
0001
0100
0001
0100
,  // measure 97
0001
0000
1000
0000
0100
0000
0010
0000
0001
0100
1000
0000
1000
0100
0010
0000
,  // measure 98
0001
0000
0100
0000
0010
0000
1000
0000
0100
0010
0001
0000
1001
0000
0100
0000
,  // measure 99
0110
0000
0001
0000
1000
0000
0010
0000
0100
0001
0100
0001
0010
0000
0100
0000
,  // measure 100
1000
0100
0010
0000
0001
0010
0100
0000
1000
0001
0010
0000
0100
1000
0001
0000
,  // measure 101
2002
0000
0000
0000
,  // measure 102
0110
0000
0000
3003
0110
0110
0110
0110
,  // measure 103
1010
0000
1000
0000
0001
0000
0010
0000
0100
1000
0100
0000
1100
0000
1000
0000
,  // measure 104
0001
0000
0100
0000
0010
0000
1000
0000
0100
0010
0001
0000
0011
0000
0100
0000
,  // measure 105
1000
0000
0010
0000
0100
0000
0001
0000
1000
0100
0010
0000
0011
0000
0001
0000
,  // measure 106
0100
0010
1000
0001
0010
0100
1000
0010
,  // measure 107
0110
0000
0001
0000
1000
0000
0100
0000
0010
0001
0010
0000
0100
0000
1000
0000
,  // measure 108
0001
0100
0010
1000
0100
0010
1001
1000
,  // measure 109
0010
0000
0100
0000
0001
0000
0010
0000
0100
1000
0100
0000
0010
0000
0001
0000
,  // measure 110
0011
0000
1100
0000
0001
0010
0100
1000
,  // measure 111
1010
0000
0100
0000
0001
0000
1000
0000
0100
0010
0001
0000
0011
0000
0100
0000
,  // measure 112
1000
0000
0010
0000
0100
0000
0001
0000
1000
0100
0010
0000
0011
0000
1000
0000
,  // measure 113
0100
0000
0010
0000
1000
0000
0001
0000
0010
0100
1000
0000
1100
0000
0001
0000
,  // measure 114
0100
0000
0010
0000
1000
0000
0100
0000
0010
0001
1000
0000
1001
0000
0010
0000
,  // measure 115
0100
0000
1000
0000
0010
0000
0100
0000
0001
0010
0001
0000
1001
0000
1000
0000
,  // measure 116
0100
0000
0010
0000
0001
0000
1000
0000
0010
0100
0001
0000
0101
0000
1000
0000
,  // measure 117
1000
0000
0100
0000
0010
0000
0001
0000
1000
0010
1000
0000
1100
0000
0010
0000
,  // measure 118
0001
0100
0001
0000
1000
0010
1000
0000
0001
0100
0001
0000
1000
0100
1000
0000
,  // measure 119
2222
0330
0000
3003
,  // measure 120
0011
0101
0000
0110
1010
0000
1100
2202
,  // measure 121
0000
3303
0000
0000
0000
0000
0000
0000
;

//---------------dance-single - ----------------
#NOTES:
     dance-single:
     :
     Challenge:
     18:
     1.000,1.000,1.000,1.000,1.000,1490.000,481.000,166.000,0.000,157.000:  // measure 1
2112
0000
0110
0000
0110
0000
0110
0000
0100
0010
0100
0010
0100
0010
3103
0010
,  // measure 2
1100
0000
1010
0000
1001
0000
0100
0000
0010
1000
0010
0100
1000
0001
0110
0000
,  // measure 3
0011
0000
0100
0000
1010
0000
0100
0000
0001
0010
0100
1000
0010
0001
1001
0000
,  // measure 4
1100
0000
0110
0000
1001
0000
0100
0000
0010
0001
0100
0010
1000
0100
0011
0000
,  // measure 5
1001
0000
0010
0000
0110
0000
1000
0000
0001
0010
0001
0100
0010
1000
0101
0000
,  // measure 6
1100
0000
0010
0000
1001
0000
1000
0000
0010
0100
0001
1000
0100
0010
1001
0000
,  // measure 7
0110
0000
0100
0000
1001
0000
0010
0000
0100
0001
1000
0100
0010
1000
0101
0000
,  // measure 8
0011
0000
0100
0000
1010
0000
0001
0000
0100
0010
1000
0100
0010
0001
1001
0000
,  // measure 9
0110
0000
0001
0000
1100
0000
0010
0000
1001
0110
1001
0110
1001
0110
1001
0110
,  // measure 10
1001
0000
0100
0000
0011
0000
0100
0000
0010
1000
0100
0010
0001
1000
0110
0000
,  // measure 11
1100
0000
0001
0000
0110
0000
1000
0000
0001
0010
0100
0001
1000
0100
0011
0000
,  // measure 12
0110
0000
1000
0000
0011
0000
0100
0000
0001
1000
0100
0010
1000
0001
0110
0000
,  // measure 13
1100
0000
0001
0000
1001
0000
0100
0000
0010
1000
0001
0010
0100
1000
0011
0000
,  // measure 14
1100
0000
0100
0000
1001
0000
0010
0000
0100
0001
1000
0100
0010
1000
0011
0000
,  // measure 15
0101
0000
1000
0000
0011
0000
0100
0000
1000
0010
0100
0001
0010
0100
1001
0000
,  // measure 16
1100
0000
0010
0000
1001
0000
0100
0000
0010
1000
0001
0010
0100
1000
0011
0000
,  // measure 17
1001
0100
0010
0100
1001
0010
0100
0010
1001
0100
0010
0100
1001
0010
0100
0010
,  // measure 18
2212
0000
0010
0000
0010
0010
0010
0000
3313
0000
1001
0100
0111
0000
1010
0000
,  // measure 19
2122
0000
0100
0000
0100
0100
0100
0000
3133
0000
0001
0010
1110
0000
1001
0000
,  // measure 20
1222
0000
1000
0000
1000
0000
1000
1000
1333
0000
0010
0100
1101
0000
0010
0000
,  // measure 21
1100
0011
1100
0011
1100
0011
1100
0011
1100
0011
1100
0011
1100
0011
1100
0011
,  // measure 22
1100
0000
0001
0000
1010
0000
0100
0000
1001
0100
0010
0001
0100
0010
1100
0000
,  // measure 23
1001
0000
0010
0000
1100
0000
0001
0000
0110
0100
0001
1000
0100
0010
0011
0000
,  // measure 24
1001
0000
0100
0000
1010
0000
0100
0000
0011
0100
1000
0010
0100
0001
1001
0000
,  // measure 25
1100
0000
0010
0000
1001
0000
0100
0000
0011
0100
1000
1000
0010
0100
0101
0000
,  // measure 26
1001
0000
0100
0000
0011
0000
0100
0000
1100
1000
0010
0100
0001
0010
1100
0000
,  // measure 27
1001
0000
0010
0000
0101
0000
1000
0000
0110
0001
0100
0010
1000
0100
0011
0000
,  // measure 28
1001
0000
0100
0000
1010
0000
0001
0000
1100
0010
0100
0001
0010
0100
1001
0000
,  // measure 29
1100
0000
0010
0000
1001
0000
0100
0000
1010
1000
0001
0010
0100
1000
1001
0000
,  // measure 30
1100
0000
0010
0000
0011
0000
0100
0000
1001
0100
0010
1000
0001
0010
0110
0000
,  // measure 31
1100
0000
1000
0000
0011
0000
0100
0000
1001
0001
0010
0100
0001
1000
1100
0000
,  // measure 32
0110
0000
0001
0000
1100
0000
0010
0000
1001
0001
0100
0010
1000
0100
0011
0000
,  // measure 33
1001
0000
0100
0000
1010
0000
0001
0000
0101
0010
1000
0100
0001
0010
1100
0000
,  // measure 34
1001
0000
0100
0000
1010
0000
0001
0000
1100
0010
1000
0001
0010
0100
1001
0000
,  // measure 35
1100
0000
0010
0000
1001
0000
0100
0000
1010
1000
0001
0010
0100
0001
1001
0000
,  // measure 36
1100
0000
0001
0000
0110
0000
1000
0000
1001
0001
0100
0010
0001
0100
1010
0000
,  // measure 37
1100
0000
0001
0000
0110
0000
1000
0000
0011
0001
0100
0010
1000
0100
0011
0000
,  // measure 38
1001
0000
0100
0000
1010
0000
0001
0000
1100
0010
0100
0001
0010
0100
1001
0000
,  // measure 39
0101
0000
0010
0000
1100
0000
0001
0000
1010
0100
0001
0010
0100
1000
1001
0000
,  // measure 40
0110
0000
0010
0000
1100
0000
0001
0000
1010
0100
0100
0010
0001
0010
1100
0000
,  // measure 41
0011
0100
1000
0001
1100
0010
0001
1000
0110
0001
1000
0100
0101
0010
1000
0010
,  // measure 42
2221
0000
0001
0000
0001
0001
0001
0000
3331
0000
1000
0100
0111
0000
1001
0000
,  // measure 43
2212
0000
0010
0000
0010
0010
0010
0000
3313
0000
0001
0100
1110
0000
1001
0000
,  // measure 44
1222
0000
1000
0000
1000
1000
1000
0000
1333
0000
0100
0001
1011
0000
0110
0000
,  // measure 45
2221
0000
0001
0000
0001
0001
0001
0000
3331
0000
1000
0010
0111
0000
1001
0000
,  // measure 46
2212
0000
0010
0000
0010
0010
0010
0000
3313
0000
0001
0100
1110
0000
1001
0000
,  // measure 47
2122
0000
0100
0000
0100
0100
0100
0000
3133
0000
0010
1000
1101
0000
0011
0000
,  // measure 48
1222
0000
1000
0000
1000
1000
1000
0000
1333
0000
0001
0100
1110
0000
0101
0000
,  // measure 49
0011
1100
0011
1100
0011
1100
0011
1100
0011
1100
0011
1100
0011
1100
0011
1100
,  // measure 50
1001
0000
0010
0100
1100
0000
0001
0000
0101
0010
1000
0100
0010
0001
1001
0000
,  // measure 51
1100
0000
0001
0010
0011
0000
0100
0000
1001
0100
0010
1000
0001
0010
1100
0000
,  // measure 52
0110
0000
0001
1000
0110
0000
1000
0000
0011
0100
1000
0100
0010
0001
1001
0000
,  // measure 53
1100
0000
0010
0001
1001
0000
0100
0000
0011
0100
1000
0010
0100
0001
1001
0000
,  // measure 54
1111
2222
3333
1111
2222
3333
1111
2222
,  // measure 55
0000
0000
0000
0000
0000
3333
0000
0000
,  // measure 56
1111
2222
3333
1111
2222
3333
1111
1111
,  // measure 57
2222
0000
0000
0000
0000
0000
0000
3333
,  // measure 58
1100
0010
0001
0100
0010
0000
0110
0000
1001
0100
0010
1000
0101
1000
0010
0000
,  // measure 59
1001
0010
2220
0000
3330
0000
0110
1000
0222
0000
0333
0000
1001
0100
2012
0100
,  // measure 60
3113
0010
0001
0100
0010
0000
0101
0000
1000
0100
0010
0100
0001
1000
0110
0000
,  // measure 61
0101
0001
1000
0100
0010
0001
0100
0000
0010
1000
0101
1000
1100
0000
0011
0000
,  // measure 62
1010
0100
0001
0010
0100
1000
0010
0000
1001
0100
1001
0010
0100
0001
1000
0100
,  // measure 63
0011
1000
2220
0000
3330
0000
0011
0100
2202
0000
3303
0000
1100
0001
0212
0000
,  // measure 64
1313
1000
0001
0010
0100
0000
1100
0000
0001
0100
0010
0001
1000
0010
1100
0000
,  // measure 65
0110
1000
0001
0100
1000
0000
0011
0000
0110
1000
0101
0010
1001
0100
0010
0000
,  // measure 66
0110
0000
0001
0100
1000
0010
0100
0000
0010
0001
1100
1000
0001
0010
0100
0000
,  // measure 67
1100
0010
2202
0000
3303
0000
0110
1000
0222
0000
0333
0000
1001
0010
2102
0000
,  // measure 68
3113
0010
0001
1000
0100
0000
0110
0000
1010
0001
1000
0010
0100
1000
1001
0000
,  // measure 69
0011
1000
0100
0010
1001
0000
1010
0000
0100
1001
0110
0001
1000
0100
0011
0000
,  // measure 70
0101
0010
1000
0100
0010
0001
0101
0000
0001
1000
1100
0000
0100
0001
0110
0000
,  // measure 71
1001
0010
2220
0000
3330
0000
0110
1000
2022
0000
3033
0000
1001
0100
2012
0000
,  // measure 72
3113
0100
0001
0010
1000
0000
1100
0000
0010
0001
1000
0010
1100
0001
1001
0000
,  // measure 73
0010
1000
0100
0010
1001
0100
0010
0000
1100
0001
0110
0001
0010
0100
1100
0000
,  // measure 74
1001
0010
2202
0000
3303
0000
0110
1000
2022
0000
3033
0000
1001
0100
2220
0000
,  // measure 75
3330
0000
0110
1000
0222
0000
0333
0000
1001
0100
1010
0001
1100
0010
0001
0100
,  // measure 76
1001
0010
2202
0000
3303
0000
0110
0001
2202
0000
3303
0000
1100
0010
2022
0000
,  // measure 77
3033
0000
0101
1000
0222
0000
0333
0000
1100
0001
1010
0100
0010
0001
0100
0010
,  // measure 78
1100
0001
2202
0000
3303
0000
0110
1000
2022
0000
3033
0000
1100
0001
2220
0000
,  // measure 79
3330
0000
0101
0010
2202
0000
3303
0000
0011
0100
1010
0001
0100
0010
1100
0001
,  // measure 80
1100
0010
2022
0000
3033
0000
0101
1000
0222
0000
0333
0000
1010
0001
2202
0000
,  // measure 81
3303
0000
0110
1000
0222
0000
0333
0000
1111
0000
1111
0000
1111
1111
1111
1111
,  // measure 82
1111
0000
0000
0000
0000
0000
0000
0000
0000
0000
0000
0000
0000
0000
0000
0000
0100
0000
0000
0000
0000
0000
0000
0000
0000
0000
0000
0000
0000
0000
1000
0000
0010
0000
0000
0000
0000
0000
0000
0000
0000
0000
0000
0000
0000
0000
0000
0000
0001
0000
0000
0000
0000
0000
1000
0000
0000
0000
0000
0000
0000
0000
0000
0000
0100
0000
0000
0000
0000
0000
0000
0000
0000
0000
0000
0000
0000
0000
0001
0000
0010
0000
0000
0000
0000
0000
0000
0000
0000
0000
0100
0000
0000
0000
0000
0000
1001
0000
0000
0000
0000
0000
0000
0000
0000
0000
0000
0000
0000
0000
0000
0000
0100
0000
1000
0000
0000
0000
0000
0000
0000
0000
0000
0000
0000
0000
0000
0000
0010
0000
0000
0000
0000
0000
0000
0000
0000
0000
0000
0000
0000
0000
0000
0000
0001
0000
0000
0000
0000
0000
1000
0000
0000
0000
0000
0000
0000
0000
0000
0000
0100
0000
0000
0000
0000
0000
0000
0000
0010
0000
0000
0000
0000
0000
0000
0000
1000
0000
0000
0000
0001
0000
0000
0000
0000
0000
0000
0000
0000
0000
0000
0000
,  // measure 83
0100
0000
0000
0000
0000
0000
0000
0000
0000
0000
0000
0000
1000
0000
0000
0000
0001
0000
0000
0000
0000
0000
0000
0000
0000
0000
0000
0000
0000
0000
0000
0000
0010
0000
0000
0000
0000
0000
0000
0000
0000
0000
1000
0000
0000
0000
0000
0000
0100
0000
0000
0000
0000
0000
0000
0000
0000
0000
0000
0000
0010
0000
0000
0000
1000
0000
0000
0000
0000
0000
0000
0000
0001
0000
0000
0000
0000
0000
0000
0000
0010
0000
0000
0000
0000
0000
0000
0000
0000
0000
0000
0000
0000
0000
0000
0000
0100
0000
0000
0000
0000
0000
1000
0000
0000
0000
0000
0000
0000
0000
0000
0000
0001
0000
0000
0000
0000
0000
0000
0000
0000
0000
0000
0000
0000
0000
0000
0000
1000
0000
0000
0000
0010
0000
0000
0000
0000
0000
0000
0000
0000
0000
0000
0000
0100
0000
0000
0000
0000
0000
1000
0000
0000
0000
0000
0000
0000
0000
0000
0000
0010
0000
0000
0000
0000
0000
0000
0000
0000
0000
0000
0000
0000
0000
0100
0000
0001
0000
0000
0000
0000
0000
0000
0000
0000
0000
0000
0000
0000
0000
0000
0000
,  // measure 84
1001
0000
0000
0000
0000
0000
0010
0000
0000
0000
0000
0000
0000
0000
0000
0000
0100
0000
0000
0000
0000
0000
0000
0000
1000
0000
0000
0000
0000
0000
0000
0000
0010
0000
0000
0000
0000
0000
0000
0000
0000
0000
0000
0000
0000
0000
0000
0000
1000
0000
0000
0000
0000
0000
0001
0000
0000
0000
0000
0000
0000
0000
0000
0000
0100
0000
0000
0000
0000
0000
0000
0000
0000
0000
0000
0000
0000
0000
1000
0000
0010
0000
0000
0000
0000
0000
0000
0000
0000
0000
0000
0000
0000
0000
0000
0000
0001
0000
0000
0000
0000
0000
0000
0000
0000
0000
0000
0000
1000
0000
0000
0000
0100
0000
0000
0000
0000
0000
0000
0000
0000
0000
0000
0000
0000
0000
0000
0000
0010
0000
0000
0000
0001
0000
0000
0000
0000
0000
0000
0000
0000
0000
0000
0000
1000
0000
0000
0000
0000
0000
0010
0000
0000
0000
0000
0000
0000
0000
0000
0000
0100
0000
0000
0000
0000
0000
0000
0000
0000
0000
0000
0000
0000
0000
0000
0000
0001
0000
0000
0000
1000
0000
0000
0000
0000
0000
0000
0000
0000
0000
0000
0000
,  // measure 85
1100
0010
1001
0000
0110
0001
1100
0000
0011
0100
1000
0010
0100
0001
1100
0000
,  // measure 86
1010
0001
0011
0000
0101
1000
1100
0000
0110
0001
1000
0010
0100
0001
0011
0000
,  // measure 87
0110
1000
1001
0000
1100
0010
1001
0000
0011
0100
1000
0010
0100
0001
1001
0000
,  // measure 88
1100
0010
0110
0000
1001
0100
0011
0000
0110
1000
0001
0100
0010
0001
1001
0010
,  // measure 89
1000
0100
1000
0000
0010
0000
0100
0000
0001
1000
0001
0000
0010
0000
0100
0000
1000
0010
1000
0000
0100
0000
0010
0000
0001
1000
0001
0000
0010
0000
0100
0000
,  // measure 90
1000
0010
1000
0000
0001
0000
0100
0000
0010
1000
0010
0000
1000
0000
0100
0000
0010
0001
0010
0000
0001
0000
0100
0000
0010
1000
0010
0000
1000
0000
0000
0000
,  // measure 91
0001
0100
0001
0000
0010
0000
0100
0000
1000
0001
1000
0000
0100
0000
0010
0000
0001
0100
0001
0000
1000
0000
0100
0000
0010
0001
1000
0000
0001
0000
0010
0000
,  // measure 92
0100
1000
0001
0000
1000
0000
0100
0000
0010
0001
1000
0000
0001
0000
0100
0000
0010
1000
0100
0000
0010
0000
0001
0000
0100
0010
1000
0000
0100
0000
0010
0000
,  // measure 93
1000
0100
0001
0010
1000
0100
0001
0010
1000
0100
0001
0010
1000
0100
0001
0010
1000
0100
0001
0010
1000
0100
0001
0010
1000
0100
0001
0010
1000
0100
0001
0010
,  // measure 94
1000
0001
0100
0010
1000
0001
0100
0010
1000
0001
0100
0010
1000
0001
0100
0010
1000
0001
0100
0010
1000
0001
0100
0010
1000
0001
0100
0010
1000
0001
0100
0010
,  // measure 95
1000
0100
0010
0001
1000
0100
0010
0001
1000
0100
0010
0001
1000
0100
0010
0001
1000
0100
0010
0001
1000
0100
0010
0001
1000
0100
0010
0001
1000
0100
0010
0001
,  // measure 96
0010
0100
1000
0001
0010
0100
1000
0001
0010
0100
1000
0001
0010
0100
1000
0001
0010
0100
1000
0001
0010
0100
1000
0001
0010
0100
1000
0001
0010
0100
1000
0001
,  // measure 97
1100
0000
0110
0000
0001
0010
1100
0000
1001
0100
0010
0001
1000
0100
1010
0000
,  // measure 98
0011
0000
0100
1000
0010
0100
1001
0000
1100
0010
0001
0100
0010
1000
1100
0000
,  // measure 99
0011
0000
0100
0010
1000
0100
0011
0000
1001
0100
0010
1000
0100
0010
1001
0001
,  // measure 100
1100
0010
0001
1100
0010
0001
1100
0010
0001
1100
0010
0001
1100
0010
0001
1100
,  // measure 101
2222
0000
0000
0330
,  // measure 102
0110
0000
0220
0000
0330
0000
0000
0000
0110
0000
0110
0000
0110
0110
3113
0110
,  // measure 103
0101
0000
1000
0100
0010
0001
1001
0000
1100
0010
0100
0001
0010
0100
1001
0010
,  // measure 104
1100
0000
0100
0010
1000
0100
0101
0000
1010
0100
0001
0010
0100
1000
0100
0010
,  // measure 105
1001
0000
0100
0010
0001
1000
1100
0000
0110
0001
0100
1000
0010
0100
0101
0000
,  // measure 106
1001
0000
0100
0010
1000
0001
0011
0000
1100
0010
0001
0100
0010
1000
1100
0000
,  // measure 107
0101
0000
0010
1000
0001
0010
0110
0000
1100
0001
1000
0010
0100
0001
0011
0000
,  // measure 108
0110
0000
1000
0010
0001
0100
0110
0000
1010
1000
0001
0010
0100
1000
1001
0000
,  // measure 109
0101
0000
0010
1000
0100
0010
1001
0000
1100
0010
0100
0001
0010
0100
1100
0001
,  // measure 110
2222
0000
3333
0000
2222
0000
3333
0000
1111
0000
1111
0000
1111
1111
1111
1111
,  // measure 111
1001
0000
0100
0010
1000
0001
0110
0000
0011
0100
0001
1000
0100
0010
1001
0000
,  // measure 112
1100
0000
0010
0001
0100
1000
1100
0000
0011
0100
1000
0010
0100
0001
1001
0000
,  // measure 113
0101
0000
0010
1000
0001
0010
0110
0000
1100
0001
1000
0010
0100
1000
1001
0000
,  // measure 114
0101
0000
0010
1000
0100
0001
0011
0000
1100
1000
0001
0100
0010
0001
1001
0000
,  // measure 115
1100
0000
0010
0100
0001
0010
1100
0000
1001
1000
0100
0010
1000
0001
0011
0000
,  // measure 116
0110
0000
1000
0100
0010
0001
0101
0000
1100
1000
0010
0100
0001
1000
0110
0000
,  // measure 117
0011
0001
0100
0010
1000
0100
0011
0000
1001
0100
0010
1000
0101
0010
1100
0000
,  // measure 118
0011
0100
1000
0011
0100
1000
0011
0100
1000
0011
0100
1000
0011
0100
1000
0011
,  // measure 119
2222
0000
0000
3333
,  // measure 120
0111
1000
2222
0000
3333
0000
1110
0001
2222
0000
3333
0000
0111
1000
2222
0000
,  // measure 121
0000
3333
0000
0000
0000
0000
0000
0000
;

//---------------dance-single - ----------------
#NOTES:
     dance-single:
     :
     Medium:
     9:
     0.880,0.831,0.593,0.376,0.000,768.000,90.000,57.000,0.000,20.000:  // measure 1
0000
0000
0000
0000
,  // measure 2
1000
0010
0100
0001
0010
0100
1000
0010
,  // measure 3
0100
0001
1000
0100
0010
0001
0100
0000
,  // measure 4
0001
0100
1000
0100
0010
1000
0001
0010
,  // measure 5
0100
1000
0010
0100
0001
1000
0100
0000
,  // measure 6
0010
1000
0001
0010
0100
1000
0010
0100
,  // measure 7
0001
1000
0100
0001
0100
1000
0010
0000
,  // measure 8
1000
0100
1000
0001
0010
0100
0001
0100
,  // measure 9
0010
1000
0100
0010
0011
0000
1001
0000
,  // measure 10
1000
0010
0100
0001
0010
1000
0010
0001
,  // measure 11
0100
0010
1000
0100
0010
0001
1001
0000
,  // measure 12
0010
0100
1000
0100
0001
0010
0100
1000
,  // measure 13
0010
0001
0010
1000
0001
0100
0010
0000
,  // measure 14
1000
0100
0001
0100
0100
0010
1000
0001
,  // measure 15
0010
0100
1000
0010
0100
0001
1000
0000
,  // measure 16
0010
0001
0100
1000
0100
0001
0010
0100
,  // measure 17
1000
1000
1000
0100
0001
0001
0001
0010
,  // measure 18
2202
0000
3303
0111
,  // measure 19
2022
0000
3033
1110
,  // measure 20
0222
0000
0333
1101
,  // measure 21
1010
0110
0101
1001
,  // measure 22
1000
0010
0100
0001
0010
1000
0010
0001
,  // measure 23
0100
0010
1000
0100
0001
0100
1000
0000
,  // measure 24
0010
0100
0001
1000
0100
0001
0100
0010
,  // measure 25
0001
0010
1000
0100
0001
0100
1000
0000
,  // measure 26
0010
0100
0001
0010
1000
0010
0100
0001
,  // measure 27
0100
1000
0010
0100
0001
1000
0100
0000
,  // measure 28
0010
1000
0001
0010
0100
0001
0100
0010
,  // measure 29
1000
0100
0001
0100
0010
0001
0100
0000
,  // measure 30
0001
0010
0100
1000
0010
0001
0010
0100
,  // measure 31
0001
1000
0100
0010
0001
0100
0010
0000
,  // measure 32
1000
0001
0010
0001
0100
0010
1000
0100
,  // measure 33
0001
0100
1000
0010
0100
0001
0010
0000
,  // measure 34
1000
0100
0001
0100
0010
1000
0100
0010
,  // measure 35
0001
0100
0010
1000
0100
0010
0001
0000
,  // measure 36
1000
0100
1000
0010
0100
0001
0010
1000
,  // measure 37
0100
0010
0001
0100
0010
1000
0100
0000
,  // measure 38
0001
1000
0100
0010
1000
0010
0001
0100
,  // measure 39
0010
1000
0100
0100
1000
0001
0010
0000
,  // measure 40
0100
0001
0100
1000
0100
0001
0010
0100
,  // measure 41
1000
1000
1000
0001
0010
0010
0010
0100
,  // measure 42
2220
0000
3330
0111
,  // measure 43
2202
0000
3303
1110
,  // measure 44
0222
0000
0333
1011
,  // measure 45
2220
0000
3330
0111
,  // measure 46
2202
0000
3303
1110
,  // measure 47
2022
0000
3033
1101
,  // measure 48
0222
0000
0333
1110
,  // measure 49
0011
0101
0110
1010
,  // measure 50
1000
0001
0010
0100
0001
0100
0010
1000
,  // measure 51
0100
0010
0001
0100
0010
1000
0100
0000
,  // measure 52
1000
0001
0100
1000
0100
0010
1000
0001
,  // measure 53
0010
0100
0001
1000
0100
0010
0001
0000
,  // measure 54
0001
0101
0000
1000
1100
0000
0010
0220
,  // measure 55
0000
0330
0000
0000
,  // measure 56
1000
1010
0000
0001
0011
0000
0100
0220
,  // measure 57
0000
0000
0000
0330
,  // measure 58
0001
0100
0010
1000
0100
0010
0001
0100
,  // measure 59
0010
1010
0000
1000
1001
0000
0001
0011
,  // measure 60
0100
1000
0010
0100
0001
1000
0100
0001
,  // measure 61
0100
0010
1000
0001
0010
0100
0001
0000
,  // measure 62
1000
0010
0100
0001
0001
0010
0100
1000
,  // measure 63
0010
0110
0000
0001
1001
0000
0100
0110
,  // measure 64
0001
1000
0010
0100
1000
0100
0001
0010
,  // measure 65
0100
1000
0010
0100
0001
1000
0100
0000
,  // measure 66
0010
0001
0010
0100
1000
0100
0010
0001
,  // measure 67
1000
1010
0000
0100
0101
0000
0001
0011
,  // measure 68
0100
1000
0010
0100
0001
1000
0100
0001
,  // measure 69
0100
1000
0010
0100
0001
0010
0100
0000
,  // measure 70
1000
0010
0100
0001
0010
0100
1000
0010
,  // measure 71
0100
0101
0000
0001
0011
0000
0100
1100
,  // measure 72
0001
1000
0100
0010
1000
0001
0010
0100
,  // measure 73
0001
1000
0100
0010
0001
0100
0010
0000
,  // measure 74
1000
1100
0000
0010
0011
0000
0001
1001
,  // measure 75
0000
0010
0110
0000
1000
0100
0010
0000
,  // measure 76
0001
1001
0000
0100
0110
0000
1000
1010
,  // measure 77
0000
0001
0101
0000
0100
0010
1000
0000
,  // measure 78
1000
1001
0000
0010
0011
0000
1000
1010
,  // measure 79
0000
0001
1001
0000
0010
0100
0001
0000
,  // measure 80
0100
0110
0000
1000
1001
0000
0001
0011
,  // measure 81
0000
0100
0110
0000
1000
1000
1000
1000
,  // measure 82
1200
0320
0032
0203
,  // measure 83
2300
3200
0320
0031
,  // measure 84
1010
1100
0011
1001
,  // measure 85
0010
0100
1000
0100
0001
0010
0100
1000
,  // measure 86
0010
0100
0001
1000
0100
0010
0001
0000
,  // measure 87
0100
0010
0100
1000
0001
0010
0100
1000
,  // measure 88
0010
0100
0001
1000
0100
0010
0001
0000
,  // measure 89
0100
1000
0100
0010
1000
0001
0010
0100
,  // measure 90
0001
1000
0100
0010
0001
0100
0010
0000
,  // measure 91
1000
0100
0001
0100
1000
0010
0100
0001
,  // measure 92
0010
0001
0100
0010
1000
0100
0011
0000
,  // measure 93
2000
0001
3100
0010
0002
0100
0103
0010
,  // measure 94
2000
0100
3001
0010
0200
1000
1300
0010
,  // measure 95
2000
0100
3001
0010
0200
1000
1300
0010
,  // measure 96
0002
0100
0013
1000
0200
0010
0310
0001
,  // measure 97
1000
0010
0100
0001
0010
0100
1000
0010
,  // measure 98
0100
0001
1000
0100
0010
0001
0001
0000
,  // measure 99
0100
0010
1000
0001
0010
0100
0001
1000
,  // measure 100
0100
0010
0001
0100
0010
1000
0100
0010
,  // measure 101
2002
0000
0000
3003
,  // measure 102
0220
0000
0330
0000
0110
0110
0110
0110
,  // measure 103
0110
1000
0001
0010
0100
0001
1000
0100
,  // measure 104
0010
0001
0100
0010
1000
0100
0001
0000
,  // measure 105
0100
1000
0100
0010
1000
0001
0010
0100
,  // measure 106
1000
0010
0100
0001
1000
0100
0001
0000
,  // measure 107
0100
0010
1000
0100
0001
0010
0100
1000
,  // measure 108
0010
0100
0001
1000
0100
0001
0001
0000
,  // measure 109
0010
0100
1000
0100
0010
0001
0010
0100
,  // measure 110
0011
1100
1001
0110
,  // measure 111
1100
0001
1000
0010
0100
1000
0001
0100
,  // measure 112
0010
0001
0010
0100
1000
0010
0100
0000
,  // measure 113
0001
1000
0100
0001
0100
1000
0010
0100
,  // measure 114
0001
0010
0100
1000
0010
0001
0010
0000
,  // measure 115
0100
0001
0010
1000
0010
0100
1000
0100
,  // measure 116
0001
0010
0100
1000
0010
0100
0001
0000
,  // measure 117
1000
0100
0010
1000
0001
0010
0100
0001
,  // measure 118
1000
0100
0010
0001
0100
0010
1000
0100
,  // measure 119
2002
0000
0000
3003
,  // measure 120
0101
0101
0000
0110
0110
0000
1100
2200
,  // measure 121
0000
3300
0000
0000
0000
0000
0000
0000
;

//---------------dance-single - ----------------
#NOTES:
     dance-single:
     :
     Easy:
     8:
     0.695,0.712,0.751,0.468,0.000,554.000,114.000,71.000,0.000,0.000:  // measure 1
0000
0000
0000
0000
,  // measure 2
1000
0100
0010
0000
0001
0000
0100
0000
,  // measure 3
1010
1100
0101
0010
,  // measure 4
1000
0100
0001
0000
1000
0000
0010
0000
,  // measure 5
0101
0011
0110
1000
,  // measure 6
0001
0100
0010
0000
0100
0000
1000
0000
,  // measure 7
0011
0101
1100
0010
,  // measure 8
0001
0100
1000
0000
0100
0000
0010
0000
,  // measure 9
1001
1100
0110
0011
,  // measure 10
0001
0100
1000
0000
0010
0000
0100
0000
,  // measure 11
1001
1100
0110
0001
,  // measure 12
0100
0010
1000
0000
0100
0000
0010
0000
,  // measure 13
1001
1010
0110
0001
,  // measure 14
1000
0100
0010
0000
0001
0000
0100
0000
,  // measure 15
1010
1100
1001
0010
,  // measure 16
0100
0001
0001
0000
1000
0000
0010
0000
,  // measure 17
1100
0011
1100
0011
,  // measure 18
2002
0000
3003
0110
,  // measure 19
2200
0000
3300
0110
,  // measure 20
0022
0000
0033
0101
,  // measure 21
1010
0110
0101
1001
,  // measure 22
1000
0100
0010
0000
0001
0000
0100
0000
,  // measure 23
0001
0100
1000
0000
1000
0000
0100
0000
,  // measure 24
0010
0001
0001
0000
0100
0000
0010
0000
,  // measure 25
1000
0100
0001
0000
0100
0000
1000
0000
,  // measure 26
0010
0100
0001
0000
1000
0000
0100
0000
,  // measure 27
0010
0001
0001
0000
0100
0000
1000
0000
,  // measure 28
0010
0100
0001
0000
1000
0000
0100
0000
,  // measure 29
0010
0001
0001
0000
1000
0000
0010
0000
,  // measure 30
0100
0001
0100
0000
0001
0010
0001
0000
,  // measure 31
1000
0000
0010
0000
0100
0001
0100
0000
,  // measure 32
0001
0000
0010
0000
0100
1000
0100
0000
,  // measure 33
1000
0000
0010
0000
0001
0100
1000
0000
,  // measure 34
0010
0100
0001
0000
1000
0100
0010
0000
,  // measure 35
0001
1000
1000
0000
0100
0000
0010
0000
,  // measure 36
1000
0100
0001
0000
0100
0000
1000
0000
,  // measure 37
0010
0000
0100
0000
0001
0010
0100
0000
,  // measure 38
1000
0100
0001
0000
0100
0000
0010
0000
,  // measure 39
1000
0100
0010
0000
0001
0000
0100
0000
,  // measure 40
0010
1000
0001
0000
0100
0000
0010
0000
,  // measure 41
0110
1001
0110
1001
,  // measure 42
0022
0000
0033
0110
,  // measure 43
2200
0000
3300
1001
,  // measure 44
0220
0000
0330
1010
,  // measure 45
2200
0000
3300
0110
,  // measure 46
0202
0000
0303
0011
,  // measure 47
2020
0000
3030
0101
,  // measure 48
0022
0000
0033
0110
,  // measure 49
0011
0101
0110
1010
,  // measure 50
1000
0100
0010
0000
0001
0000
0100
0000
,  // measure 51
0001
0010
0001
0000
0100
1000
0100
0000
,  // measure 52
0010
1000
1000
0000
0001
0000
0100
0000
,  // measure 53
0010
1000
0100
0000
0010
0001
0001
0000
,  // measure 54
0001
0002
0000
1003
2000
0000
3010
0220
,  // measure 55
0000
0330
0000
0000
,  // measure 56
0100
0200
0000
0301
0002
0000
0013
0220
,  // measure 57
0000
0000
0000
0330
,  // measure 58
0001
0100
1000
0000
0010
0000
0100
0000
,  // measure 59
0010
0020
0000
1030
1002
0000
0013
0010
,  // measure 60
1100
0000
1001
0000
0100
0010
0001
0000
,  // measure 61
1000
0100
0001
0100
1000
0000
0010
0000
,  // measure 62
0100
0001
1000
0000
0010
0000
0100
0000
,  // measure 63
0010
0020
0000
0031
0002
0000
0103
0100
,  // measure 64
1010
0000
1001
0000
0100
0010
0001
0000
,  // measure 65
0100
1000
0100
0010
0001
0000
1000
0000
,  // measure 66
0100
0001
0010
0000
0100
0000
1000
0000
,  // measure 67
0010
0020
0000
0130
0200
0000
0301
0001
,  // measure 68
0110
0000
1100
0000
1000
0010
0001
0000
,  // measure 69
0100
0010
1000
0100
1000
0000
0001
0000
,  // measure 70
0010
0100
1000
0000
0010
0000
0001
0000
,  // measure 71
0100
0200
0000
0301
0002
0000
0013
0010
,  // measure 72
1100
0000
1001
0000
0100
0001
0010
0000
,  // measure 73
1000
0100
0010
0001
0100
0000
0001
0000
,  // measure 74
1100
0000
0000
0110
0000
0000
1001
0000
,  // measure 75
0000
0011
0000
0000
1000
0100
0010
0001
,  // measure 76
0101
0000
0000
0110
0000
0000
1100
0000
,  // measure 77
0000
1001
0000
0000
1000
0100
0001
0100
,  // measure 78
1001
0000
0000
0011
0000
0000
0110
0000
,  // measure 79
0000
1100
0000
0000
0010
0100
0001
0010
,  // measure 80
1100
0000
0000
1010
0000
0000
0011
0000
,  // measure 81
0000
0110
0000
0000
1001
1001
1001
0000
,  // measure 82
1200
0320
0032
0203
,  // measure 83
2300
3200
0320
0032
,  // measure 84
0203
0000
0320
0000
2030
0000
3001
0001
,  // measure 85
0100
0010
1000
0100
1000
0000
0001
0000
,  // measure 86
0010
0100
1000
0100
0010
0000
0001
0000
,  // measure 87
0100
0010
1000
0100
1000
0000
0001
0000
,  // measure 88
0010
0100
1000
0010
0001
0000
0100
0000
,  // measure 89
0010
1000
0001
0010
0001
0000
0100
0000
,  // measure 90
0010
1000
0010
0001
0100
0000
0001
0000
,  // measure 91
0010
0100
1000
0010
0100
0000
0001
0000
,  // measure 92
1000
0100
0010
0001
0001
0000
0100
0000
,  // measure 93
0020
2030
3002
0023
,  // measure 94
0230
2300
3020
0032
,  // measure 95
0023
0230
2300
3020
,  // measure 96
0230
0302
2003
3200
,  // measure 97
0310
0001
0100
0001
0010
0000
1000
0000
,  // measure 98
0100
0010
0001
0100
1000
0000
0010
0000
,  // measure 99
0100
0001
0100
1000
0010
0000
1000
0000
,  // measure 100
0100
0010
0001
0100
0010
0000
1000
0000
,  // measure 101
2002
0000
0000
3003
,  // measure 102
0220
0330
0110
1001
,  // measure 103
1000
0100
0010
0000
0001
0010
0100
0000
,  // measure 104
1000
1001
0101
0110
,  // measure 105
0010
1000
0100
0000
0100
0010
0001
0000
,  // measure 106
0100
1010
1100
0101
,  // measure 107
0001
0010
0100
0000
1000
0100
0010
0000
,  // measure 108
0001
1100
1010
0110
,  // measure 109
0001
1000
0100
0000
0100
1000
0001
0000
,  // measure 110
0011
0110
1001
0110
,  // measure 111
0100
0010
0001
1000
0100
0000
0010
0000
,  // measure 112
0100
1000
0100
0001
1000
0000
0010
0000
,  // measure 113
0100
0001
0010
0100
1000
0000
0010
0000
,  // measure 114
0100
0001
1000
0100
0010
0000
0001
0000
,  // measure 115
0100
0010
1000
0001
0010
0000
0100
0000
,  // measure 116
1000
0100
0010
0001
0001
0000
0100
0000
,  // measure 117
0001
0010
0100
1000
1000
0000
0010
0000
,  // measure 118
0100
0001
1000
0100
0010
0000
0101
0000
,  // measure 119
2002
0000
0000
3003
,  // measure 120
0011
0011
0000
0110
0110
0000
1100
2200
,  // measure 121
0000
3300
0000
0000
0000
0000
0000
0000
;

//---------------dance-double - ----------------
#NOTES:
     dance-double:
     :
     Hard:
     13:
     1.000,1.000,0.744,0.277,0.685,1033.000,113.000,42.000,0.000,30.000:  // measure 1
00000000
00000000
00000000
00000000
,  // measure 2
10010000
00000000
00100000
00000000
01000000
00000000
00010000
00000000
00100000
00001000
00100000
00000000
00010000
00001000
00000100
00000000
,  // measure 3
00000010
00000000
00000001
00000000
00001000
00000000
00000100
00000000
00010000
00001000
00010000
00000000
00100000
01000000
10000000
00000000
,  // measure 4
00010000
00000000
01000000
00000000
00100000
00000000
00010000
00000000
00001000
00000100
00001000
00000000
00010000
00100000
01000000
00000000
,  // measure 5
10000000
00000000
00100000
00000000
00010000
00000000
00001000
00000000
00000100
00000010
00000001
00000000
00000001
00001000
00000100
00000000
,  // measure 6
00001000
00000000
00010000
00000000
00100000
00000000
01000000
00000000
10000000
00010000
10000000
00000000
01000000
00100000
00010000
00000000
,  // measure 7
00001000
00000000
00000100
00000000
00000010
00000000
00000001
00000000
00000100
00001000
00010000
00000000
00001000
00010000
00100000
00000000
,  // measure 8
01000000
00000000
10000000
00000000
00010000
00000000
01000000
00000000
00100000
00010000
00001000
00000000
00000100
00000010
00000001
00000000
,  // measure 9
00000010
00000000
00001000
00000000
00010000
00000000
01000000
00000000
10000000
00010000
10000000
00000000
10010000
00000000
00000000
00000000
,  // measure 10
00110000
00000000
01000000
00000000
00001000
00000000
00010000
00000000
00000100
00001000
00000100
00000000
00000010
00000001
00001000
00000000
,  // measure 11
00000001
00000000
00000100
00000000
00001000
00000000
00010000
00000000
00100000
01000000
00100000
00000000
00010000
00001000
00000100
00000000
,  // measure 12
00000010
00000000
00000001
00000000
00001000
00000000
00000100
00000000
00010000
00001000
00010000
00000000
00100000
01000000
10000000
00000000
,  // measure 13
00010000
00000000
01000000
00000000
00100000
00000000
00010000
00000000
00001000
00000100
00001000
00000000
00000100
00000010
00000001
00000000
,  // measure 14
00001000
00000000
00000100
00000000
00010000
00000000
00001000
00000000
00100000
01000000
00100000
00000000
00010000
10000000
01000000
00000000
,  // measure 15
00100000
00000000
00010000
00000000
00001000
00000000
00000100
00000000
00000010
00000001
00000010
00000000
00000100
00001000
00010000
00000000
,  // measure 16
00100000
00000000
01000000
00000000
10000000
00000000
00010000
00000000
00100000
00001000
00100000
00000000
00010000
00001000
00000100
00000000
,  // measure 17
00000010
00000000
00000001
00000000
00000100
00000000
00000010
00000000
00010000
00001000
00010000
00001000
00010000
00001000
00100000
00000000
,  // measure 18
02022000
00000000
03033000
00111000
,  // measure 19
00022200
00000000
00033300
00011010
,  // measure 20
00022200
00000000
00033300
00111000
,  // measure 21
00100000
00010000
00100000
00010000
01000000
00001000
01000000
00001000
00100000
00010000
00100000
00010000
01000000
00001000
01000000
00001000
,  // measure 22
00010000
00000000
00100000
00000000
01000000
00000000
10000000
00000000
00100000
00010000
00001000
00000000
00000100
00000000
00000010
00000000
,  // measure 23
00000001
00000000
00000100
00000000
00000010
00000000
00010000
00000000
00001000
00100000
01000000
00000000
10000000
00000000
00100000
00000000
,  // measure 24
00010000
00000000
00001000
00000000
00000100
00000000
00000010
00000000
00000001
00001000
00000001
00000000
00000100
00000000
00001000
00000000
,  // measure 25
00010000
00000000
00100000
00000000
01000000
00000000
10000000
00000000
00100000
00010000
00100000
00000000
01000000
00000000
00001000
00000000
,  // measure 26
00010000
00000000
00000100
00000000
00000010
00000000
00000001
00000000
00001000
00000100
00010000
00000000
00000100
00000000
00001000
00000000
,  // measure 27
00010000
00000000
00100000
00000000
01000000
00000000
10000000
00000000
00100000
01000000
00001000
00000000
00010000
00000000
00000100
00000000
,  // measure 28
00000010
00000000
00000001
00000000
00000100
00000000
00001000
00000000
00010000
00100000
01000000
00000000
10000000
00000000
00100000
00000000
,  // measure 29
00010000
00000000
00001000
00000000
00000100
00000000
00001000
00000000
00010000
00100000
01000000
00000000
10000000
00000000
00100000
00000000
,  // measure 30
01000000
00000000
00010000
00000000
00001000
00000000
00000010
00000000
00000100
00000001
00000100
00000000
00000001
00000000
00000010
00000000
,  // measure 31
00000100
00000000
00001000
00000000
00010000
00000000
00100000
00000000
01000000
10000000
01000000
00000000
00100000
00000000
00010000
00000000
,  // measure 32
10000000
00000000
00100000
00000000
01000000
00000000
00001000
00000000
00010000
00000100
00010000
00000000
00000010
00000000
00000100
00000000
,  // measure 33
00000001
00000000
00000100
00000000
00001000
00000000
00010000
00000000
00100000
01000000
10000000
00000000
01000000
00000000
00010000
00000000
,  // measure 34
00011000
00000000
00001000
00000000
00000100
00000000
00000010
00000000
00000001
00000100
00001000
00000000
00010000
00000000
00100000
00000000
,  // measure 35
01000000
00000000
10000000
00000000
00100000
00000000
00010000
00000000
00001000
00000100
00000010
00000000
00000001
00001000
00000001
00000000
,  // measure 36
00000100
00000000
00001000
00000000
00010000
00000000
00100000
00000000
01000000
10000000
00010000
00000000
00100000
00000000
00001000
00000000
,  // measure 37
00010000
00000000
00000100
00000000
00000010
00000000
00000001
00000000
00000100
00001000
00010000
00000000
00100000
01000000
00100000
00000000
,  // measure 38
00010000
00000000
00001000
00000000
00000100
00000000
00000010
00000000
00000001
00001000
00000001
00000000
00000100
00000000
00001000
00000000
,  // measure 39
00010000
00000000
00100000
00000000
01000000
00000000
10000000
00000000
00010000
00100000
00010000
00000000
01000000
00001000
00010000
00000000
,  // measure 40
00001000
00000000
00000100
00000000
00000010
00000000
00000001
00000000
00000100
00000010
00001000
00000000
00000100
00000000
00010000
00000000
,  // measure 41
00000010
00010000
00000010
00010000
00000100
00001000
00000100
00001000
00000010
00010000
00000010
00010000
00000100
00001000
00000100
00001000
,  // measure 42
00022200
00000000
00033300
00111000
,  // measure 43
02202000
00000000
03303000
01011000
,  // measure 44
22020000
00000000
33030000
10011000
,  // measure 45
00222000
00000000
00333000
00011100
,  // measure 46
00022020
00000000
00033030
01011000
,  // measure 47
22020000
00000000
33030000
00111000
,  // measure 48
00022200
00000000
00033300
00010110
,  // measure 49
00001000
00000010
00001000
00000010
00010000
00000100
00010000
00000100
00001000
00000010
00001000
00000010
00010000
00000100
00010000
00000100
,  // measure 50
00001100
00000000
00001000
00000000
00000001
00000000
00000100
00000000
00001000
00010000
00001000
00000000
00010000
00100000
01000000
00000000
,  // measure 51
10000000
00000000
00100000
00000000
01000000
00000000
00001000
00000000
00010000
00000100
00010000
00000000
00000100
00000010
00000001
00000000
,  // measure 52
00000010
00000000
00000100
00000000
00001000
00000000
00010000
00000000
00100000
01000000
10000000
00000000
01000000
00100000
01000000
00000000
,  // measure 53
00100000
00000000
00010000
00000000
00001000
00000000
00000100
00000000
00000010
00001000
00000010
00000000
00001000
00010000
00100000
00000000
,  // measure 54
01100000
01010000
00000000
00110000
00011000
00000000
00000110
00022200
,  // measure 55
00000000
00033300
00000000
00000000
,  // measure 56
00011000
00101000
00000000
01010000
00110000
00000000
00011000
00011100
,  // measure 57
00010100
00001000
00010000
00100000
01000000
10000000
00100000
00010000
,  // measure 58
00011000
00000000
00001000
00000000
00000100
00000000
00000010
00000000
00000001
00001000
00000001
00000000
00000100
00000000
00001000
00000000
,  // measure 59
00110000
01100000
00000000
11000000
00110000
00000000
00011000
00001100
,  // measure 60
00000010
00000000
00000001
00000000
00000100
00000000
00001000
00000000
00010000
00100000
00010000
00000000
00001000
00000000
00000100
00000000
,  // measure 61
00000010
00000000
00000001
00000000
00000100
00000000
00001000
00000000
00010000
00100000
01000000
00000000
10000000
00000000
00010000
00000000
,  // measure 62
01000000
00000000
00001000
00000000
00010000
00000000
00000010
00000000
00000100
00000001
00000100
00000000
00001000
00000000
00010000
00000000
,  // measure 63
00110000
01100000
00000000
11000000
10010000
00000000
00110000
00011000
,  // measure 64
00001000
00000000
00000100
00000000
00000010
00000000
00000001
00000000
00000100
00001000
00000100
00000000
00000010
00000000
00010000
00000000
,  // measure 65
00001000
00000000
00100000
00000000
00010000
00000000
01000000
00000000
00100000
10000000
01000000
00000000
10000000
00000000
00010000
00000000
,  // measure 66
00100000
00000000
00001000
00000000
00010000
00000000
00000010
00000000
00000100
00000001
00001000
00000000
00000100
00000000
00001000
00000000
,  // measure 67
00011000
00110000
00000000
01100000
11000000
00000000
10010000
00110000
,  // measure 68
01000000
00000000
10000000
00000000
00010000
00000000
00100000
00000000
00001000
00010000
00000100
00000000
00000100
00000000
00000010
00000000
,  // measure 69
00000001
00000000
00000100
00000000
00001000
00000000
00010000
00000000
00100000
01000000
10000000
00000000
01000000
00000000
00100000
00000000
,  // measure 70
10000000
00000000
00010000
00000000
00100000
00000000
00001000
00000000
00010000
00000100
00000010
00000000
00000001
00000000
00001000
00000000
,  // measure 71
00001100
00010100
00000000
00011000
00110000
00000000
10100000
11000000
,  // measure 72
01000000
00000000
00100000
00000000
00010000
00000000
00001000
00000000
00000100
00000010
00000100
00000000
00000001
00000000
00000100
00000000
,  // measure 73
00001000
00000000
00010000
00000000
00100000
00000000
01000000
00000000
10000000
00100000
00010000
00000000
00001000
00000000
00000100
00000000
,  // measure 74
00000110
00000011
00000000
00001010
00001100
00000000
00011000
00110000
,  // measure 75
00000000
00000000
01100000
00000000
11000000
00000000
00000000
00000000
10000000
01000000
00100000
00000000
01000000
00100000
00010000
00000000
,  // measure 76
00011000
00001100
00000000
00000110
00000011
00000000
00001001
00001100
,  // measure 77
00000000
00000000
00011000
00000000
00110000
00000000
00000000
00000000
01000000
10000000
00010000
00000000
10000000
01000000
00100000
00000000
,  // measure 78
00110000
00011000
00000000
00000110
00001100
00000000
00011000
00110000
,  // measure 79
00000000
00000000
01100000
00000000
10010000
00000000
00000000
00000000
10000000
01000000
00100000
00000000
01000000
00100000
00010000
00000000
,  // measure 80
00011000
00001100
00000000
00000110
00001001
00000000
00001100
00011000
,  // measure 81
00000000
00000000
01100000
00000000
01010000
00000000
00000000
00000000
10000000
00000000
01000000
00000000
00100000
00010000
00100000
00001000
,  // measure 82
00010000
00000100
00001000
00000010
00000100
00000001
00000010
00000100
00001000
00000010
00010000
00001000
,  // measure 83
00010000
00100000
00010000
00001000
01000000
00100000
10000000
01000000
10000000
00010000
00100000
00001000
,  // measure 84
00010000
00000100
00010000
00001000
00010000
00000010
00001000
00000100
00001000
00000010
00010000
00001000
00010000
00001000
00100000
00010000
,  // measure 85
01000000
00000000
10000000
00000000
00100000
00000000
01000000
00000000
00010000
00100000
00010000
00000000
00001000
00000100
00000010
00000000
,  // measure 86
00000001
00000000
00000100
00000000
00001000
00000000
00010000
00000000
00100000
01000000
10000000
00000000
01000000
00100000
01000000
00000000
,  // measure 87
10000000
00000000
00010000
00000000
01000000
00000000
00001000
00000000
00010000
00000100
00010000
00000000
00000100
00000010
00000001
00000000
,  // measure 88
00001000
00000000
00000100
00000000
00010000
00000000
00001000
00000000
00100000
01000000
10000000
00000000
01000000
00100000
00010000
00000000
,  // measure 89
00001000
00000000
00000100
00000000
00000010
00000000
00000001
00000000
00000100
00001000
00000100
00000000
00000001
00001000
00000001
00000000
,  // measure 90
00001000
00000000
00000100
00000000
00010000
00000000
00001000
00000000
00100000
00010000
00100000
00000000
01000000
10000000
01000000
00000000
,  // measure 91
10000000
01000000
00100000
00010000
00100000
00001000
00010000
00001000
00010000
00000100
00001000
00000010
00000100
00000001
00000010
00000100
,  // measure 92
00000010
00000001
00001000
00000100
00001000
00000010
00010000
00001000
00100000
00010000
01000000
00100000
10000000
01000000
10000000
00010000
,  // measure 93
00100000
01000000
00100000
00000000
00010000
00000000
00001000
00000000
00000100
00000010
00000001
00000000
00000001
00000000
00000100
00000000
,  // measure 94
00001000
00010000
00001000
00000000
00000100
00000000
00000010
00000000
00000001
00000100
00001000
00000000
00010000
00000000
00100000
00000000
,  // measure 95
01000000
10000000
01000000
00000000
10000000
00000000
00010000
00000000
00100000
00001000
00100000
00000000
00010000
00000000
00001000
00000000
,  // measure 96
00000100
00000010
00000001
00000000
00000010
00000000
00000100
00000000
00001000
00010000
00001000
00000000
00010000
00000000
00100000
00000000
,  // measure 97
01000000
00000000
10000000
00000000
00100000
00000000
01000000
00000000
00001000
00010000
00000100
00000000
00000010
00000000
00000001
00000000
,  // measure 98
00000100
00000000
00001000
00000000
00010000
00000000
00100000
00000000
01000000
10000000
00010000
00000000
10000000
00000000
01000000
00000000
,  // measure 99
00100000
00000000
00010000
00000000
00001000
00000000
00000100
00000000
00000010
00000001
00000100
00000000
00000010
00010000
00001000
00000000
,  // measure 100
00001000
00010000
00100000
00010000
00001000
00100000
00010000
00001000
00010000
00100000
00010000
00001000
00010000
00100000
01000000
00010000
,  // measure 101
20020000
00000000
00000000
00000000
,  // measure 102
01001000
00000000
00000000
00000000
30030000
00000000
00000000
00000000
01000000
00100000
01000000
00000000
00011000
00000000
00011000
00000000
,  // measure 103
00010100
00000000
00001000
00000000
00000010
00000000
00000100
00000000
00000001
00000010
00001000
00000000
00001000
00000000
00010000
00000000
,  // measure 104
00100000
00000000
01000000
00000000
10000000
00000000
00100000
00000000
00010000
00001000
00000100
00000000
00000010
00000000
00000001
00000000
,  // measure 105
00000100
00000000
00001000
00000000
00010000
00000000
00100000
00000000
01000000
10000000
01000000
00000000
10000000
00000000
00010000
00000000
,  // measure 106
00100000
00000000
00001000
00000000
00010000
00000000
00000010
00000000
00000100
00001000
00010000
00000000
00100000
00000000
01000000
00000000
,  // measure 107
10000000
00000000
00010000
00000000
00100000
00000000
00001000
00000000
00010000
00000010
00000100
00000000
00000001
00000000
00000010
00000000
,  // measure 108
00000100
00000000
00000001
00000000
00000100
00000000
00001000
00000000
00010000
00100000
01000000
00000000
10000000
00000000
00100000
00000000
,  // measure 109
00010000
00000000
00001000
00000000
00000100
00000000
00000010
00000000
00000001
00001000
00000100
00000000
00010000
00000000
00001000
00000000
,  // measure 110
00011000
00000000
00000000
00000000
00011000
00011000
01010000
01010000
,  // measure 111
01100000
00000000
00100000
00000000
10000000
00000000
01000000
00000000
00100000
00010000
00001000
00000000
00000100
00000010
00000100
00000000
,  // measure 112
00001000
00000000
00010000
00000000
00100000
00000000
01000000
00000000
10000000
00100000
10000000
00000000
00010000
00100000
00001000
00000000
,  // measure 113
00010000
00000000
00000100
00000000
00000010
00000000
00000100
00000000
00001000
00010000
00100000
00000000
01000000
10000000
01000000
00000000
,  // measure 114
10000000
00000000
00100000
00000000
00010000
00000000
00001000
00000000
00000100
00000010
00000001
00000000
00000001
00000100
00001000
00000000
,  // measure 115
00010000
00000000
00100000
00000000
01000000
00000000
10000000
00000000
00100000
01000000
00001000
00000000
00010000
00000100
00010000
00000000
,  // measure 116
00001000
00000000
00000100
00000000
00000010
00000000
00000001
00000000
00000100
00001000
00010000
00000000
00001000
00010000
00100000
00000000
,  // measure 117
01000000
00000000
10000000
00000000
00100000
00000000
01000000
00000000
00001000
00010000
00000100
00000000
00001000
00010000
00100000
00000000
,  // measure 118
00010000
00001000
00010000
00000100
00001000
00000010
00001000
00000100
00010000
00001000
00010000
00000010
00001000
00000100
00010000
00001000
,  // measure 119
00222200
00300300
00000000
00033000
,  // measure 120
00111000
00111000
00000000
00011100
00011100
00000000
00111000
00222000
,  // measure 121
00000000
00333000
00000000
00000000
00000000
00000000
00000000
00000000
;

//---------------dance-double - ----------------
#NOTES:
     dance-double:
     :
     Challenge:
     13:
     1.000,1.000,0.916,0.698,0.860,1087.000,139.000,106.000,0.000,30.000:  // measure 1
00000000
00000000
00000000
00000000
,  // measure 2
10010000
00000000
00100000
00000000
01000000
00000000
00010000
00000000
00100000
00001000
00100000
00000000
00010000
00001000
00000100
00000000
,  // measure 3
00000010
00000000
00000001
00000000
00001000
00000000
00000100
00000000
00010000
00001000
00010000
00000000
00100000
01000000
10000000
00000000
,  // measure 4
00010000
00000000
01000000
00000000
00100000
00000000
00010000
00000000
00001000
00000100
00001000
00000000
00010000
00100000
01000000
00000000
,  // measure 5
10000000
00000000
00100000
00000000
00010000
00000000
00001000
00000000
00000100
00000010
00000001
00000000
00000001
00001000
00000100
00000000
,  // measure 6
00001000
00000000
00010000
00000000
00100000
00000000
01000000
00000000
10000000
00010000
10000000
00000000
01000000
00100000
00010000
00000000
,  // measure 7
00001000
00000000
00000100
00000000
00000010
00000000
00000001
00000000
00000100
00001000
00010000
00000000
00001000
00010000
00100000
00000000
,  // measure 8
01000000
00000000
10000000
00000000
00010000
00000000
01000000
00000000
00100000
00010000
00001000
00000000
00000100
00000010
00000001
00000000
,  // measure 9
00000010
00000000
00001000
00000000
00010000
00000000
01000000
00000000
10000000
00010000
10000000
01000000
10000000
01000000
00100000
00010000
,  // measure 10
00110000
00000000
01000000
00000000
00001000
00000000
00010000
00000000
00000100
00001000
00000100
00000000
00000010
00000001
00001000
00000000
,  // measure 11
00000001
00000000
00000100
00000000
00001000
00000000
00010000
00000000
00100000
01000000
00100000
00000000
00010000
00001000
00000100
00000000
,  // measure 12
00000010
00000000
00000001
00000000
00001000
00000000
00000100
00000000
00010000
00001000
00010000
00000000
00100000
01000000
10000000
00000000
,  // measure 13
00010000
00000000
01000000
00000000
00100000
00000000
00010000
00000000
00001000
00000100
00001000
00000000
00000100
00000010
00000001
00000000
,  // measure 14
00001000
00000000
00000100
00000000
00010000
00000000
00001000
00000000
00100000
01000000
00100000
00000000
00010000
10000000
01000000
00000000
,  // measure 15
00100000
00000000
00010000
00000000
00001000
00000000
00000100
00000000
00000010
00000001
00000010
00000000
00000100
00001000
00010000
00000000
,  // measure 16
00100000
00000000
01000000
00000000
10000000
00000000
00010000
00000000
00100000
00001000
00100000
00000000
00010000
00001000
00000100
00000000
,  // measure 17
00001000
00010000
00001000
00100000
00010000
01000000
00100000
01000000
00010000
00100000
00001000
00010000
00000100
00010000
00001000
00010000
,  // measure 18
02022000
00000000
03033000
00111000
,  // measure 19
00022200
00000000
00033300
00011010
,  // measure 20
00022200
00000000
00033300
00111000
,  // measure 21
00100000
00010000
00100000
00010000
01000000
00001000
01000000
00001000
00100000
00010000
00100000
00010000
01000000
00001000
01000000
00001000
,  // measure 22
00011000
00000000
00100000
00000000
01000000
00000000
10000000
00000000
00100000
00010000
00001000
00000000
00000100
00000010
00000001
00000000
,  // measure 23
00000001
00000000
00000100
00000000
00000010
00000000
00010000
00000000
00001000
00100000
01000000
00000000
10000000
01000000
00100000
00000000
,  // measure 24
00010000
00000000
00001000
00000000
00000100
00000000
00000010
00000000
00000001
00001000
00000001
00000000
00000100
00000010
00001000
00000000
,  // measure 25
00010000
00000000
00100000
00000000
01000000
00000000
10000000
00000000
00100000
00010000
00100000
00000000
01000000
00001000
00010000
00000000
,  // measure 26
00010000
00000000
00000100
00000000
00000010
00000000
00000001
00000000
00001000
00000100
00010000
00000000
00000100
00010000
00001000
00000000
,  // measure 27
00010000
00000000
00100000
00000000
01000000
00000000
10000000
00000000
00100000
01000000
00001000
00000000
00010000
00001000
00000100
00000000
,  // measure 28
00000010
00000000
00000001
00000000
00000100
00000000
00001000
00000000
00010000
00100000
01000000
00000000
10000000
01000000
00100000
00000000
,  // measure 29
00010000
00000000
00001000
00000000
00000100
00000000
00001000
00000000
00010000
00100000
01000000
00000000
10000000
01000000
00100000
00000000
,  // measure 30
01000000
00000000
00010000
00000000
00001000
00000000
00000010
00000000
00000100
00000001
00000100
00000000
00000001
00001000
00000010
00000000
,  // measure 31
00000100
00000000
00001000
00000000
00010000
00000000
00100000
00000000
01000000
10000000
01000000
00000000
00100000
10000000
00010000
00000000
,  // measure 32
10000000
00000000
00100000
00000000
01000000
00000000
00001000
00000000
00010000
00000100
00010000
00000000
00000010
00001000
00000100
00000000
,  // measure 33
00000001
00000000
00000100
00000000
00001000
00000000
00010000
00000000
00100000
01000000
10000000
00000000
01000000
00100000
00010000
00000000
,  // measure 34
00011000
00000000
00001000
00000000
00000100
00000000
00000010
00000000
00000001
00000100
00001000
00000000
00010000
00001000
00100000
00000000
,  // measure 35
01000000
00000000
10000000
00000000
00100000
00000000
00010000
00000000
00001000
00000100
00000010
00000000
00000001
00001000
00000001
00000000
,  // measure 36
00000100
00000000
00001000
00000000
00010000
00000000
00100000
00000000
01000000
10000000
00010000
00000000
00100000
00010000
00001000
00000000
,  // measure 37
00010000
00000000
00000100
00000000
00000010
00000000
00000001
00000000
00000100
00001000
00010000
00000000
00100000
01000000
00100000
00000000
,  // measure 38
00010000
00000000
00001000
00000000
00000100
00000000
00000010
00000000
00000001
00001000
00000001
00000000
00000100
00000010
00001000
00000000
,  // measure 39
00010000
00000000
00100000
00000000
01000000
00000000
10000000
00000000
00010000
00100000
00010000
00000000
01000000
00001000
00010000
00000000
,  // measure 40
00001000
00000000
00000100
00000000
00000010
00000000
00000001
00000000
00000100
00000010
00001000
00000000
00000100
00010000
00001000
00000000
,  // measure 41
00000010
00010000
00000010
00010000
00000100
00001000
00000100
00001000
00000010
00010000
00000010
00010000
00000100
00001000
00000100
00001000
,  // measure 42
00022200
00000000
00033300
00111000
,  // measure 43
02202000
00000000
03303000
01011000
,  // measure 44
22020000
00000000
33030000
10011000
,  // measure 45
00222000
00000000
00333000
00011100
,  // measure 46
00022020
00000000
00033030
01011000
,  // measure 47
22020000
00000000
33030000
00111000
,  // measure 48
00022200
00000000
00033300
00010110
,  // measure 49
00001000
00000010
00001000
00000010
00010000
00000100
00010000
00000100
00001000
00000010
00001000
00000010
00010000
00000100
00010000
00000100
,  // measure 50
00001100
00000000
00001000
00000000
00000001
00000000
00000100
00000000
00001000
00010000
00001000
00000000
00010000
00100000
01000000
00000000
,  // measure 51
10000000
00000000
00100000
00000000
01000000
00000000
00001000
00000000
00010000
00000100
00010000
00000000
00000100
00000010
00000001
00000000
,  // measure 52
00000010
00000000
00000100
00000000
00001000
00000000
00010000
00000000
00100000
01000000
10000000
00000000
01000000
00100000
01000000
00000000
,  // measure 53
00100000
00000000
00010000
00000000
00001000
00000000
00000100
00000000
00000010
00001000
00000010
00000000
00001000
00010000
00100000
00000000
,  // measure 54
01100000
00000000
00000000
02020000
00000000
03030000
00000000
00000000
00000000
00110000
00000000
00000000
00022000
00000000
00033000
00000000
00000000
00000000
00000110
00000000
00000000
00022200
00000000
00000000
,  // measure 55
00000000
00033300
00000000
00000000
,  // measure 56
00011000
00000000
00000000
00202000
00000000
00303000
00000000
00000000
00000000
01010000
00000000
00000000
00220000
00000000
00330000
00000000
00000000
00000000
00011000
00000000
00000000
00011100
00000000
00000000
,  // measure 57
00010100
00001000
00011000
00100000
01010000
10000000
10100000
00010000
,  // measure 58
00011000
00000000
00001000
00000000
00000100
00000000
00000010
00000000
00000001
00001000
00000001
00000010
00000100
00000000
00001000
00000000
,  // measure 59
00110000
00000000
00000000
02200000
00000000
03300000
00000000
00000000
00000000
11000000
00000000
00000000
00220000
00000000
00330000
00000000
00000000
00000000
00011000
00000000
00000000
00001100
00000000
00000000
,  // measure 60
00000110
00000000
00000001
00000000
00000100
00000000
00001000
00000000
00010000
00100000
00010000
00100000
00001000
00000000
00000100
00000000
,  // measure 61
00000010
00000000
00000001
00000000
00000100
00000000
00001000
00000000
00010000
00100000
01000000
00100000
01000000
00000000
10000000
00000000
,  // measure 62
00010000
00000000
00100000
00000000
00001000
00000000
00000100
00000000
00000010
00000001
00000010
00000100
00001000
00000000
00010000
00000000
,  // measure 63
00110000
00000000
00000000
02200000
00000000
03300000
00000000
00000000
00000000
11000000
00000000
00000000
20020000
00000000
30030000
00000000
00000000
00000000
00110000
00000000
00000000
00011000
00000000
00000000
,  // measure 64
00001100
00000000
00000100
00000000
00000010
00000000
00000001
00000000
00000100
00001000
00000100
00001000
00000010
00000000
00010000
00000000
,  // measure 65
00001000
00000000
00100000
00000000
00010000
00000000
01000000
00000000
00100000
10000000
01000000
10000000
01000000
00000000
00010000
00000000
,  // measure 66
00101000
00000000
00001000
00000000
00010000
00000000
00000010
00000000
00000100
00000001
00001000
00000001
00000100
00000000
00001000
00000000
,  // measure 67
00011000
00000000
00000000
00220000
00000000
00330000
00000000
00000000
00000000
01100000
00000000
00000000
22000000
00000000
33000000
00000000
00000000
00000000
10010000
00000000
00000000
00110000
00000000
00000000
,  // measure 68
01100000
00000000
10000000
00000000
00010000
00000000
00100000
00000000
00001000
00010000
00000100
00010000
00000100
00000000
00000010
00000000
,  // measure 69
00000001
00000000
00000100
00000000
00001000
00000000
00010000
00000000
00100000
01000000
10000000
00100000
01000000
00000000
00010000
00000000
,  // measure 70
10000000
00000000
01000000
00000000
00100000
00000000
00001000
00000000
00010000
00000100
00000010
00000001
00000010
00000000
00001000
00000000
,  // measure 71
00001100
00000000
00000000
00020200
00000000
00030300
00000000
00000000
00000000
00011000
00000000
00000000
00220000
00000000
00330000
00000000
00000000
00000000
10100000
00000000
00000000
11000000
00000000
00000000
,  // measure 72
01100000
00000000
00100000
00000000
00010000
00000000
00001000
00000000
00000100
00000010
00000100
00000010
00000001
00000000
00000100
00000000
,  // measure 73
00001000
00000000
00010000
00000000
00100000
00000000
01000000
00000000
10000000
00010000
00100000
00001000
00010000
00000000
00001000
00000000
,  // measure 74
00000110
00000000
00000000
00000022
00000000
00000033
00000000
00000000
00000000
00001010
00000000
00000000
00002200
00000000
00003300
00000000
00000000
00000000
00011000
00000000
00000000
00220000
00000000
00330000
,  // measure 75
00000000
00000000
00000000
00000000
00000000
00000000
01100000
00000000
00000000
00000000
00000000
00000000
22000000
00000000
00000000
00000000
33000000
00000000
00000000
00000000
00000000
00000000
00000000
00000000
10000000
00000000
00000000
01000000
00000000
00000000
00100000
00000000
00000000
00010000
00000000
00000000
01000000
00000000
00000000
00001000
00000000
00000000
00010000
00000000
00000000
00001000
00000000
00000000
,  // measure 76
00011000
00000000
00000000
00002200
00000000
00003300
00000000
00000000
00000000
00000110
00000000
00000000
00000022
00000000
00000033
00000000
00000000
00000000
00001001
00000000
00000000
00002200
00000000
00003300
,  // measure 77
00000000
00000000
00000000
00000000
00000000
00000000
00011000
00000000
00000000
00000000
00000000
00000000
00220000
00000000
00000000
00000000
00330000
00000000
00000000
00000000
00000000
00000000
00000000
00000000
01000000
00000000
00000000
10000000
00000000
00000000
00010000
00000000
00000000
01000000
00000000
00000000
10000000
00000000
00000000
01000000
00000000
00000000
00100000
00000000
00000000
00010000
00000000
00000000
,  // measure 78
00110000
00000000
00000000
00022000
00000000
00033000
00000000
00000000
00000000
00000110
00000000
00000000
00002200
00000000
00003300
00000000
00000000
00000000
00011000
00000000
00000000
00220000
00000000
00330000
,  // measure 79
00000000
00000000
00000000
00000000
00000000
00000000
01100000
00000000
00000000
00000000
00000000
00000000
20020000
00000000
00000000
00000000
30030000
00000000
00000000
00000000
00000000
00000000
00000000
00000000
10000000
00000000
00000000
01000000
00000000
00000000
00100000
00000000
00000000
01000000
00000000
00000000
00100000
00000000
00000000
00010000
00000000
00000000
00001000
00000000
00000000
00010000
00000000
00000000
,  // measure 80
00011000
00000000
00000000
00002200
00000000
00003300
00000000
00000000
00000000
00000110
00000000
00000000
00002002
00000000
00003003
00000000
00000000
00000000
00001100
00000000
00000000
00022000
00000000
00033000
,  // measure 81
00000000
00000000
00000000
00000000
00000000
00000000
01100000
00000000
00000000
00000000
00000000
00000000
02020000
00000000
00000000
00000000
03030000
00000000
00000000
00000000
00000000
00000000
00000000
00000000
10010000
00000000
00000000
00000000
00000000
00000000
11000000
00000000
00000000
00000000
00000000
00000000
00100000
00000000
00000000
00010000
00000000
00000000
00100000
00000000
00000000
00001000
00000000
00000000
,  // measure 82
00011000
00000100
00001000
00000010
00000100
00000001
00000010
00000100
00001000
00000010
00010000
00001000
,  // measure 83
00010000
00100000
00010000
00001000
01000000
00100000
10000000
01000000
10000000
00010000
00100000
00001000
,  // measure 84
00010000
00000100
00010000
00001000
00010000
00000010
00001000
00000100
00001000
00000010
00010000
00001000
00010000
00001000
00100000
00010000
,  // measure 85
01010000
00000000
10000000
00000000
00100000
00000000
01000000
00000000
00010000
00100000
00010000
00000000
00001000
00000100
00000010
00000000
,  // measure 86
00000001
00000000
00000100
00000000
00001000
00000000
00010000
00000000
00100000
01000000
10000000
00000000
01000000
00100000
01000000
00000000
,  // measure 87
10000000
00000000
00010000
00000000
01000000
00000000
00001000
00000000
00010000
00000100
00010000
00000000
00000100
00000010
00000001
00000000
,  // measure 88
00001000
00000000
00000100
00000000
00010000
00000000
00001000
00000000
00100000
01000000
10000000
00000000
01000000
00100000
00010000
00000000
,  // measure 89
00001000
00000000
00000100
00000000
00000010
00000000
00000001
00000000
00000100
00001000
00000100
00000000
00000001
00001000
00000001
00000000
,  // measure 90
00001000
00000000
00000100
00000000
00010000
00000000
00001000
00000000
00100000
00010000
00100000
00000000
01000000
10000000
01000000
00000000
,  // measure 91
10000000
01000000
00100000
00010000
00100000
00001000
00010000
00001000
00010000
00000100
00001000
00000010
00000100
00000001
00000010
00000100
,  // measure 92
00000010
00000001
00001000
00000100
00001000
00000010
00010000
00001000
00100000
00010000
01000000
00100000
10000000
01000000
10000000
00010000
,  // measure 93
00100000
01000000
00100000
00000000
01000000
00010000
00001000
00000000
00000100
00000010
00000001
00000000
00000001
00000010
00000100
00000000
,  // measure 94
00001000
00010000
00001000
00000000
00000100
00001000
00000010
00000000
00000001
00000100
00001000
00000000
00010000
00001000
00100000
00000000
,  // measure 95
01000000
10000000
01000000
00000000
10000000
00010000
00100000
00000000
00010000
00001000
00100000
00000000
00010000
00000100
00001000
00000000
,  // measure 96
00000100
00000010
00000001
00000000
00000010
00000001
00000100
00000000
00001000
00010000
00001000
00000000
00010000
00001000
00100000
00000000
,  // measure 97
01100000
00000000
10000000
00000000
00100000
00000000
01000000
00000000
00001000
00010000
00000100
00000000
00000010
00000100
00000001
00000000
,  // measure 98
00000100
00000000
00001000
00000000
00010000
00000000
00100000
00000000
01000000
10000000
00010000
00000000
10000000
00100000
01000000
00000000
,  // measure 99
00100000
00000000
00010000
00000000
00001000
00000000
00000100
00000000
00000010
00000001
00000100
00000000
00000010
00010000
00001000
00100000
,  // measure 100
00001000
00010000
00100000
00010000
00001000
00100000
00010000
00001000
00010000
00100000
00010000
00001000
00010000
00100000
01000000
00010000
,  // measure 101
20020000
00000000
00000000
00000000
,  // measure 102
01001000
00000000
00000000
00000000
30030000
00000000
00000000
00000000
01000000
00100000
01000000
00000000
00011000
00000000
00011000
00000000
,  // measure 103
00010100
00000000
00001000
00000000
00000010
00000000
00000100
00000000
00000001
00000010
00001000
00000000
00001100
00000000
00010000
00000000
,  // measure 104
00100000
00000000
01000000
00000000
10000000
00000000
00100000
00000000
00010000
00001000
00000100
00000000
00000110
00000000
00000001
00000000
,  // measure 105
00000100
00000000
00001000
00000000
00010000
00000000
00100000
00000000
01000000
10000000
01000000
00000000
10100000
00000000
00010000
00000000
,  // measure 106
00100000
00000000
00001000
00000000
00010000
00000000
00000010
00000000
00000100
00001000
00010000
00000000
00110000
00000000
01000000
00000000
,  // measure 107
10000000
00000000
00010000
00000000
00100000
00000000
00001000
00000000
00010000
00000010
00000100
00000000
00001001
00000000
00000010
00000000
,  // measure 108
00000100
00000000
00000001
00000000
00000100
00000000
00001000
00000000
00010000
00100000
01000000
00000000
11000000
00000000
00100000
00000000
,  // measure 109
00010000
00000000
00001000
00000000
00000100
00000000
00000010
00000000
00000001
00001000
00000100
00000000
00010100
00000000
00001000
00000000
,  // measure 110
00022000
00000000
00033000
00000000
00011000
00011000
01010000
01010000
,  // measure 111
01100000
00000000
00100000
00000000
10000000
00000000
01000000
00000000
00100000
00010000
00001000
00000000
00000100
00000010
00000100
00000000
,  // measure 112
00001100
00000000
00010000
00000000
00100000
00000000
01000000
00000000
10000000
00100000
10000000
00000000
00010000
00100000
00001000
00000000
,  // measure 113
00011000
00000000
00000100
00000000
00000010
00000000
00000100
00000000
00001000
00010000
00100000
00000000
01000000
10000000
01000000
00000000
,  // measure 114
11000000
00000000
00100000
00000000
00010000
00000000
00001000
00000000
00000100
00000010
00000001
00000000
00000001
00000100
00001000
00000000
,  // measure 115
00011000
00000000
00100000
00000000
01000000
00000000
10000000
00000000
00100000
01000000
00001000
00000000
00010000
00000100
00010000
00000000
,  // measure 116
00011000
00000000
00000100
00000000
00000010
00000000
00000001
00000000
00000100
00001000
00010000
00000000
00001000
00010000
00100000
00000000
,  // measure 117
01100000
00000000
10000000
00000000
00100000
00000000
01000000
00000000
00001000
00010000
00000100
00000000
00001000
00010000
00100000
00000000
,  // measure 118
00010000
00001000
00010000
00000100
00001000
00000010
00001000
00000100
00010000
00001000
00010000
00000010
00001000
00000100
00010000
00001000
,  // measure 119
00222200
00300300
00000000
00033000
,  // measure 120
00111000
00000000
00000000
00222000
00000000
00333000
00000000
00000000
00000000
00011100
00000000
00000000
00022200
00000000
00033300
00000000
00000000
00000000
00111000
00000000
00000000
00222000
00000000
00000000
,  // measure 121
00000000
00333000
00000000
00000000
00000000
00000000
00000000
00000000
;
