#TITLE:Shind Bad;
#SUBTITLE:;
#ARTIST:DJ Sharpnel;
#TITLETRANSLIT:;
#SUBTITLETRANSLIT:;
#ARTISTTRANSLIT:;
#CREDIT:;
#BANNER:shind bn.png;
#BACKGROUND:shind bg.png;
#LYRICSPATH:;
#CDTITLE:;
#MUSIC:Shind Bad.ogg;
#OFFSET:-0.741;
#SAMPLESTART:58.891;
#SAMPLELENGTH:19.430;
#SELECTABLE:YES;
#DISPLAYBPM:198.000;
#BPMS:0.000=197.622,332.750=98.811,334.000=197.622;
#STOPS:332.000=0.228
;
#BGCHANGES:;
// cache tags:
#FIRSTBEAT:0.000;
#LASTBEAT:536.000;
#SONGFILENAME:Songs/SHARPNELSTREAMZ v2/Shind Bad/Shind Bad.sm;
#HASMUSIC:1;
#HASBANNER:1;
#MUSICLENGTH:164.179;
// end cache tags

//---------------dance-single - 16- (Zaia)----------------
#NOTES:
     dance-single:
     16- (Zaia):
     Challenge:
     16:
     1.000,1.000,0.085,0.201,1.000,1660.000,14.000,33.000,6.000,0.000:
1000
0000
0010
0000
0100
0000
0001
0000
1000
0001
1000
0000
0001
0000
0010
0000
,
0100
0000
1000
0000
0001
0000
1000
0000
0010
1000
0010
0000
0100
0000
0001
0000
,
0010
0000
0100
0000
1000
0000
0001
0000
1000
0010
1000
0000
0010
0000
0100
0000
,
0001
0000
1000
0000
0100
0000
0010
0000
0001
1000
0001
0000
0100
0000
0010
0000
,
1000
0000
0001
0000
0100
0000
0001
0000
0010
0001
0010
0000
0100
0000
1000
0000
,
0010
0000
1000
0000
0100
0000
0010
0000
0001
0010
0001
0000
1000
0000
0001
0000
,
1000
0000
0010
0000
0100
0000
0001
0000
1000
0001
1000
0000
0100
0000
1000
0000
,
0010
0000
0100
0000
0001
0000
1000
0000
0100
1000
0100
0000
0010
0000
0001
0000
,
1001
0000
1000
0000
0100
0000
0010
0001
1000
0001
0010
0000
0001
0000
0100
0000
,
0010
0000
1000
0000
0001
0000
1000
0001
0100
0001
1000
0000
0100
0000
1000
0000
,
0010
0000
1000
0000
0001
0000
1000
0100
0010
0100
1000
0000
0001
0000
0100
0000
,
0010
0000
1000
0000
0010
0000
0100
0001
1000
0001
0010
0000
0100
0000
0010
0000
,
0001
0000
1000
0000
0001
0000
1000
0001
0010
0001
1000
0000
0010
0000
0100
0000
,
0001
0000
0100
0000
0010
0000
1000
0001
0100
0001
1000
0000
0100
0000
1000
0000
,
0001
0010
0001
1000
0001
1000
0100
0010
0100
1000
0001
0100
0010
1000
0100
1000
,
0001
0100
0010
1000
0001
0010
0001
1000
0100
0010
0001
0100
0010
1000
0001
1000
,
0100
0000
0010
0000
0001
0000
1000
0010
0100
0010
1000
0000
0001
0000
0010
0000
,
0100
0000
1000
0000
0001
0000
0100
0010
0100
0001
1000
0000
0001
0000
0010
0000
,
0001
0000
1000
0000
0010
0000
0100
0001
1000
0010
1000
0000
0001
0000
1000
0000
,
0010
0000
0100
0000
0001
0000
1000
0010
0100
0010
1000
0000
0001
0000
1000
0000
,
0100
0000
0010
0000
0100
0000
1000
0001
0100
0010
0100
0000
0001
0000
1000
0000
,
0001
0000
0010
0000
0001
0000
1000
0001
0010
0001
1000
0000
0010
0000
0100
0000
,
0001
0000
1000
0000
0001
0000
0100
0010
1000
0001
0010
0000
0001
0000
0010
0000
,
0100
0000
0010
0000
0001
0000
0100
0010
1000
0010
0100
0000
0001
1000
0001
1000
,
0010
0000
0100
0001
0100
0000
0010
1000
0001
1000
0010
0000
0100
0000
0001
1000
,
0010
0000
1000
0001
1000
0000
0001
0010
0100
0010
0001
0000
1000
0000
0010
0100
,
0001
0000
1000
0100
1000
0000
0001
0100
0010
0100
0001
0000
1000
0000
0010
1000
,
0001
0000
0100
0001
0100
0000
0010
1000
0100
1000
0001
0000
0010
0000
0100
0010
,
0001
0000
1000
0100
1000
0000
0001
0010
0100
0010
0001
0000
1000
0000
0001
0100
,
0010
0000
1000
0001
1000
0000
0010
0100
0001
1000
0001
0000
0010
0000
0100
0010
,
0001
1000
0100
0010
0100
1000
0001
0100
0010
1000
0001
0100
0001
1000
0010
0100
,
0001
0010
0001
0100
0010
1000
0100
1000
0010
0100
0001
0010
0001
0100
0010
1000
,
0100
0010
0001
1000
0010
0100
0010
1000
0001
0010
0001
1000
0100
1000
0010
0100
,
0001
1000
0001
1000
0010
0100
0010
0100
0010
1000
0010
1000
0100
1000
0100
0010
,
0001
1000
0001
1000
0010
0100
0010
1000
0001
0010
0001
1000
0100
1000
0010
0100
,
0001
1000
0001
1000
0100
0010
0100
0010
0001
0010
0001
0100
0001
0100
0010
0100
,
0001
1000
0001
1000
0100
0010
0100
1000
0001
0100
0001
1000
0010
1000
0100
0010
,
0001
1000
0001
1000
0100
0010
0100
0010
0001
0100
0001
0100
0010
1000
0010
0100
,
0001
1000
0001
1000
0100
0010
0100
1000
0001
0100
0001
1000
0010
1000
0100
0010
,
0001
1000
0001
1000
0010
0100
0010
0100
0001
0010
0001
0010
0001
1000
0010
0100
,
0001
1000
0001
1000
0010
0100
0010
1000
0001
0010
0001
1000
0100
1000
0100
0010
,
0001
1000
0001
1000
0010
0100
0010
0100
0010
1000
0010
1000
0100
0010
0001
0010
,
0001
1000
0001
1000
0010
0100
0010
1000
0001
0010
0001
1000
0100
1000
0010
0100
,
0001
1000
0001
1000
0100
0010
0100
0010
0001
0100
0001
0100
0001
1000
0100
0010
,
0001
1000
0001
1000
0100
0010
0100
1000
0001
0100
0001
1000
0010
1000
0100
0010
,
0001
1000
0001
1000
0010
0100
0010
0100
0001
0100
0001
0100
0010
1000
0010
0100
,
0001
1000
0001
1000
0100
0010
0100
1000
0001
0100
0001
1000
0010
1000
0100
0010
,
0001
0100
0010
1000
0100
1000
0010
0100
0001
0010
0100
1000
0010
0100
0001
1000
,
0001
0010
0001
1000
0010
0100
0010
1000
0001
0010
0001
1000
0100
0010
0100
1000
,
0010
0100
0010
1000
0001
1000
0100
0010
0100
1000
0001
0100
0010
1000
0001
1000
,
0100
0010
0100
1000
0001
0100
0001
1000
0100
0010
0001
0010
0100
1000
0001
0100
,
0010
1000
0001
1000
0100
0010
0100
1000
0001
0100
0010
0100
0001
1000
0100
0010
,
0001
0100
0001
1000
0100
0010
0100
1000
0001
0100
0001
1000
0010
0100
0010
1000
,
0100
0010
0100
1000
0001
1000
0010
0100
0010
1000
0001
0010
0100
1000
0001
1000
,
0010
0100
0010
1000
0001
0010
0001
1000
0010
0100
0001
0100
0010
1000
0001
0010
,
0100
1000
0001
1000
0010
0100
0010
1000
0001
0010
0100
0010
0001
1000
0010
0100
,
0001
0010
0001
1000
0010
0100
0010
1000
0001
0010
0001
1000
0100
1000
0100
0010
,
0001
0100
0001
1000
0100
0010
0100
1000
0001
0100
0010
0100
0001
1000
0100
0010
,
0001
1000
0001
1000
0010
0100
0010
1000
0001
0010
0001
1000
0100
1000
0010
0100
,
0001
1000
0100
1000
0001
0100
0010
1000
0001
0010
0100
0010
0001
1000
0010
0100
,
0001
0010
0001
1000
0010
0100
0010
1000
0001
0010
0001
1000
0100
1000
0100
0010
,
0001
0100
0001
1000
0100
0010
0100
1000
0001
0100
0010
0100
0001
1000
0100
0010
,
0002
0203
0320
2030
3200
2300
3020
0230
,
0302
0023
0230
2300
0000
3100
1100
1000
,
0100
0100
0010
0000
0011
0000
0000
0001
,
0000
0100
0010
0000
1010
0000
0000
1000
,
0001
0001
0010
0010
0100
0100
1000
1000
,
0010
0100
0000
0101
0000
0011
0000
0110
,
0100
1000
0010
1000
0010
0100
0001
0010
,
0000
0001
0100
0100
0010
1000
0100
0010
,
0000
0001
0010
0001
0100
0010
0000
1000
,
0000
0000
0001
0000
0100
M00M
0100
0000
1000
0000
0001
0000
0000
0000
0100
0000
,
0000
0001
0010
0001
0010
0100
1000
0010
,
0000
1000
0001
0001
0010
0100
1000
0001
,
0000
1000
0001
1000
0001
0001
0000
0010
,
0100
0000
1100
0000
0000
0000
1001
0000
0000
0000
0110
0000
0000
0000
1000
0001
,
0100
0010
1000
1000
0000
0001
0010
0100
,
0000
0100
1000
0100
0010
0001
1000
0001
,
0000
1000
0001
1000
0010
0100
0000
0001
,
0000
0000
0000
0000
0000
0001
0010
0100
,
1000
0000
0000
0000
1020
0000
0000
0030
0101
0000
0002
0000
0000
0000
0023
0000
,
0000
0031
0100
0010
1000
0002
0000
2000
,
0000
0000
0000
0000
0000
0000
0000
3003
,
1MM1
0000
0000
0001
0010
0000
0100
0000
10M0
0001
1000
0100
1000
0010
0100
0001
,
1000
0001
1000
0100
1000
0010
0100
0001
1000
0001
1000
0100
1000
0010
0100
0001
,
1000
0001
1000
0100
1000
0010
0100
0001
0010
0001
1000
0001
0100
0001
0010
0001
,
0010
0001
1000
0001
0100
0010
1000
0001
0010
0001
1000
0001
0100
0001
0010
0001
,
0010
0001
1000
0010
0100
0001
1000
0100
0010
0001
1000
0010
0100
0001
0010
0001
,
0010
0001
1000
0010
0100
0001
1000
0001
0010
0001
1000
0010
0100
0001
0010
0001
,
0010
0001
1000
0010
0100
0001
0010
0001
0010
0100
1000
0001
0100
0001
0010
0001
,
0010
0100
1000
0001
0100
0001
1000
0010
1000
0001
0010
0100
1000
0001
1000
0010
,
1000
0001
0010
0100
1000
0001
0100
0010
1000
0000
0000
0000
2000
0000
0000
0000
,
3100
0010
0000
0002
0000
0000
0000
0000
,
0013
0100
1000
0010
0100
0000
0200
0000
,
0301
1000
0000
0020
0000
0000
0000
0000
,
0130
0001
1000
0010
0100
0000
0001
0010
,
0100
1000
0001
0000
0100
0000
0010
0000
1000
0001
0010
0000
0100
0000
1000
0000
,
0010
0000
0100
0000
0001
0000
0000
0000
1000
0000
0000
0000
0100
0000
0000
0000
200M
0000
0000
0000
0000
0000
0000
0000
3020
0030
0000
0000
0020
0030
0000
0000
,
0200
0300
0000
0000
0002
0003
0000
0000
0200
0300
0000
0000
0200
0300
0000
0000
0020
0030
0000
0000
2000
3000
0000
0000
0200
0300
0000
0000
0020
0000
0000
0000
,
0000
0000
0031
0000
1000
0000
0001
0000
1000
0010
1000
0001
0100
0010
0100
0001
,
1000
0100
1000
0001
0010
0001
0100
0010
1000
0001
1000
0001
0100
0010
0100
0001
,
1000
0100
1000
0001
0010
0001
0100
0010
1000
0001
1000
0001
0100
0010
0100
0001
,
1000
0100
1000
0001
0010
0001
0100
0010
1000
0001
1000
0001
0100
0010
0100
0001
,
1000
0100
1000
0001
0010
0001
0100
0010
1000
0001
1000
0001
0010
0100
0010
0001
,
1000
0010
1000
0001
0100
0001
0010
0100
1000
0001
1000
0001
0010
0100
0010
0001
,
1000
0010
1000
0001
0100
0001
0010
0100
1000
0001
1000
0001
0010
0100
0010
0001
,
1000
0010
1000
0001
0100
0001
0010
0100
1000
0001
1000
0001
0010
0100
0010
0001
,
1000
0010
1000
0001
0100
0001
0010
0001
0100
0010
0100
0010
1000
0001
0010
0100
,
1000
0010
0100
0010
1000
0100
1000
0001
0100
0010
0100
0010
1000
0001
0010
0100
,
1000
0010
0100
0010
1000
0100
1000
0001
0100
0010
0100
0010
1000
0001
0010
0100
,
1000
0010
0100
0010
1000
0100
1000
0001
0100
0010
0100
0010
1000
0001
0010
0100
,
1000
0010
0100
0010
1000
0100
1000
0001
0010
0100
0010
0100
1000
0001
0100
0010
,
1000
0100
0010
0100
1000
0010
1000
0001
0010
0100
0010
0100
1000
0001
0100
0010
,
1000
0100
0010
0100
1000
0010
1000
0001
0010
0100
0010
0100
1000
0001
0100
0010
,
1000
0100
0010
0100
1000
0010
1000
0001
0010
0100
0010
0100
1000
0001
0100
0010
,
1000
0100
0010
0100
1000
0010
0100
0010
1000
0001
1000
0001
0100
0010
0100
0001
,
1000
0100
1000
0001
0010
0001
0100
0010
1000
0001
1000
0001
0100
0010
0100
0001
,
1000
0100
1000
0001
0010
0001
0100
0010
1000
0001
1000
0001
0100
0010
0100
0001
,
1000
0100
1000
0001
0010
0001
0100
0010
1000
0001
1000
0001
0100
0010
0100
0001
,
1000
0100
1000
0001
0010
0001
0100
0010
1000
0001
1000
0001
0010
0100
0010
0001
,
1000
0010
1000
0001
0100
0001
0010
0100
1000
0001
1000
0001
0010
0100
0010
0001
,
1000
0010
1000
0001
0100
0001
0010
0100
1000
0001
1000
0001
0010
0100
0010
0001
,
1000
0010
1000
0001
0100
0001
0010
0100
1000
0001
1000
0001
0010
0100
0010
0001
,
1000
0010
1000
0001
0100
0001
0010
0001
0100
0010
0100
0010
1000
0001
0010
0100
,
1000
0010
0100
0010
1000
0100
1000
0001
0100
0010
0100
0010
1000
0001
0010
0100
,
1000
0010
0100
0010
1000
0100
1000
0001
0100
0010
0100
0010
1000
0001
0010
0100
,
1000
0010
0100
0010
1000
0100
1000
0001
0100
0010
0100
0010
1000
0001
0010
0100
,
1000
0010
0100
0010
1000
0100
1000
0001
0010
0100
0010
0100
1000
0001
0100
0010
,
1000
0100
0010
0100
1000
0010
1000
0001
0010
0100
0010
0100
1000
0001
0100
0010
,
1000
0100
0010
0100
1000
0010
1000
0001
0010
0100
0010
0100
1000
0001
0100
0010
,
1000
0100
0010
0100
1000
0010
1000
0001
0010
0100
0010
0100
1000
0001
0100
0010
,
1000
0100
0010
0100
1000
0010
0100
0010
0100
0000
0100
0000
0010
0000
0010
0000
,
1000
1000
0001
0001
0010
0100
0000
1100
,
0000
4002
0000
0000
0000
0000
0000
0000
,
3003
0000
0000
0000
;

//---------------dance-single - 13 (TYLR)----------------
#NOTES:
     dance-single:
     13 (TYLR):
     Medium:
     13:
     1.000,1.000,0.110,0.207,1.000,1290.000,18.000,34.000,34.000,0.000:
0000
0000
0000
0000
,
0000
0000
0000
0000
,
0000
0000
0000
0000
,
0000
0000
0000
0000
,
0000
0000
0000
0000
,
0000
0000
0000
0000
,
0000
0000
0000
0000
,
0000
0000
0000
0000
,
1001
0000
0001
0000
0010
0000
0001
0000
1000
0010
0100
0000
0001
0000
0100
0000
,
0010
0000
1000
0000
0100
0000
1000
0000
0001
0100
0010
0000
1000
0000
0010
0000
,
0100
0000
0001
0000
1000
0000
0001
0000
0100
0010
1000
0000
0100
0000
1000
0000
,
0010
0000
0100
0000
0001
0000
0100
0000
0010
1000
0001
0000
0010
0000
0001
0000
,
1000
0000
0010
0000
0100
0000
0010
0000
1000
0001
0010
0000
0100
0000
0010
0000
,
0001
0000
1000
0000
0010
0000
1000
0000
0001
0100
0010
0000
1000
0000
0010
0000
,
0100
0001
0100
0010
1000
0010
0100
0001
1000
0001
0010
0001
1000
0100
0010
0001
,
1000
0010
0100
0001
1000
0001
0100
0010
1000
0001
0010
0001
1000
0100
1000
0001
,
0010
0000
0001
0000
0100
0000
0010
0000
1000
0001
0100
0000
0001
0000
1000
0000
,
0010
0000
1000
0000
0100
0000
0010
0000
0001
0010
0100
0000
1000
0000
0001
0000
,
0100
0000
0001
0000
1000
0000
0010
0000
0100
0001
1000
0000
0100
0000
1000
0000
,
0001
0000
0010
0000
0100
0000
0010
0000
0001
1000
0010
0000
0100
0000
0010
0000
,
1000
0000
0001
0000
0100
0000
0001
0000
0010
0100
1000
0000
0001
0000
1000
0000
,
0100
0000
0010
0000
0001
0000
1000
0000
0001
0100
0010
0000
1000
0000
0010
0000
,
0100
0000
0001
0000
1000
0000
0001
0000
0010
0100
1000
0000
0001
0000
1000
0000
,
0100
0000
0010
0000
0001
0000
1000
0000
0010
0100
0001
0000
1000
0001
1000
0001
,
1M00
0000
0001
0000
0010
0000
0001
0000
1000
0010
0100
0000
0001
0000
0100
0000
,
0010
0000
1000
0000
0100
0000
1000
0000
0001
0100
0010
0000
1000
0000
0010
0000
,
0100
0000
0001
0000
1000
0000
0001
0000
0100
0010
1000
0000
0100
0000
1000
0000
,
0010
0000
0100
0000
0001
0000
0100
0000
0010
1000
0001
0000
0010
0000
0001
0000
,
1000
0000
0010
0000
0100
0000
0010
0000
1000
0001
0010
0000
0100
0000
0010
0000
,
0001
0000
1000
0000
0010
0000
1000
0000
0001
0100
0010
0000
1000
0000
0010
0000
,
0100
0001
0100
0010
1000
0010
0100
0001
1000
0001
0010
0001
1000
0100
0010
0001
,
1000
0010
0100
0001
1000
0001
0100
0010
1000
0001
0010
0001
1000
0100
1000
0001
,
M010
0100
0000
0010
0001
0000
1000
0010
0000
0010
0100
0000
0010
1000
0010
0000
,
0100
0001
0000
1000
0100
0000
0010
0001
0000
0001
1000
0000
0010
1000
0010
0000
,
010M
0010
0000
1000
0001
0000
0010
0100
0000
0100
1000
0000
0001
0010
0001
0000
,
1000
0010
0000
0100
0001
0000
1000
0100
0000
0100
0010
0000
0100
1000
0100
0000
,
M010
0001
0000
1000
0001
0000
0100
0010
0000
0010
1000
0000
0001
1000
0001
0000
,
0100
0010
0000
1000
0001
0000
0100
0010
0000
0010
1000
0000
0001
1000
0001
0000
,
M100
0010
0000
1000
0001
0000
0010
0100
0000
0100
1000
0000
0100
0010
0100
0000
,
1000
0001
0000
0100
0010
0000
1000
0001
0000
0001
0010
0000
0100
1000
0100
0000
,
M010
0001
0000
1000
0010
0000
0100
0001
0000
0001
1000
0000
0001
0100
0001
0000
,
1000
0100
0000
0010
0001
0000
1000
0010
0000
0010
0100
0000
0001
0100
0001
0000
,
M100
0010
0000
1000
0001
0000
0010
0100
0000
0100
1000
0000
0001
0010
0001
0000
,
1000
0010
0000
0100
0001
0000
1000
0100
0000
0100
0010
0000
0001
0010
0001
0000
,
M100
0001
0000
0100
0010
0000
1000
0001
0000
0001
0010
0000
0100
1000
0100
0000
,
0010
0001
0000
1000
0010
0000
0100
0001
0000
0001
1000
0000
0100
0010
0100
0000
,
1000
0001
0000
0100
0010
0000
1000
0001
0000
0001
0010
0000
0100
1000
0100
0000
,
0010
0001
0010
0100
1000
0001
1000
0100
0010
0001
1000
0010
0100
0010
1000
0001
,
M010
0100
0000
0010
0001
0000
1000
0010
0000
0010
0100
0000
0001
0100
0010
0000
,
1000
0100
0000
0010
0001
0000
1000
0010
0000
0010
0100
0000
0001
0100
0010
0000
,
1000
0001
0000
0010
0100
0000
1000
0001
0000
0001
0100
0000
0010
1000
0010
0000
,
0100
0001
0000
1000
0100
0000
0010
0001
0000
0001
1000
0000
0010
1000
0010
0000
,
0100
0001
0000
1000
0100
0000
0010
0001
0000
0001
1000
0000
0010
1000
0100
0000
,
0010
0001
0000
0100
0010
0000
1000
0001
0000
0001
0010
0000
0100
1000
0001
0000
,
0100
0010
0000
1000
0001
0000
1000
0100
0000
0100
0010
0000
0001
0010
0001
0000
,
0100
0010
0000
1000
0001
0000
1000
0010
0000
0010
0100
0000
0001
0100
0001
0000
,
0010
0100
0000
1000
0001
0000
0100
0010
0000
0010
1000
0000
0001
0010
0100
0000
,
1000
0010
0000
0100
0001
0000
1000
0100
0000
0100
0010
0000
0001
0010
0100
0000
,
1000
0001
0000
0100
0010
0000
1000
0001
0000
0001
0010
0000
0100
1000
0100
0000
,
0010
0001
0000
1000
0001
0000
0010
0100
0000
0100
1000
0000
0001
0100
0001
0000
,
1000
0100
0000
0010
0001
0000
1000
0010
0000
0010
0100
0000
0001
0100
0010
0000
,
1000
0100
0010
0100
1000
0001
0010
0001
1000
0010
0100
0001
1000
0001
0100
0010
,
100M
0000
0002
0003
0020
0030
0002
0003
2000
3000
0020
0030
0200
0300
0002
0003
,
0020
0030
0200
0300
2000
3000
0002
0000
0000
0000
1003
0000
1000
0000
0020
0000
,
M030
0010
1000
0010
0100
0001
1000
0200
,
0300
0100
0010
0100
1000
0001
0010
0001
,
0100
0100
0010
0010
1000
1000
0001
0001
,
0010
0110
0000
1100
0000
1001
0000
1000
,
001M
0100
0100
0001
0100
0010
1000
0200
,
0300
0100
0010
0010
0001
1000
0001
0200
,
0300
0100
0010
1000
0001
0001
0000
0002
,
1003
0100
0010
0001
0100
0010
1000
0002
,
0003
0001
0001
0010
0001
0100
0010
2000
,
3000
1000
0001
0001
0010
0100
1000
0002
,
0003
0001
1000
1000
0010
1000
0000
0002
,
0013
0000
0110
0000
0000
0000
1100
0000
0000
0000
1001
0000
0000
0000
1000
0001
,
M100
0010
1000
2000
3000
1000
0010
0200
,
0300
0100
0010
0010
1000
0001
0010
0200
,
0300
0000
0100
0000
0100
0000
1000
0000
0200
0300
0020
0000
0031
0000
2000
0000
,
3010
0100
0010
0100
0010
1000
0001
1000
,
0010
0000
0110
0000
0101
0001
0000
1002
,
0000
1003
0100
1000
0010
0100
0000
0202
,
0000
0000
0000
0000
0000
0000
0000
0300
,
1M03
0000
0000
0001
0100
0000
0010
0000
1000
0001
0010
0100
1000
0001
0100
0001
,
0100
0010
1000
0001
0010
0100
1000
0100
1000
0001
0100
0010
1000
0001
0010
0001
,
0010
0100
1000
0001
0100
0010
1000
0001
0010
0001
1000
0010
0100
0001
1000
0001
,
1000
0001
0100
0010
1000
0010
0100
0001
1000
0001
0100
0010
1000
0001
0010
0001
,
0010
0001
1000
0010
0100
0010
1000
0001
0010
0100
1000
0001
0100
0001
1000
0001
,
1000
0100
0010
0001
1000
0010
0100
0010
0100
0010
1000
0001
0010
0100
1000
0001
,
1000
0001
0010
0100
1000
0001
0100
0001
0100
0010
1000
0001
0010
0100
1000
0100
,
1000
0100
0010
0001
1000
0010
0100
0001
0100
0010
1000
0001
1000
0010
0100
0001
,
0100
0001
1000
0100
0010
0001
1000
0000
1001
0000
0000
0000
2001
0000
0000
0000
,
0000
3001
0100
0020
0000
0000
1030
0000
,
0001
0010
0100
1000
1001
0000
1002
0000
,
0000
1003
0100
0020
0000
0000
0031
0000
,
1000
0001
0010
0100
1000
0100
0010
0001
,
0100
0010
1000
0000
0001
0000
0010
0000
0100
1000
0010
0000
0100
0000
0001
0000
,
0010
0100
1000
0000
0001
0000
1000
0000
010M
0000
010M
0000
001M
0000
001M
0000
,
010M
100M
010M
100M
001M
010M
001M
200M
,
000M
0000
000M
0000
310M
0000
001M
0000
010M
1000
0000
0001
0100
0000
0010
1000
,
0000
1000
0100
0000
0010
0001
1000
0000
0001
0010
0000
0100
1000
0000
0001
0100
,
0000
0100
0010
0000
1000
0010
0100
0000
0001
1000
0000
0100
0010
0000
0001
1000
,
0000
1000
0010
0000
0100
0001
1000
0000
0001
0100
0000
0010
1000
0000
0001
0010
,
0000
0010
0100
0000
1000
0001
0100
0000
0010
1000
0000
0010
0100
0000
0001
1000
,
0000
1000
0100
0000
0010
0001
0010
0000
0100
1000
0000
0001
0100
0000
0001
1000
,
0000
1000
0100
0000
0010
0001
0010
0000
0100
1000
0000
0001
0100
0000
0010
1000
,
0000
1000
0001
0000
0010
0100
0010
0000
0001
1000
0000
0010
0100
0000
0001
1000
,
0000
1000
0100
0000
0010
0001
0010
0000
0001
0100
0000
0010
1000
0000
0001
0010
,
0000
0010
0100
0000
1000
0100
0010
0000
0001
0100
0000
0010
1000
0000
0001
0010
,
0000
0010
0100
0000
1000
0001
0100
0000
0001
0010
0000
0100
1000
0000
0001
0100
,
0000
0100
0010
0000
1000
0010
0100
0000
0001
0010
0000
0100
1000
0000
0001
0100
,
0000
0100
0010
0000
1000
0010
0100
0000
0001
1000
0000
0001
0100
0000
0010
1000
,
0000
1000
0100
0000
0010
0001
0010
0000
0100
1000
0000
0001
0100
0000
0010
1000
,
0000
1000
0001
0000
0010
0001
0010
0000
0001
0010
0100
1000
0001
1000
0100
0010
,
0001
1000
0001
0010
0100
1000
0001
1000
0010
0100
0001
1000
0001
0100
0010
1000
,
0001
0010
0001
1000
0010
0100
0001
1000
010M
0010
0000
0001
0100
0000
0010
1000
,
0000
1000
0100
0000
0010
0001
1000
0000
0001
0010
0000
0100
1000
0000
0001
0100
,
0000
0100
0010
0000
1000
0010
0100
0000
0001
1000
0000
0100
0010
0000
0001
1000
,
0000
1000
0010
0000
0100
0001
1000
0000
0001
0100
0000
0010
1000
0000
0001
0010
,
0000
0010
0100
0000
1000
0001
0100
0000
0010
1000
0000
0010
0100
0000
0001
1000
,
0000
1000
0100
0000
0010
0001
0010
0000
0100
1000
0000
0001
0100
0000
0001
1000
,
0000
1000
0100
0000
0010
0001
0010
0000
0100
1000
0000
0001
0100
0000
0010
1000
,
0000
1000
0001
0000
0010
0100
0010
0000
0001
1000
0000
0010
0100
0000
0001
1000
,
0000
1000
0100
0000
0010
0001
0010
0000
M001
0100
0000
0010
1000
0000
0001
0010
,
0000
0010
0100
0000
1000
0100
0010
0000
0001
0100
0000
0010
1000
0000
0001
0010
,
0000
0010
0100
0000
1000
0001
0100
0000
0001
0010
0000
0100
1000
0000
0001
0100
,
0000
0100
0010
0000
1000
0010
0100
0000
0001
0010
0000
0100
1000
0000
0001
0100
,
0000
0100
0010
0000
1000
0010
0100
0000
0001
1000
0000
0001
0100
0000
0010
1000
,
0000
1000
0100
0000
0010
0001
0010
0000
0100
1000
0000
0001
0100
0000
0010
1000
,
0000
1000
0001
0000
0010
0001
0010
0000
0001
0010
0100
1000
0001
1000
0100
0010
,
0001
1000
0001
0010
0100
1000
0001
1000
0010
0100
0001
1000
0001
0100
0010
1000
,
0001
0010
0001
1000
0010
0100
0001
1000
01M0
0000
0100
0000
0010
0000
0010
0000
,
0001
0001
1000
1000
0010
0110
0000
0101
,
0000
4004
0000
0000
0000
0000
0000
0000
,
3003
0000
0000
0000
;

//---------------dance-single - 15 (Zaia)----------------
#NOTES:
     dance-single:
     15 (Zaia):
     Hard:
     15:
     1.000,1.000,0.238,0.207,1.000,1397.000,39.000,34.000,7.000,0.000:
0001
0000
0100
0000
0010
0000
1000
0000
0001
1000
0001
0000
1000
0000
0100
0000
,
0010
0000
0001
0000
1000
0000
0001
0000
0100
0001
0100
0000
0010
0000
1000
0000
,
0100
0000
0010
0000
0001
0000
1000
0000
0001
0100
0001
0000
0100
0000
0010
0000
,
1000
0000
0001
0000
0010
0000
0100
0000
1000
0001
1000
0000
0010
0000
0100
0000
,
0001
0000
1000
0000
0010
0000
1000
0000
0100
1000
0100
0000
0010
0000
0001
0000
,
0100
0000
0001
0000
0010
0000
0100
0000
1000
0100
1000
0000
0001
0000
1000
0000
,
0001
0000
0100
0000
0010
0000
1000
0000
0001
1000
0001
0000
0010
0000
0001
0000
,
0100
0000
0010
0000
1000
0000
0001
0000
0010
0001
0010
0000
0100
0000
1000
0000
,
1MM1
0000
0001
0000
0010
0000
0100
1000
0001
1000
0100
0000
1000
0000
0010
0000
,
0100
0000
0001
0000
1000
0000
0001
1000
0010
1000
0001
0000
0010
0000
0001
0000
,
0100
0000
0001
0000
1000
0000
0001
0010
0100
0010
0001
0000
1000
0000
0010
0000
,
0100
0000
0001
0000
0100
0000
0010
1000
0001
1000
0100
0000
0010
0000
0100
0000
,
1000
0000
0001
0000
1000
0000
0001
1000
0100
1000
0001
0000
0100
0000
0010
0000
,
1000
0000
0010
0000
0100
0000
0001
1000
0010
1000
0001
0000
0010
0000
0001
0000
,
1000
0100
1000
0001
1000
0001
0010
0100
0010
0001
1000
0010
0100
0001
0010
0001
,
1000
0010
0100
0001
1000
0100
1000
0001
0010
0100
1000
0010
0100
0001
1000
0001
,
0010
0000
0100
0000
1000
0000
0001
0100
0010
0100
0001
0000
1000
0000
0100
0000
,
0010
0000
0001
0000
1000
0000
0010
0100
0010
1000
0001
0000
1000
0000
0100
0000
,
1000
0000
0001
0000
0100
0000
0010
1000
0001
0100
0001
0000
1000
0000
0001
0000
,
0100
0000
0010
0000
1000
0000
0001
0100
0010
0100
0001
0000
1000
0000
0001
0000
,
0010
0000
0100
0000
0010
0000
0001
1000
0010
0100
0010
0000
1000
0000
0001
0000
,
1000
0000
0100
0000
1000
0000
0001
1000
0100
1000
0001
0000
0100
0000
0010
0000
,
1000
0000
0001
0000
1000
0000
0010
0100
0001
1000
0100
0000
1000
0000
0100
0000
,
0010
0000
0100
0000
1000
0000
0010
0100
0001
0100
0010
0000
1000
0001
1000
0001
,
0100
0000
0010
1000
0010
0000
0100
0001
1000
0001
0100
0000
0010
0000
1000
0001
,
0100
0000
0001
1000
0001
0000
1000
0100
0010
0100
1000
0000
0001
0000
0100
0010
,
1000
0000
0001
0010
0001
0000
1000
0010
0100
0010
1000
0000
0001
0000
0100
0001
,
1000
0000
0010
1000
0010
0000
0100
0001
0010
0001
1000
0000
0100
0000
0010
0100
,
1000
0000
0001
0010
0001
0000
1000
0100
0010
0100
1000
0000
0001
0000
1000
0010
,
0100
0000
0001
1000
0001
0000
0100
0010
1000
0001
1000
0000
0100
0000
0010
0100
,
1000
0001
0010
0100
0010
0001
1000
0010
0100
0001
1000
0010
1000
0001
0100
0010
,
4000
0004
0000
0000
0000
0000
0000
0000
0000
0000
0000
0000
0000
0000
0000
0000
0000
0000
0000
0000
0000
0000
0000
3000
,
0013
0100
1000
0001
0100
0010
0100
0001
1000
0100
1000
0001
0010
0001
0100
0010
,
1000
0001
1000
0001
0100
0010
0100
0010
0100
0001
0100
0001
0010
0001
0010
0100
,
1000
0001
1000
0001
0100
0010
0100
0001
1000
0100
1000
0001
0010
0001
0100
0010
,
1000
0001
1000
0001
0010
0100
0010
0100
1000
0100
1000
0010
1000
0010
0100
0010
,
1000
0001
1000
0001
0010
0100
0010
0001
1000
0010
1000
0001
0100
0001
0010
0100
,
1000
0001
1000
0001
0010
0100
0010
0100
1000
0010
1000
0010
0100
0001
0100
0010
,
1000
0001
1000
0001
0010
0100
0010
0001
1000
0010
1000
0001
0100
0001
0010
0100
,
1000
0001
1000
0001
0100
0010
0100
0010
1000
0100
1000
0100
1000
0001
0100
0010
,
1000
0001
1000
0001
0100
0010
0100
0001
1000
0100
1000
0001
0010
0001
0010
0100
,
1000
0001
1000
0001
0100
0010
0100
0010
0100
0001
0100
0001
0010
0100
1000
0100
,
1000
0001
1000
0001
0100
0010
0100
0001
1000
0100
1000
0001
0010
0001
0100
0010
,
1000
0001
1000
0001
0010
0100
0010
0100
1000
0010
1000
0010
1000
0001
0010
0100
,
1000
0001
1000
0001
0010
0100
0010
0001
1000
0010
1000
0001
0100
0001
0010
0100
,
1000
0001
1000
0001
0100
0010
0100
0010
1000
0010
1000
0010
0100
0001
0100
0010
,
1000
0001
1000
0001
0010
0100
0010
0001
1000
0010
1000
0001
0100
0001
0010
0100
,
1000
0001
1000
0001
0100
0010
0100
0001
1000
0100
1000
0001
0010
0001
0100
0010
,
1000
0001
0100
0000
0101
0000
0000
0011
,
0000
0010
0100
0000
1100
0000
0000
1001
,
0000
0001
0100
0000
0101
0001
0000
0110
,
0000
0000
0010
0000
1000
0000
0000
0000
1001
0000
1000
0000
0100
1000
0001
0000
,
1000
0010
0100
0000
0101
0000
0000
1001
,
0000
1000
0100
0000
0011
0000
0000
1010
,
0000
0100
0001
0000
1001
0001
0000
1100
,
0000
0000
0100
0000
0010
0000
0000
0000
0011
0000
0010
0000
0001
1000
0100
0000
,
0010
0001
0100
0000
0101
0000
0000
0110
,
0000
0010
1000
0000
1001
0000
0000
1100
,
0000
0001
0100
0000
0110
0010
0000
1010
,
0000
0000
1000
0000
0001
0000
0000
0000
0011
0000
0010
0000
0001
1000
0010
0000
,
0100
0001
1000
0000
1100
0000
0000
0011
,
0000
0010
0100
0000
1001
0000
0000
1000
,
0002
0203
0320
2030
3200
2300
3020
0230
,
0302
0023
0230
2300
0000
3100
1100
1000
,
0100
0100
0010
0000
0011
0000
0000
0001
,
0000
0100
0010
0000
1010
0000
0000
1000
,
0001
0001
0010
0010
0100
0100
1000
1000
,
0010
0100
0000
0001
0000
0010
0000
0100
,
1100
1000
0010
1000
0010
0100
0001
0010
,
0000
0001
0100
0100
0010
1000
0100
0010
,
0000
0001
0010
0001
0100
0010
0000
1000
,
0000
0000
0001
0000
0100
M00M
0100
0000
1000
0000
0001
0000
0000
0000
0100
0000
,
0000
0001
0010
0001
0010
0100
1000
0010
,
0000
1000
0001
0001
0010
0100
1000
0001
,
0000
1000
0001
1000
0001
0001
0000
0010
,
0100
0000
1100
0000
0000
0000
1001
0000
0000
0000
0110
0000
0000
0000
1000
0001
,
1001
1000
0010
0010
0000
0100
0001
0010
,
0000
0100
1000
0100
0010
0001
1000
0001
,
0000
1000
0001
1000
0010
0100
0000
0001
,
0000
0000
0000
0000
0000
0001
0010
0100
,
1000
0000
0000
0000
1020
0000
0000
0030
0101
0000
0002
0000
0000
0000
0023
0000
,
0000
0031
0100
0010
1000
0002
0000
2000
,
0000
0000
0000
0000
0000
0000
0000
0003
,
3MM1
0000
0000
0001
0010
0000
0100
0000
1000
0010
1000
0001
0100
0001
1000
0100
,
0010
0001
0010
0100
1000
0001
0100
0010
1000
0001
1000
0100
0010
0001
1000
0001
,
1000
0010
1000
0001
0100
0001
1000
0100
0010
0100
1000
0001
0100
0010
1000
0001
,
0010
0100
1000
0001
0100
0010
1000
0001
0010
0100
1000
0001
0100
0010
1000
0001
,
0010
0100
1000
0001
0100
0001
0100
0010
1000
0001
0010
0100
1000
0001
1000
0010
,
1000
0001
0010
0100
1000
0001
1000
0010
1000
0001
0010
0100
1000
0001
1000
0010
,
1000
0001
0010
0100
1000
0001
0100
0010
1000
0001
0010
0100
1000
0001
0100
0010
,
1000
0001
0010
0100
1000
0001
1000
0010
0100
0001
0010
0100
1000
0001
1000
0010
,
0100
0001
0010
0100
1000
0001
0100
0010
1000
0000
0000
0000
2000
0000
0000
0000
,
3100
0010
0000
0002
0000
0000
0000
0000
,
0013
0100
1000
0010
0100
0000
0200
0000
,
0301
1000
0000
0020
0000
0000
0000
0000
,
0130
0001
1000
0010
0100
0000
0001
0010
,
0100
1000
0001
0000
0100
0000
0010
0000
1000
0001
0010
0000
0100
0000
1000
0000
,
0010
0000
0100
0000
0001
0000
0000
0000
1000
0000
0000
0000
0100
0000
0000
0000
200M
0000
0000
0000
0000
0000
0000
0000
3020
0030
0000
0000
0020
0030
0000
0000
,
0200
0300
0000
0000
0002
0003
0000
0000
0200
0300
0000
0000
0200
0300
0000
0000
0020
0030
0000
0000
2000
3000
0000
0000
0200
0300
0000
0000
0020
0000
0000
0000
,
0000
0000
0031
0000
1000
0000
0001
0000
1000
0010
1000
0001
0100
0010
0100
0001
,
1000
0100
1000
0001
0010
0001
0100
0010
1000
0001
1000
0001
0100
0010
0100
0001
,
1000
0100
1000
0001
0010
0001
0100
0010
1000
0001
1000
0001
0100
0010
0100
0001
,
1000
0100
1000
0001
0010
0001
0100
0010
1000
0001
1000
0001
0100
0010
0100
0001
,
1000
0100
1000
0001
0010
0001
0100
0010
1000
0001
1000
0001
0010
0100
0010
0001
,
1000
0010
1000
0001
0100
0001
0010
0100
1000
0001
1000
0001
0010
0100
0010
0001
,
1000
0010
1000
0001
0100
0001
0010
0100
1000
0001
1000
0001
0010
0100
0010
0001
,
1000
0010
1000
0001
0100
0001
0010
0100
1000
0001
1000
0001
0010
0100
0010
0001
,
1000
0010
1000
0001
0100
0001
0010
0001
0100
0010
0100
0010
1000
0001
0010
0100
,
1000
0010
0100
0010
1000
0100
1000
0001
0100
0010
0100
0010
1000
0001
0010
0100
,
1000
0010
0100
0010
1000
0100
1000
0001
0100
0010
0100
0010
1000
0001
0010
0100
,
1000
0010
0100
0010
1000
0100
1000
0001
0100
0010
0100
0010
1000
0001
0010
0100
,
1000
0010
0100
0010
1000
0100
1000
0001
0010
0100
0010
0100
1000
0001
0100
0010
,
1000
0100
0010
0100
1000
0010
1000
0001
0010
0100
0010
0100
1000
0001
0100
0010
,
1000
0100
0010
0100
1000
0010
1000
0001
0010
0100
0010
0100
1000
0001
0100
0010
,
1000
0100
0010
0100
1000
0010
0100
0001
4000
0004
0000
0000
0000
0000
0000
0000
,
0000
0000
0000
0000
0000
0000
0000
3000
0013
0100
1000
0001
0100
0010
0100
0001
,
1000
0100
1000
0001
0010
0001
0100
0010
1000
0001
1000
0001
0100
0010
0100
0001
,
1000
0100
1000
0001
0010
0001
0100
0010
1000
0001
1000
0001
0100
0010
0100
0001
,
1000
0100
1000
0001
0010
0001
0100
0010
1000
0001
1000
0001
0100
0010
0100
0001
,
1000
0100
1000
0001
0010
0001
0100
0010
1000
0001
1000
0001
0010
0100
0010
0001
,
1000
0010
1000
0001
0100
0001
0010
0100
1000
0001
1000
0001
0010
0100
0010
0001
,
1000
0010
1000
0001
0100
0001
0010
0100
1000
0001
1000
0001
0010
0100
0010
0001
,
1000
0010
1000
0001
0100
0001
0010
0100
1000
0001
1000
0001
0010
0100
0010
0001
,
1000
0010
1000
0001
0100
0001
0010
0001
0100
0000
0010
0000
0100
0000
0010
0000
,
1000
0001
0010
0100
1000
0010
0100
0010
,
1000
0100
1000
0001
0010
0100
0010
0001
,
0100
0010
1000
0001
0100
0010
0100
0010
,
1000
0100
0010
0100
1000
0001
1000
0001
,
0010
0100
1000
0010
1000
0001
1000
0001
,
0100
0010
0100
0001
2000
0000
0000
0000
,
0000
0000
0000
0000
,
0000
0000
0000
0000
3001
0001
0100
0100
,
0010
0010
1000
1000
0100
0010
0000
0011
,
0000
1002
0000
0000
0000
0003
0000
0000
;
