#TITLE:moon_child;
#SUBTITLE:;
#ARTIST:Shonen Radio;
#TITLETRANSLIT:;
#SUBTITLETRANSLIT:;
#ARTISTTRANSLIT:;
#CREDIT:;
#BANNER:moon child-bn.png;
#BACKGROUND:moon child-bg.png;
#LYRICSPATH:;
#CDTITLE:;
#MUSIC:Moon_Child.mp3;
#OFFSET:-0.110;
#SAMPLESTART:1.000;
#SAMPLELENGTH:12.000;
#SELECTABLE:YES;
#BPMS:0.000=148.000,22.000=156.000,38.000=160.000,291.000=156.000;
#STOPS:;
#BGCHANGES:;
// cache tags:
#FIRSTBEAT:4.500;
#LASTBEAT:311.000;
#SONGFILENAME:Songs/Community Keyboard Megapack - Volume 2/(Reach) moon_child/Moon Child (1).sm;
#HASMUSIC:1;
#HASBANNER:1;
#MUSICLENGTH:128.711;
// end cache tags

//---------------dance-single - ----------------
#NOTES:
     dance-single:
     :
     Challenge:
     12:
     1.000,1.000,1.000,0.070,0.843,742.000,181.000,9.000,0.000,0.000:
0000
0000
0000
0000
,
0000
0002
0003
0000
1001
0100
0010
0001
,
0010
0100
0000
0000
1001
0100
0010
0100
,
0001
0010
0000
0000
1100
0001
0010
0100
,
0010
0000
0001
0000
0000
0000
0000
0000
1100
0000
0010
0000
0001
0000
0010
0100
,
0010
0001
0010
0100
1001
0100
1000
0010
,
0000
0010
0000
0010
,
0000
0010
0000
0000
1002
0000
0000
0010
,
0000
0000
0013
0001
1200
0000
0000
0000
,
0301
0000
0010
0000
1001
0100
0011
0100
,
1010
0100
0011
0100
1001
0100
1001
0010
,
1100
0010
0101
0010
1100
0010
0011
0010
,
1100
0001
0110
1000
0011
1000
1000
1000
,
0100
0010
0001
0010
0100
0000
1000
0000
1001
0000
0000
0000
0011
0000
0000
0000
,
1100
0110
1001
0110
,
1100
0000
1001
0000
0110
0110
1001
1001
,
0011
0011
1100
1100
1001
0010
1001
0100
,
0011
0100
1000
0100
0011
0100
1000
0010
1100
0001
1100
0010
1100
0001
1100
0010
,
1100
0010
0101
0010
1100
0010
0101
0010
1100
0000
0001
0000
0100
0000
0010
0000
,
1000
0000
0010
0000
0100
0000
0010
0000
1001
0010
1001
0100
1001
0010
1001
0010
,
1100
0010
0101
0010
1100
0010
0101
0010
1100
0000
0010
0000
0001
0000
0010
0000
,
1000
0000
0010
0000
0100
0000
0010
0000
0011
0100
0011
1000
0011
0100
0011
0100
,
1010
0100
0011
0100
1010
0100
0011
1000
0011
0000
1000
0000
0010
0000
0100
0000
,
0001
0000
0010
0000
0100
0000
1000
0000
0110
0001
0110
1000
0110
0001
1100
0010
,
1100
0001
1100
0001
1100
0010
0101
0010
1001
0000
1000
0000
0010
0000
0100
0000
,
0001
0010
0002
0000
0000
0000
0000
0000
0000
0000
0000
0000
1000
0000
0000
0000
,
1003
0000
1100
0110
0011
0110
1100
1010
,
0110
0011
0101
0110
1001
0110
1100
0010
,
0100
0011
1100
0010
0100
0001
0010
1100
,
0110
1001
1001
0100
1000
0010
0100
0001
,
0010
1100
1010
0100
0001
0010
0100
1100
,
0110
1001
1001
0010
0100
0001
0010
1100
,
1010
0101
0110
1000
0010
0100
0001
0110
,
0110
1010
0101
0000
1001
0000
0110
0000
,
0011
0000
0000
0000
0100
1000
0100
0000
0010
0000
0001
0000
0010
0100
0010
0000
,
1000
0000
0110
0000
1001
0000
0100
0010
0100
0000
0100
0001
0100
0000
0100
0010
,
0100
1000
0100
0010
0001
0000
0001
1000
0001
0000
0001
0100
0001
0000
0001
0010
,
0001
0010
0100
1000
0100
0000
0100
1000
0100
0000
0100
0010
0100
0000
0100
0010
,
0001
0000
0000
0010
0000
0000
0100
0000
0000
0010
0000
0000
1001
0000
0000
0000
0000
0000
0000
0000
0000
0000
0000
0000
0000
0000
0000
0000
0000
0000
0001
0000
0010
0000
0100
0000
0010
0000
0000
0000
0000
0000
1001
0000
0000
0000
0000
0000
,
1001
0000
0000
0000
0000
0000
0110
0000
0000
0000
0000
0000
0101
0000
0000
0000
0000
0000
0000
0000
0000
0000
0000
0000
0100
0000
0000
1000
0000
0000
0010
0000
0000
0001
0000
0000
0100
0000
0000
0000
0000
0000
0001
0000
1000
0000
0100
0000
,
0010
0000
0000
0000
0000
0000
0110
0000
0000
0000
0000
0000
0101
0000
0000
0000
0000
0000
0110
0000
0000
0000
0000
0000
1000
0000
0000
0100
0000
0000
0010
0000
0000
0100
0000
0000
0001
0000
0000
0000
0000
0000
1000
0000
0010
0000
0100
0000
,
0001
0000
0010
0000
1000
0010
0100
0001
1000
0010
0100
0001
0010
0100
0010
0100
,
1000
0100
0010
0100
0020
0000
0000
0000
0030
0000
1001
0000
0000
0000
0110
0000
,
0000
0000
0000
0000
1001
0000
0010
0100
0010
0000
1001
0000
0100
0010
0100
0000
,
1001
0000
0110
0000
1001
0010
0100
1000
0100
0010
0100
0010
1001
0000
0000
0000
,
1001
0000
0000
0000
1100
0000
0010
0001
0010
0000
1100
0000
0010
0100
0010
0000
,
1100
0000
0011
0000
0110
1000
0100
0010
0001
0010
0100
0010
1001
0000
0000
0000
,
1100
0000
0000
0000
0001
0010
0100
1000
0100
0010
0001
0000
0000
0000
1100
0000
,
0000
0000
1001
0100
0010
0100
0010
0001
0010
0000
1100
0000
0000
0000
1001
0000
,
0000
0000
0000
1000
0001
1000
0010
0001
0010
0100
1000
0100
,
0010
0100
0010
1100
0010
0001
1010
0100
0010
1001
0100
0010
,
1001
0000
0010
0000
0100
0000
1001
0000
0000
0100
0000
0000
0001
0000
0000
0010
0000
0000
0100
0000
0000
1000
0000
0000
,
0010
0000
0100
0000
1010
0000
0001
0000
1010
0000
0100
0000
0010
0100
0010
0100
,
0011
0000
0100
0000
0002
0000
0000
0000
0103
1000
0100
0010
0100
0000
1001
0000
,
0100
0000
1001
0000
0110
0000
0000
0000
1000
0100
0010
0001
0010
0000
1100
0000
,
0110
0000
1001
0000
0110
0000
0000
0000
0001
0100
1000
0100
0001
0000
1000
0000
,
0100
1000
0010
0100
0001
1000
0010
0100
,
0010
0000
0001
0000
1200
0000
0000
0000
0310
0100
0010
1000
0010
0000
1100
0000
,
0110
0000
0011
0000
0110
0000
0000
0000
0100
1000
0010
0001
0100
0000
1010
0000
,
0110
0000
1001
0000
0110
0000
0000
0000
0010
0001
0100
1000
0010
0000
0100
0000
,
1000
0000
0010
0000
0100
0000
0001
0010
0100
0000
0010
0000
0100
0000
0010
0100
,
1000
0000
1001
0000
1000
0100
0010
0001
1000
0010
0100
0001
1000
0100
0010
0001
,
1000
0010
0100
0001
1000
0100
0010
0001
1000
0100
0010
0100
1001
0010
0100
0001
,
1000
0100
0010
0100
1001
0100
0010
0100
0011
0100
0010
0100
1010
0100
0010
0100
,
0011
0100
0010
0100
1010
0100
0010
0100
1001
0010
0100
0010
1001
0100
0010
0100
,
1010
0000
0000
0100
0000
0000
0010
0000
0000
0001
0000
0000
1010
0000
0000
0100
0000
0000
0001
0000
0000
0010
0000
0000
0100
0000
0000
0010
0000
0000
0001
0000
0000
0010
0000
0000
0100
0000
1000
0000
0100
0000
0010
0000
0000
0001
0000
0000
,
0010
0100
0010
0001
1000
0100
0010
0001
0010
0100
1000
0100
0010
0001
0010
0100
,
1000
0000
0100
0000
0010
0000
0001
0000
0000
0010
0000
0000
0001
0000
0000
1000
0000
0000
0001
0000
0000
0010
0000
0000
0100
0000
0000
1000
0000
0000
0100
0000
0000
1000
0000
0000
0100
0000
0000
0010
0000
0000
0100
0000
0000
0010
0000
0000
,
0001
0000
0000
0010
0000
0000
0001
0000
0000
0010
0000
0000
0200
0000
0000
0000
0000
0000
0000
0000
0000
0000
0000
0000
0000
0000
0000
0000
0000
0000
0301
0000
0010
0000
0100
0000
1000
0000
0000
0100
0000
0000
0001
0000
0000
0010
0000
0000
,
1000
0100
0001
0010
0001
0000
1000
0100
1000
0000
0010
0100
0010
0000
0001
0010
,
0001
0000
0000
0000
0000
0000
0010
0000
1000
0000
0001
0000
0100
0000
0000
0010
0000
0000
1000
0000
0000
0001
0000
0000
1000
0000
0000
0010
0000
0000
0100
0000
0000
1000
0000
0000
0100
0000
0000
0010
0000
0000
0100
0000
0000
0001
0000
0000
,
1000
0001
0100
0010
1000
0001
1000
0010
0100
0001
1000
0001
0100
0010
1000
0100
,
0001
0100
1000
0010
0001
0010
1000
0100
0001
0100
1000
0100
0100
0000
0000
0000
,
0000
0000
1001
0100
0100
0100
0100
0100
,
0100
1001
0110
0010
0010
0010
0010
0010
,
0010
0100
1001
0001
0001
0001
0001
0001
,
1000
0000
0000
1000
0100
0000
0000
0000
0001
0000
0000
0001
0010
0000
0000
0000
,
0100
0000
0000
0100
0020
0000
0000
0000
0000
0000
0000
0000
0030
0000
0000
0000
;

//---------------dance-single - Copied from----------------
#NOTES:
     dance-single:
     Copied from:
     Hard:
     10:
     0.965,1.000,0.987,0.078,0.816,732.000,127.000,10.000,0.000,0.000:
0000
0000
0000
0000
,
0000
0002
0003
0000
1001
0100
0010
0001
,
0010
0100
0000
0000
1001
0100
0010
0100
,
0001
0010
0000
0000
1100
0001
0010
0100
,
0010
0000
0001
0000
0000
0000
0000
0000
1100
0000
0010
0000
0001
0000
0010
0100
,
0010
0001
0010
0100
1001
0100
1000
0010
,
0000
0010
0000
0010
,
0000
0010
0000
0000
1002
0000
0000
0010
,
0000
0000
0013
0001
1200
0000
0000
0000
,
0301
0000
0010
0000
1001
0100
0011
0100
,
1010
0100
0011
0100
1001
0100
1001
0010
,
1100
0010
0101
0010
1100
0010
0011
0010
,
1100
0001
0110
1000
0011
1000
1000
1000
,
0100
0010
0001
0010
0100
0000
1000
0000
1001
0000
0000
0000
0011
0000
0000
0000
,
1100
0110
1001
0110
,
1100
0000
1001
0000
0110
0110
1001
1001
,
0011
0011
1100
1100
1001
0010
1001
0100
,
0001
0010
0100
0010
0001
0000
1000
0000
0001
1000
0001
1000
0001
0100
0001
0100
,
0001
0010
0001
0010
0001
0100
0001
0100
0001
0000
0001
0000
0100
0000
0010
0000
,
1000
0000
0010
0000
0100
0000
0010
0000
1000
0010
1000
0010
1000
0001
1000
0001
,
1000
0010
1000
0010
1000
0100
1000
0100
1000
0000
0010
0000
0001
0000
0010
0000
,
1000
0000
0010
0000
0100
0000
0010
0000
0100
0001
0100
0010
0100
0001
0100
0010
,
0100
0001
0010
0001
0100
0001
0010
0001
0100
0000
1000
0000
0010
0000
0100
0000
,
0001
0000
0010
0000
0100
0000
1000
0000
0010
1000
0010
0100
0010
1000
0010
0100
,
0010
1000
0100
1000
0010
1000
0100
1000
0010
0000
1000
0000
0010
0000
0100
0000
,
0001
0010
0002
0000
0000
0000
0000
0000
0000
0000
0000
0000
1000
0000
0000
0000
,
1003
0000
1100
0110
0011
0110
1100
1010
,
0110
0011
0101
0110
1001
0110
1100
0010
,
0100
0011
1100
0010
0100
0001
0010
1100
,
0110
1001
1001
0100
1000
0010
0100
0001
,
0010
1100
1010
0100
0001
0010
0100
1100
,
0110
1001
1001
0010
0100
0001
0010
1100
,
1010
0101
0110
1000
0010
0100
0001
0110
,
0110
1010
0101
0000
1001
0000
0110
0000
,
0011
0000
0000
0000
0100
1000
0100
0000
0010
0000
0001
0000
0010
0100
0010
0000
,
1000
0000
0110
0000
1001
0000
0100
0010
0100
0000
0100
0001
0100
0000
0100
0010
,
0100
1000
0100
0010
0001
0000
0001
1000
0001
0000
0001
0100
0001
0000
0001
0010
,
0001
0010
0100
1000
0100
0000
0100
1000
0100
0000
0100
0010
0100
0000
0100
0010
,
0001
0000
0000
0010
0000
0000
0100
0000
0000
0010
0000
0000
0001
0000
0000
0000
0000
0000
0000
0000
0000
0000
0000
0000
0000
0000
0000
0000
0000
0000
0001
0000
0010
0000
0100
0000
0010
0000
0000
0000
0000
0000
1001
0000
0000
0000
0000
0000
,
1001
0000
0000
0000
0000
0000
0110
0000
0000
0000
0000
0000
0101
0000
0000
0000
0000
0000
0000
0000
0000
0000
0000
0000
0100
0000
0000
1000
0000
0000
0010
0000
0000
0001
0000
0000
0100
0000
0000
0000
0000
0000
0001
0000
1000
0000
0100
0000
,
0010
0000
0000
0000
0000
0000
0110
0000
0000
0000
0000
0000
0101
0000
0000
0000
0000
0000
0110
0000
0000
0000
0000
0000
1000
0000
0000
0100
0000
0000
0010
0000
0000
0100
0000
0000
0001
0000
0000
0000
0000
0000
1000
0000
0010
0000
0100
0000
,
0001
0000
0010
0000
1000
0010
0100
0001
1000
0010
0100
0001
0010
0100
0010
0100
,
1000
0100
0010
0100
0020
0000
0000
0000
0030
0000
1001
0000
0000
0000
0110
0000
,
0000
0000
0000
0000
1001
0000
0010
0100
0010
0000
1001
0000
0100
0010
0100
0000
,
1001
0000
0110
0000
0001
0010
0100
1000
0100
0010
0100
0010
0001
0000
0000
0000
,
1001
0000
0000
0000
1100
0000
0010
0001
0010
0000
1100
0000
0010
0100
0010
0000
,
1100
0000
0011
0000
0100
1000
0100
0010
0001
0010
0100
0010
0001
0000
0000
0000
,
1100
0000
0000
0000
0001
0010
0100
1000
0100
0010
0001
0000
0000
0000
1100
0000
,
0000
0000
0001
0100
0010
0100
0010
0001
0010
0000
1100
0000
0000
0000
1001
0000
,
0000
0000
0000
1000
0001
1000
0010
0001
0010
0100
1000
0100
,
0010
0100
0010
1100
0010
0001
1010
0100
0010
1001
0100
0010
,
1001
0000
0010
0000
0100
0000
1001
0000
0000
0100
0000
0000
0001
0000
0000
0010
0000
0000
0100
0000
0000
1000
0000
0000
,
0010
0000
0100
0000
1010
0000
0001
0000
1010
0000
0100
0000
0010
0100
0010
0100
,
0011
0000
0100
0000
0002
0000
0000
0000
0013
0100
1000
0100
0010
0000
1001
0000
,
0100
0000
1001
0000
0110
0000
0000
0000
1000
0100
0010
0001
0010
0000
1100
0000
,
0110
0000
1001
0000
0110
0000
0000
0000
0001
0100
1000
0100
0001
0000
1000
0000
,
0100
1000
0010
0100
0001
1000
0010
0100
,
0010
0000
0001
0000
1200
0000
0000
0000
0310
0100
0010
1000
0010
0000
1100
0000
,
0110
0000
0011
0000
0110
0000
0000
0000
0100
1000
0010
0001
0100
0000
1010
0000
,
0110
0000
1001
0000
0110
0000
0000
0000
0010
0001
0100
1000
0010
0000
0100
0000
,
1000
0000
0010
0000
0100
0000
0001
0010
0100
0000
0010
0000
0100
0000
0010
0100
,
1000
0000
1001
0000
1000
0100
0010
0001
1000
0010
0100
0001
1000
0100
0010
0001
,
1000
0010
0100
0001
1000
0100
0010
0001
1000
0010
0100
0001
2000
0000
0000
0000
,
0000
0000
0000
0000
3001
0100
0010
0100
0001
0100
0010
0100
0001
0010
0100
1000
,
0001
0010
0100
1000
0001
0100
0010
1000
0001
0100
0010
1000
0001
1000
0001
0100
,
0001
0000
0000
0010
0000
0000
0001
0000
0000
1000
0000
0000
0001
0000
0000
0000
0000
0000
0001
0000
0000
0010
0000
0000
0100
0000
0000
0010
0000
0000
0001
0000
0000
0010
0000
0000
0100
0000
1000
0000
0100
0000
0010
0000
0000
0001
0000
0000
,
0010
0100
0010
0001
1000
0100
0010
0001
0010
0100
1000
0100
0010
0001
0010
0100
,
1000
0000
0100
0000
0010
0000
0001
0000
0000
0010
0000
0000
0001
0000
0000
1000
0000
0000
0001
0000
0000
0010
0000
0000
0100
0000
0000
1000
0000
0000
0100
0000
0000
1000
0000
0000
0100
0000
0000
0010
0000
0000
0100
0000
0000
0010
0000
0000
,
0001
0000
0000
0010
0000
0000
0001
0000
0000
0010
0000
0000
0200
0000
0000
0000
0000
0000
0000
0000
0000
0000
0000
0000
0000
0000
0000
0000
0000
0000
0301
0000
0010
0000
0100
0000
1000
0000
0000
0100
0000
0000
0001
0000
0000
0010
0000
0000
,
1000
0100
0001
0010
0001
0000
1000
0100
1000
0000
0010
0100
0010
0000
0001
0010
,
0001
0000
0000
0000
0000
0000
0010
0000
1000
0000
0001
0000
0100
0000
0000
0010
0000
0000
1000
0000
0000
0001
0000
0000
1000
0000
0000
0010
0000
0000
0100
0000
0000
1000
0000
0000
0100
0000
0000
0010
0000
0000
0100
0000
0000
0001
0000
0000
,
1000
0001
0100
0010
1000
0001
1000
0010
0100
0001
1000
0001
0100
0010
1000
0100
,
0001
0100
1000
0010
0001
0010
1000
0100
0010
0100
1000
0100
0100
0000
0000
0000
,
0000
0000
1001
0100
0100
0100
0100
0100
,
0100
1001
0110
0010
0010
0010
0010
0010
,
0010
0100
1001
0001
0001
0001
0001
0001
,
1000
0000
0000
1000
0100
0000
0000
0000
0001
0000
0000
0001
0010
0000
0000
0000
,
0100
0000
0000
0100
0020
0000
0000
0000
0000
0000
0000
0000
0030
0000
0000
0000
;

//---------------dance-single - Copied from----------------
#NOTES:
     dance-single:
     Copied from:
     Edit:
     14:
     1.000,1.000,1.000,0.070,0.928,794.000,311.000,9.000,0.000,33.000:
0000
0000
0000
0000
,
0000
0002
0003
0000
1001
0100
0010
0001
,
0010
0100
0000
0000
1001
0100
0010
0100
,
0001
0010
0000
0000
1100
0001
0010
0100
,
0010
0000
0001
0000
0000
0000
0000
0000
1100
0000
0010
0000
0001
0000
0010
0100
,
0010
0001
0010
0100
1001
0100
1000
0010
,
1000
0100
0010
0001
1000
0100
0010
0001
,
1000
0010
0001
0100
1002
0010
0010
0010
,
0010
0010
0013
0001
1200
0010
0010
0010
,
0301
0000
0010
0000
1101
0110
0111
1100
,
1011
0110
1011
0110
1101
0110
1011
0110
,
1101
0110
0111
0110
1110
0110
1011
0110
,
1110
0011
0111
1100
1011
1100
1010
1001
,
0100
0010
0001
0010
0100
0000
1000
0000
1001
0000
1001
0000
0011
0000
0011
0000
,
1100
1100
0110
0110
1001
1001
0110
0110
,
1100
0000
1100
0000
1001
0000
1001
0000
0110
1000
0110
0000
1001
0000
1001
0000
,
0011
0100
0011
0000
1100
0000
1100
0000
1001
0100
1001
0000
1001
0000
0110
0000
,
0011
0100
1000
0100
0011
0100
1000
0010
1100
0001
1100
0010
1100
0001
1100
0010
,
1100
0010
0101
0010
1100
0010
0101
0010
1100
0010
0001
1000
0100
0000
0010
0100
,
1000
0000
0010
1000
0100
0000
0010
0000
1001
0010
1001
0100
1001
0010
1001
0010
,
1100
0010
0101
0010
1100
0010
0101
0010
1100
0001
0010
0100
0001
0000
0010
0100
,
1000
0000
0010
0001
0100
0000
0010
0000
0011
0100
0011
1000
0011
0100
0011
0100
,
1010
0100
0011
0100
1010
0100
0011
1000
0011
0100
1000
0001
0010
0000
0100
1000
,
0001
0000
0010
0001
0100
0000
1000
0000
0110
0001
0110
1000
0110
0001
1100
0010
,
1100
0001
1100
0001
1100
0010
0101
0010
1001
0100
1000
0100
0010
0000
0100
1000
,
0001
0010
0002
0000
0000
0000
0000
0000
0000
0000
0000
0000
1000
0000
0000
0000
,
1003
0000
1100
0110
0011
0110
1100
1010
,
0110
0011
1101
0110
1001
0110
1100
0010
,
0100
0011
1101
0010
0100
0001
0010
1100
,
0110
1001
1011
0100
1000
0010
0100
0001
,
0010
1100
1011
0100
0001
0010
0100
1100
,
0110
1001
1101
0010
0100
0001
0010
1100
,
1010
0101
1110
1000
0010
0100
0001
0110
,
0110
1010
1101
0001
1011
1000
1110
0001
,
0111
0000
1000
0000
0110
1000
0101
0000
0010
0000
0001
0000
1010
0100
0011
0000
,
1000
0000
0110
0000
1001
0000
1100
0010
0101
0000
1100
0001
0110
0000
0101
0010
,
0101
1000
0101
0010
1001
0000
0011
1000
0011
0000
1001
0100
1001
0000
0101
0010
,
1001
0010
0101
1000
0011
0000
0110
1000
0110
0000
1100
0010
1100
0000
0101
0010
,
1001
0000
0000
0010
0000
0000
0101
0000
0000
0010
0000
0000
1001
0000
0000
0000
0000
0000
0000
0000
0000
0000
0000
0000
0000
0000
0000
0000
0000
0000
1001
0000
0010
0000
0100
0000
1010
0000
0000
0000
0000
0000
1001
0000
0000
0000
0000
0000
,
1001
0000
0000
0000
0000
0000
0110
0000
0000
0000
0000
0000
0101
0000
0000
0000
0000
0000
0000
0000
0000
0000
0000
0000
0100
0000
0000
1000
0000
0000
0010
0000
0000
0001
0000
0000
0100
0000
0000
0000
0000
0000
0011
0000
1000
0000
0100
0000
,
0011
0000
0000
0000
0000
0000
0110
0000
0000
0000
0000
0000
0101
0000
0000
0000
0000
0000
0110
0000
0000
0000
0000
0000
1000
0000
0000
0100
0000
0000
0010
0000
0000
0100
0000
0000
0001
0000
0000
0000
0000
0000
1001
0000
0010
0000
0100
0000
,
1001
0000
0010
0000
1001
0010
0100
0001
1100
0010
0100
0001
1010
0100
0010
0100
,
1001
0100
0010
0100
1020
0000
0000
0000
0030
0000
1001
0000
0000
0000
0110
0000
,
0000
0000
0000
0000
1001
0100
1010
0100
0011
0000
1001
0010
0101
0010
1100
0000
,
1001
0000
0110
0000
1001
0010
0100
1000
0101
0010
0100
0010
1001
0000
0000
0000
,
1001
0000
0000
0000
1100
0001
1010
0001
0110
0000
1100
0001
1010
0100
0011
0000
,
1100
0000
0011
0000
0110
1000
0100
0010
0101
0010
0100
0010
1001
0000
0010
0000
,
1100
0000
0010
0000
0001
0010
0100
1000
0100
0010
0001
0000
0000
0000
1100
0000
,
0000
0000
1001
0100
0010
0100
0010
0001
0010
0000
1100
0000
0000
0000
1001
0000
,
0000
0000
0000
1100
0001
1000
0110
1000
0100
0101
0001
1000
,
0011
1000
0010
1101
0110
0101
1011
1100
0011
1101
1100
0011
,
1011
0000
0110
0000
0101
0000
1001
0000
0000
0100
0000
0000
0001
0000
0000
0010
0000
0000
0100
0000
0000
1000
0000
0000
,
0010
0000
0100
0000
1010
0000
0001
0000
1010
0000
0100
0000
1010
0100
0011
0100
,
1001
0000
0100
0000
0002
0000
0000
0000
0103
1000
0100
0010
0100
0000
1001
0000
,
0100
0000
1001
0000
0110
0000
0000
0000
1000
0100
0010
0001
0010
0000
1100
0000
,
0110
0000
1001
0000
0110
0000
0000
0000
0001
0100
1000
0100
0001
0000
1000
0000
,
0100
1000
0010
0100
0001
1000
0010
0100
,
0010
0000
0001
0000
1200
0000
0000
0000
0310
0100
0010
1000
0010
0000
1100
0000
,
0110
0000
0011
0000
0110
0000
0000
0000
0100
1000
0010
0001
0100
0000
1010
0000
,
0110
0000
1001
0000
0110
0000
0000
0000
0010
0001
0100
1000
0010
0000
0100
0000
,
1000
0000
0010
0000
0100
0000
0001
0010
0100
0000
0010
0000
0100
0000
0010
0100
,
1000
0000
1001
0000
1000
0100
0010
0001
1000
0010
0100
0001
1000
0100
0010
0001
,
1000
0010
0100
0001
0100
0010
0100
0010
1000
0100
0010
0100
1001
0010
0101
0010
,
1001
0100
1010
0100
1011
0100
1010
0100
1011
0100
0010
0100
1011
0100
0010
0100
,
1011
0100
0010
0100
1011
0100
0010
0100
1001
0101
0100
0010
1001
0101
0010
0100
,
1010
0000
0000
0101
0000
0000
0010
0000
0000
0001
0000
0000
1010
0000
0000
0000
0000
0000
0001
0000
0000
0010
0000
0000
1100
0000
0000
0010
0000
0000
0001
0000
0000
0010
0000
0000
0101
0000
1000
0000
0100
0000
1010
0000
0000
0001
0000
0000
,
1010
0100
0010
0001
1010
0100
0010
0001
1010
0100
1000
0100
1010
0001
0010
0100
,
1001
0000
0100
0000
0010
0000
0101
0000
0000
0010
0000
0000
0001
0000
0000
1000
0000
0000
0001
0000
0000
0010
0000
0000
0101
0000
0000
1000
0000
0000
0100
0000
0000
1000
0000
0000
0101
0000
0000
0010
0000
0000
0100
0000
0000
0010
0000
0000
,
1001
0000
0000
0010
0000
0000
0001
0000
0000
0010
0000
0000
1200
0000
0000
0000
0000
0000
0000
0000
0000
0000
0000
0000
0000
0000
0000
0000
0000
0000
1301
0000
0010
0000
0100
0000
1010
0000
0000
0100
0000
0000
0001
0000
0000
0010
0000
0000
,
1001
0100
0001
0010
0101
0000
1000
0100
1001
0000
0010
0100
1010
0000
0001
0010
,
1001
0000
0000
0000
0100
0000
0011
0000
1000
0000
0001
0000
1100
0000
0000
0010
0000
0000
1000
0000
0000
0001
0000
0000
1100
0000
0000
0010
0000
0000
0100
0000
0000
1000
0000
0000
0101
0000
0000
0010
0000
0000
0100
0000
0000
0001
0000
0000
,
1010
0001
0100
0010
1100
0001
1000
0010
1100
0001
1000
0001
1100
0010
1000
0100
,
0011
0100
1001
0010
0101
0010
1001
0100
0011
0100
1010
0110
0101
0000
0000
0000
,
0000
0000
1001
0100
0100
0100
0100
0100
,
0100
1001
0110
0010
0010
0010
0010
0010
,
0010
0100
1001
0001
0001
0001
0001
0001
,
1000
0000
0000
1000
0100
0000
0000
0000
0001
0000
0000
0001
0010
0000
0000
0000
,
0100
0000
0000
0100
0020
0000
0000
0000
0000
0000
0000
0000
0030
0000
0000
0000
;
