#TITLE:Candyshop V.2;
#SUBTITLE:;
#ARTIST:DJ Bluecore;
#TITLETRANSLIT:;
#SUBTITLETRANSLIT:;
#ARTISTTRANSLIT:;
#CREDIT:;
#BANNER:Candyshop V.2.PNG;
#BACKGROUND:Candyshop V.2-bg.png;
#LYRICSPATH:;
#CDTITLE:cdtitle.PNG;
#MUSIC:DJ Bluecore - Candyshop V.2.mp3;
#OFFSET:-0.980;
#SAMPLESTART:37.340;
#SAMPLELENGTH:30.000;
#SELECTABLE:YES;
#BPMS:0.000=42.500,16.500=185.000;
#STOPS:16.500=2.680
;
#BGCHANGES:;
// cache tags:
#FIRSTBEAT:5.500;
#LASTBEAT:465.000;
#SONGFILENAME:Songs/longs versions/Candyshop V.2/Candyshop V.2.sm;
#HASMUSIC:1;
#HASBANNER:1;
#MUSICLENGTH:172.520;
// end cache tags

//---------------dance-single - ----------------
#NOTES:
     dance-single:
     :
     Challenge:
     10:
     0.682,1.000,0.296,0.122,0.188,752.000,51.000,21.000,0.000,0.000:  // measure 1
0000
0000
0000
0000
,  // measure 2
0000
0000
0000
2000
0000
3200
0302
0000
,  // measure 3
0000
0003
0200
0000
0000
0020
0030
0000
0000
2300
0000
0000
0000
0000
0000
0000
,  // measure 4
0000
0000
0000
0000
0000
0000
0000
0000
3020
0000
0000
0000
0000
0000
0032
0000
0000
0000
0203
0000
0300
0000
1000
0001
1000
0001
1000
0001
1000
0001
1000
0001
,  // measure 5
1000
0001
0220
0000
0330
0000
0000
0000
0001
0000
0000
0000
0001
0000
0000
0000
1000
0000
0000
0000
0100
0000
0000
0000
0001
0000
0000
0000
0010
0000
0000
0000
,  // measure 6
1000
0100
0010
0100
1000
0001
0100
0001
,  // measure 7
0000
0100
1000
0010
0100
0001
0100
1000
,  // measure 8
0000
0010
0100
0010
1000
0001
0100
1000
,  // measure 9
0000
0001
0010
0100
1000
0010
0100
0001
,  // measure 10
0000
1000
0010
0100
0001
0100
1000
0100
,  // measure 11
0000
0001
0100
0010
1000
0010
0100
0001
,  // measure 12
0000
0100
0010
1000
0001
0100
0010
0001
,  // measure 13
1000
0220
0000
0000
0000
0000
0000
0000
,  // measure 14
0000
0330
0000
0010
0010
0100
0100
0001
,  // measure 15
0001
1000
1000
0010
0010
0100
0100
0001
,  // measure 16
0001
1000
1000
0010
0010
0100
0100
0001
,  // measure 17
0001
0000
0100
0010
0100
0010
0100
0010
0100
0001
0100
0001
0100
0001
0100
0001
,  // measure 18
0100
0001
0010
1000
0010
1000
0010
1000
0001
1000
0001
1000
0001
1000
0001
1000
,  // measure 19
0001
1000
0100
0001
0100
0001
0100
0001
0100
1000
0100
1000
0100
1000
0100
1000
,  // measure 20
0100
1000
0020
0000
0000
0000
0000
0000
0000
0000
0000
0000
0000
0000
0030
0000
,  // measure 21
0000
0000
1000
0100
0001
0010
1000
0100
,  // measure 22
0001
0000
0100
0010
1000
0001
0100
0010
,  // measure 23
1000
0000
0100
0010
1000
0100
0010
0001
,  // measure 24
0100
0000
1000
0001
0100
0010
0001
0100
,  // measure 25
1000
0000
0001
0100
0010
1000
0010
0001
,  // measure 26
0100
0000
0010
0001
0100
1000
0010
0100
,  // measure 27
0010
0000
0001
0100
0010
1000
0100
0001
,  // measure 28
0100
0000
0010
0001
1000
0100
0010
0001
,  // measure 29
1000
0000
0001
0100
0010
1000
0001
0100
,  // measure 30
0010
0000
0001
0100
0010
0001
0100
1000
,  // measure 31
0001
0000
0010
1000
0001
0100
1000
0001
,  // measure 32
0010
0000
1000
0001
0100
0010
0100
1000
,  // measure 33
0001
0000
0100
1000
0001
0010
0100
0001
,  // measure 34
0100
0000
1000
0001
0100
0010
0001
1000
,  // measure 35
0001
0000
0100
1000
0010
0001
0100
1000
,  // measure 36
0010
0000
1000
0001
0100
0010
1000
0001
,  // measure 37
0100
0000
1000
0001
0100
1000
0001
0010
,  // measure 38
1000
0000
0100
0010
1000
0001
0010
1000
,  // measure 39
0100
0000
0010
1000
0001
0100
0001
0010
,  // measure 40
1000
0000
0001
0010
1000
0100
0001
1000
,  // measure 41
0001
0000
0010
1000
0001
0100
1000
0010
,  // measure 42
1000
0000
0001
0010
0100
1000
0001
0010
,  // measure 43
0100
0000
0010
1000
0001
0100
0010
1000
,  // measure 44
0001
0000
0010
1000
0001
0010
1000
0100
,  // measure 45
0010
0000
0001
0100
0010
1000
0100
0010
,  // measure 46
0001
0000
0100
0010
1000
0001
1000
0100
,  // measure 47
0010
0000
1000
0100
0010
0001
1000
0010
,  // measure 48
1000
0000
0100
0010
1000
0001
0010
0100
,  // measure 49
0010
0000
1000
0001
0100
0010
1000
0010
,  // measure 50
0001
0000
0100
0010
1000
0001
0100
0010
,  // measure 51
0001
0000
0100
0010
1000
0001
0100
0010
,  // measure 52
0100
1000
0001
1000
0100
0010
0001
0010
,  // measure 53
0100
1000
1100
0001
0100
1000
0001
0100
,  // measure 54
0010
1000
0001
0100
0010
1000
0001
0100
,  // measure 55
0010
1000
0001
0100
0010
1000
0001
0100
,  // measure 56
0010
0001
0100
1000
0010
0100
0001
1000
,  // measure 57
0010
0100
0001
1000
0010
0100
0010
1000
,  // measure 58
0001
0100
1000
0001
0100
1000
0010
0100
,  // measure 59
0001
1000
0001
0100
0010
1000
0010
0100
,  // measure 60
0001
0010
1000
0100
0002
0000
0000
0000
,  // measure 61
0000
2000
0000
0000
0000
0000
0000
0000
,  // measure 62
3003
0000
0100
0100
0010
0010
0001
0001
,  // measure 63
1000
1000
0010
0010
0001
0001
1000
1000
,  // measure 64
0100
0100
0001
0001
0010
0010
0100
0100
,  // measure 65
1000
0000
1000
0000
0100
0010
0100
0010
0100
0010
0100
0010
0100
0010
0100
0010
,  // measure 66
0100
0010
0100
0010
0100
0010
0100
0010
1000
0001
1000
0001
1000
0001
1000
0001
,  // measure 67
1000
0001
1000
0001
1000
0001
1000
0001
1000
0001
1000
0001
1000
0001
1000
0001
,  // measure 68
1000
0001
1000
0000
0200
0000
0000
0000
0000
0000
0000
0000
0000
0000
0300
0000
,  // measure 69
0000
0000
0100
0010
1000
0000
0011
0000
,  // measure 70
0110
0000
1000
0010
0100
0000
1001
0000
,  // measure 71
0110
0000
0100
0001
0010
0000
0101
0000
,  // measure 72
1010
0000
0001
0100
1000
0000
1001
0000
,  // measure 73
0011
0000
0001
1000
0010
0100
0001
0010
,  // measure 74
1000
0100
0001
1000
0010
0001
0100
0010
,  // measure 75
0001
0000
1000
0001
0100
0010
1000
0100
,  // measure 76
0001
0010
1000
0001
0100
1000
0010
0100
,  // measure 77
1000
0000
0001
0100
1000
0000
1010
0000
,  // measure 78
0110
0000
0001
0100
1000
0000
0101
0000
,  // measure 79
0110
0000
0001
1000
0100
0000
1010
0000
,  // measure 80
0011
0000
0100
0010
1000
0000
0101
0000
,  // measure 81
1100
0000
1000
0100
0010
0001
0100
0010
,  // measure 82
1000
0100
0001
0010
0100
1000
0010
0100
,  // measure 83
0001
0000
0001
0010
0100
1000
0010
0100
,  // measure 84
0001
0010
1000
0100
0010
0001
0100
0010
,  // measure 85
1000
0010
0101
0010
,  // measure 86
0011
1000
0110
0001
,  // measure 87
1001
0100
0011
0100
,  // measure 88
1001
0100
1100
1000
,  // measure 89
1010
0100
0101
0001
,  // measure 90
0011
1000
1001
0010
,  // measure 91
0110
0001
1010
0001
,  // measure 92
0110
0010
1100
0010
,  // measure 93
1001
1000
0101
1000
,  // measure 94
0011
0100
0110
1000
,  // measure 95
0101
0010
1001
0100
,  // measure 96
1100
0010
0011
0100
,  // measure 97
1010
0120
1000
0100
,  // measure 98
1000
0001
0100
1000
,  // measure 99
0130
1002
0100
0010
,  // measure 100
1003
0220
0000
0000
,  // measure 101
0330
0000
0001
0010
0100
0000
0010
0000
,  // measure 102
1000
0100
0001
0100
,  // measure 103
1000
0000
0100
1000
0010
0000
0001
0000
,  // measure 104
0100
0010
1000
0100
,  // measure 105
0010
0000
0001
1000
0100
0000
0010
0000
,  // measure 106
1000
0100
0001
0010
,  // measure 107
1000
0000
0010
0001
1000
0000
0100
0000
,  // measure 108
0010
0100
0001
0010
,  // measure 109
0100
0000
0001
0100
1000
0000
0010
0000
,  // measure 110
0100
0001
1000
0010
,  // measure 111
0100
0000
1000
0010
0100
0000
0001
0000
,  // measure 112
0100
0001
1000
0010
,  // measure 113
0100
0000
0001
0010
1000
0000
0010
0000
,  // measure 114
0100
0001
1000
0100
,  // measure 115
0010
0000
1000
0100
0001
0000
0100
0000
,  // measure 116
0010
0000
1001
0000
1001
0000
0110
0000
0110
0000
1000
0001
1000
0001
1000
0001
,  // measure 117
1000
0001
1000
0000
1001
0000
0000
0000
0000
0000
0000
0000
0000
0000
0000
0000
;
