#TITLE:Arabian Rave Night;
#SUBTITLE:;
#ARTIST:DJ MAX STEROID;
#TITLETRANSLIT:;
#SUBTITLETRANSLIT:;
#ARTISTTRANSLIT:;
#CREDIT:;
#BANNER:arabian rave bn.png;
#BACKGROUND:arabian rave.png;
#LYRICSPATH:;
#CDTITLE:;
#MUSIC:Arabian Rave Night.ogg;
#OFFSET:-0.063;
#SAMPLESTART:33.353;
#SAMPLELENGTH:12.000;
#SELECTABLE:YES;
#DISPLAYBPM:180.000;
#BPMS:0.000=180.000,50.000=360.000,50.500=90.000,50.750=180.000,66.000=360.000,68.000=180.000,156.000=270.000,160.000=180.000,288.000=270.000,290.000=360.000,292.000=180.000,305.500=270.000,307.500=720.000,307.750=45.000,307.813=180.000,333.000=720.000,333.250=45.000,333.313=180.000,333.500=720.000,333.750=45.000,333.813=180.000,335.000=720.000,335.250=45.000,335.313=180.000,335.500=720.000,335.750=45.000,335.813=180.000;
#STOPS:66.000=0.083
,66.500=0.083
,67.000=0.083
,67.500=0.042
,67.750=0.041
,156.000=0.055
,156.500=0.056
,157.000=0.055
,157.500=0.056
,158.000=0.055
,158.500=0.056
,159.000=0.055
,159.500=0.056
,288.000=0.055
,288.500=0.056
,289.000=0.055
,289.500=0.056
,290.000=0.042
,290.250=0.042
,290.500=0.041
,290.750=0.042
,291.000=0.042
,291.250=0.041
,291.500=0.041
,291.750=0.042
,305.500=0.055
,306.000=0.056
,306.500=0.055
,307.000=0.056
;
#BGCHANGES:;
// cache tags:
#FIRSTBEAT:4.000;
#LASTBEAT:360.000;
#SONGFILENAME:Songs/Beast Aoreo BEAST!/Arabian Rave Night - [Aoreo]/Arabian Rave Night.sm;
#HASMUSIC:1;
#HASBANNER:1;
#MUSICLENGTH:126.066;
// end cache tags

//---------------dance-single - J. Nero----------------
#NOTES:
     dance-single:
     J. Nero:
     Challenge:
     14:
     1.000,1.000,0.516,0.056,1.000,1011.000,65.000,7.000,16.000,0.000:
0000
0000
0000
0000
,
0001
0000
1000
0000
1001
0000
1000
0100
0010
0000
0001
0000
0100
0001
0100
0000
,
0000
0001
0000
0000
0100
0001
1000
0100
1000
0000
0010
0000
0100
0000
0100
0000
,
1001
0000
0000
0000
0000
0000
0000
0000
0000
0000
0000
0000
0101
0000
0000
0000
0000
0000
0001
0000
0000
0000
0000
0000
0010
0000
0000
0000
0100
0000
0000
0000
1000
0000
0000
0000
0010
0000
0000
0100
0000
0000
0010
0000
0000
0100
0000
0000
,
0010
0000
0100
0001
0200
0000
0000
0300
0101
0000
0100
0000
0000
0000
0000
0000
,
1001
0000
1001
0000
0010
0000
1000
0100
0010
0100
1000
0000
0001
0100
0001
0000
,
1000
0100
0010
0001
0010
0100
1000
0010
0100
0000
0010
0000
1000
0000
0001
0000
,
0100
0000
0000
0000
0101
0000
0001
1000
0100
0000
1000
0000
0010
0100
0001
0010
,
0100
1000
0010
0100
0002
0000
0000
0003
0000
0000
1001
0000
0000
0000
0000
0000
,
1010
0000
0000
0000
1000
0000
1001
0000
0001
0000
1000
0010
0100
0000
0010
0000
,
0110
0000
1000
0000
1000
0000
0101
0000
0001
0000
1000
0010
0100
0000
0010
0000
,
0110
0000
1000
0000
0001
0000
1001
0000
0010
0000
0100
0001
1000
0000
0100
0000
,
0011
0000
0001
0000
1000
0000
0101
0000
0002
0000
0000
0003
1000
0010
1000
0010
,
0100
0010
0100
0101
0000
0001
1000
0001
,
1001
0000
0000
0000
1000
0000
1100
0000
0100
0000
0010
0001
0100
0000
0001
1000
,
0100
0000
0001
0000
1000
0000
0010
0000
0001
0000
1000
0100
1000
0000
0010
0000
,
1000
0000
0010
0000
0100
0000
0001
0000
0011
0000
0011
0000
0101
0000
0100
0001
,
1000
0100
1000
0010
0100
0001
1000
0100
0010
0001
0010
0100
1000
0010
0100
0001
,
0100
0001
1000
0010
0100
0001
0100
0010
1000
0010
0100
0001
0100
0010
1000
0001
,
0010
0100
1000
0010
0100
0001
1000
0010
0100
0010
1000
0001
0010
0001
1000
0010
,
0100
0000
0000
0001
0000
0000
0010
0000
0000
0100
0000
0000
1000
0000
0000
0100
0000
0000
1000
0000
0000
0001
0000
0000
1000
0000
0001
0000
1000
0000
0001
0000
0100
0000
0010
0000
1000
0000
0001
0000
0100
0000
0010
0000
1000
0000
0100
0000
,
1000
0100
1000
0100
0010
0001
0100
0001
1000
0010
0100
0010
1000
0001
0100
0010
,
0100
0001
1000
0010
0100
0001
0100
0010
1000
0100
1000
0001
0100
0001
0010
0100
,
1000
0000
0000
0000
0000
0000
0000
0000
0001
0000
0000
0000
0100
0000
0000
0000
0000
0000
0000
0000
0001
0000
0000
0000
4004
0000
0000
0000
0000
3003
0000
0000
,
1001
0000
0000
0101
0000
0000
0110
0000
0000
1010
0000
0000
1001
0000
0101
0000
,
0110
0010
1000
0100
0010
0001
0100
0010
,
1000
0000
0000
0001
0000
0000
0100
0000
0001
0100
0001
0000
0100
0000
0000
0010
0000
0000
1000
0000
0000
0010
0000
0000
,
1000
0000
0000
0000
0001
0000
1000
0000
0001
0000
0000
0000
1000
0000
0000
0001
0000
0000
0000
0000
0000
0100
0000
0000
0000
0000
0000
0010
0000
0000
0000
0000
0000
1000
0000
0000
0001
0000
0000
0000
0000
0000
1000
0000
0000
0000
0000
0000
,
0001
0000
0000
0000
0000
0000
1000
0000
0001
0000
1000
0000
0001
0000
0000
0000
0000
0000
1000
0000
0100
0000
1000
0000
0100
0000
0000
1000
0000
0000
0001
0000
0100
0000
0001
0000
0100
0000
0000
0000
0000
0000
0001
0000
0000
0000
0000
0000
,
0100
0000
0001
0000
0010
0000
0100
0000
1000
0010
0100
0001
1000
0000
0001
0000
,
0100
0001
0010
0100
1000
0000
0001
0000
0100
0000
0100
0000
0100
0000
0100
0000
,
0001
0100
0010
1000
0100
0010
0001
0100
0010
1000
0100
1000
,
0001
0000
1000
0000
0010
0000
0100
0000
0001
0000
0000
0000
0100
0000
0000
0000
0001
0000
0000
0000
1000
0000
0000
0000
0001
1000
0001
1000
0001
0000
0000
0000
,
1001
0101
1010
1100
,
0110
0000
0011
0000
0101
0000
1000
0010
,
0100
0101
1001
1100
,
0110
0000
0000
0000
0000
0000
0000
0000
0011
0000
0000
0000
0011
0000
0000
0000
0000
0000
0000
0000
1001
0000
0000
0000
1001
0000
0000
0000
1000
0001
1000
0001
,
1000
0000
0001
0000
1000
0010
0000
0100
0001
0010
0100
1000
0010
0000
0100
0001
,
1000
0100
1000
0000
0010
0100
0000
0001
1000
0000
0001
0000
1000
0000
0010
0000
,
1010
1010
0101
0101
1001
1001
1010
1010
,
0220
0000
0000
0000
0000
0000
0000
0330
0001
0010
0001
1000
0000
0010
1000
0100
,
1000
0000
0000
0000
0001
1000
0001
0000
1000
0000
0000
0000
0001
0000
0000
0000
0100
0000
0000
0000
0010
0000
0000
0000
1000
0000
0001
0000
0010
0000
0100
0000
,
1000
0000
0010
0000
0100
0000
0001
0000
1000
0000
0100
0000
0000
0000
0100
0000
0010
0000
0001
0000
0100
0000
0000
0000
0010
0000
0000
0000
1000
0010
1000
0000
,
0010
0000
0000
0000
0100
0001
0100
0000
0001
0000
0100
0000
0010
0000
0000
0000
0100
0000
0000
0000
0001
0000
0000
0000
1000
0000
0100
0000
0010
0000
0001
0000
,
1000
0000
0010
0000
0100
0000
0001
0000
1000
0000
0010
0000
0000
0000
0100
0000
0001
0000
0010
0000
0001
0000
0000
0000
1000
0000
0000
0000
0001
0000
0100
0001
,
0100
0000
0000
0000
0000
0000
0001
1000
0001
0000
1000
0000
0001
0000
0000
0000
1000
0000
0000
0000
0100
0000
0000
0000
0010
0000
0001
0000
1000
0000
0001
0000
,
0100
0000
0010
0000
1000
0000
0010
0000
0100
0000
0000
0000
0001
0000
0010
0000
0100
0000
1000
0000
0010
0000
0100
0000
0001
0000
0000
0000
1000
0001
1000
0000
,
0001
0000
0000
0000
0100
0001
0100
0000
0001
0000
0100
0000
0001
0000
0000
0000
0010
0000
0000
0000
0100
0000
0000
0000
1000
0000
0010
0000
0100
0000
0001
0000
,
1000
0100
1000
0010
0100
0001
1000
0000
0000
0000
0000
0000
,
1001
0000
0000
0001
0100
0001
0100
0000
0000
0001
0000
0000
1000
0000
0000
0100
0000
0000
0010
0000
0000
0001
1000
0001
,
1000
0000
0000
0010
0000
0000
0100
0000
0000
0001
0000
0000
1000
0000
0000
0001
0000
0000
0100
0000
0000
0001
0100
0001
,
0100
0000
0000
0001
0000
0000
0010
0000
0000
0100
0000
0000
1000
0000
0000
0010
0100
0010
0100
0000
0000
0001
0000
0000
,
1000
0000
0000
0010
0000
0000
0100
0000
0000
0001
1000
0001
1000
0000
0000
0100
0000
0000
0010
0000
0000
0001
0000
0000
,
0100
0000
0000
0001
0000
0000
1000
0000
0000
0100
1000
0100
1000
0000
0000
0100
0000
0000
1000
0000
0000
0010
0000
0000
,
0100
0000
0000
0001
0100
0001
0100
0000
0000
0001
0000
0000
1000
0000
0000
0010
0000
0000
0100
0000
0000
0001
1000
0001
,
1000
0001
0000
0000
0000
0000
0010
0100
1000
0010
0000
1000
0000
0010
0000
0100
,
0001
1000
0000
0000
0000
0000
0001
0100
0010
1000
0000
0010
0000
0100
0000
0001
,
2000
0000
3000
0000
0000
0000
0000
0000
0000
0000
0000
0001
1000
0000
0010
0000
,
0100
0000
0001
0000
0000
0000
0000
0000
0000
0000
0000
1000
0100
0000
0010
0000
,
0100
0000
1000
0000
1010
0000
0010
0100
0001
0000
0100
0000
0010
0000
1010
0000
,
0101
0000
0000
0000
0000
0000
0001
0000
0000
0000
0000
0000
0101
0000
0000
0000
0000
0000
0100
0000
0000
0000
0000
0000
0110
0000
0000
0000
0000
0000
0010
0000
0000
1000
0000
0000
0001
0000
1000
0000
0001
0000
0100
0000
0010
0000
1000
0000
,
0001
1000
0001
0010
0100
1000
0010
0100
0001
0010
0100
1000
0010
0100
0001
0100
,
0001
0000
0000
1000
0000
0000
0010
0000
0000
1000
0000
0000
0010
0000
0000
0000
0000
0000
1000
0000
0000
0000
0000
0000
0001
0000
1000
0000
0001
0000
1000
0000
0000
0001
0000
0000
1000
0000
0000
0001
0000
0000
1000
0000
0000
0000
0000
0000
,
0001
0010
0100
1000
0010
0100
0001
1000
0001
0100
0010
0100
0001
0010
0100
1000
,
0100
0000
1000
0000
0010
0100
0010
0000
0100
0000
0001
0000
0100
0001
0100
0000
0001
0000
1000
0000
0010
0000
0100
0000
0001
0000
0010
0000
0100
0000
1000
0000
,
0010
0100
0001
0100
0010
1000
0100
0010
0001
0100
0010
1000
0100
1000
0100
0010
,
0001
0100
0001
0100
0010
1000
0010
1000
0100
0010
0001
0010
0100
0010
0001
0100
,
0010
1000
0100
0010
0001
1000
0100
0010
0100
1000
0010
0100
0001
0100
0010
1000
,
0100
0000
0000
1000
0000
0000
0001
0000
0000
0010
0000
0000
0100
0000
0000
1000
0000
0000
0010
0000
0000
0100
0000
0000
0010
0000
0000
1000
0000
0000
0001
0000
0000
1000
0000
0000
0001
0000
1000
0000
0001
0000
1000
0000
0001
0000
1000
0000
,
0001
1000
0001
0010
0100
1000
0100
1000
0010
0100
0001
1000
0010
0100
0001
0010
,
0100
1000
0100
0010
0001
0100
0010
1000
0100
0010
0100
1000
0010
0100
0001
0010
,
0100
0010
0001
0100
0010
0100
0001
1000
0100
1000
0010
0100
0001
0010
0100
0000
,
1100
0000
1000
0000
1001
0000
0001
0000
0100
0010
1000
0001
0010
0100
1000
0010
,
0100
0001
0010
0100
1000
0010
0100
0001
1000
0100
1000
0100
0010
0001
0010
0100
,
1000
0001
1000
0001
0100
0010
1000
0100
0010
0001
0100
0010
1000
0001
0100
0010
,
1000
0100
0010
0100
1000
0100
0010
0001
0010
0100
0010
0001
0100
0010
1000
0001
,
1000
0010
0100
0001
1000
0001
1000
0000
0010
0000
0100
0000
0001
0000
0040
M00M
,
0130
1000
0100
1000
0001
0100
0010
0100
0001
0010
0100
1000
0010
0100
0001
0010
,
0100
1000
0100
0010
0001
0100
0001
1000
0100
1000
0001
0100
0001
0010
0100
1000
,
0100
1000
0001
0100
0010
1000
0100
0010
0001
0100
0010
1000
0010
1000
0001
0100
,
0010
0000
0000
0100
0000
0000
0001
0000
0100
0000
0001
0000
0100
0000
0000
0001
0000
0000
1000
0000
0001
0000
1000
0000
0001
0000
0000
1000
0000
0000
0001
0000
0100
0000
0001
0000
0100
0000
0000
0001
0000
0000
0100
0000
0000
0000
0000
0000
,
0010
0100
0001
1000
0010
0100
0001
0010
0100
1000
0100
1000
0010
0100
0001
0010
,
0100
1000
0100
1000
0010
0100
0001
0100
0010
1000
0100
0010
0001
1000
0010
0100
,
0001
1000
0001
0000
4MM4
0000
0MM0
0000
3MM3
0000
M0M0
0000
M4M4
0000
M0M0
0303
,
M0M1
0000
0100
0001
1000
0000
0100
0000
1000
0010
0100
0001
0010
0100
1000
0010
,
0100
0000
0000
0000
0000
0000
0000
0000
0000
0000
0000
0001
1000
0000
0010
0000
,
0100
0000
0001
0000
0000
0000
0000
0000
0000
0000
0000
1000
0100
0000
0010
0000
,
0100
0000
1000
0000
0010
0000
0100
0000
0001
0000
1000
0000
0100
1000
0100
0000
,
1000
0000
0000
0010
0000
0000
0100
0000
0000
0001
0000
0000
0100
0000
0000
0001
0000
0000
1000
0000
0000
0000
0000
0000
0001
0000
0000
0000
0000
0000
0100
0000
0000
0001
0000
0000
1000
0000
0001
0000
0100
0000
0010
0000
1000
0000
0001
0000
,
2000
0000
0000
0000
,
3000
0000
0000
0000
;
