#TITLE:Cyborg Bear Assault 5;
#SUBTITLE:;
#ARTIST:Kommisar;
#TITLETRANSLIT:;
#SUBTITLETRANSLIT:;
#ARTISTTRANSLIT:;
#CREDIT:Arvin;
#BANNER:../Tachyon Delta-bn.png;
#BACKGROUND:../Tachyon Delta-bg.png;
#LYRICSPATH:;
#CDTITLE:;
#MUSIC:bear.ogg;
#OFFSET:-0.035;
#SAMPLESTART:25.512;
#SAMPLELENGTH:12.000;
#SELECTABLE:YES;
#BPMS:0.000=235.000;
#STOPS:;
#BGCHANGES:;
// cache tags:
#FIRSTBEAT:16.000;
#LASTBEAT:416.000;
#SONGFILENAME:Songs/Tachyon Delta/Cyborg Bear Assault 5 - [Arvin]/bear fight.sm;
#HASMUSIC:1;
#HASBANNER:1;
#MUSICLENGTH:106.240;
// end cache tags

//---------------dance-single - Arvin----------------
#NOTES:
     dance-single:
     Arvin:
     Challenge:
     14:
     1.000,1.000,0.104,0.499,0.833,755.000,11.000,53.000,3.000,0.000:

0000
0000
0000
0000
,
0000
0000
0000
0000
,
0000
0000
0000
0000
,
0000
0000
0000
0000
,
1000
1000
0010
1000
1000
0010
1000
1000
,
1000
1000
0010
1000
0001
0001
0010
0100
,
1000
1000
0100
1000
1000
0100
1000
0020
,
0030
1000
0010
1000
0001
0001
0010
0100
,
1000
1000
0100
1000
1000
0100
1000
1000
,
1000
1000
0100
1000
0001
0001
0100
0010
,
1000
1000
0010
1000
1000
0010
1000
0200
,
0300
1000
0100
1000
0001
0001
0100
0010
,
1000
1000
0010
1000
1000
0010
1000
1000
,
1000
1000
0010
1000
0001
0001
0010
0100
,
1000
1000
0100
1000
1000
0100
1000
0020
,
0030
1000
0010
1000
0001
0001
0010
0100
,
1000
0001
0100
0010
0100
0010
1000
0001
0100
0010
0100
0010
1000
0001
0100
0010
,
1000
0000
0001
0000
1000
0000
0001
0000
1000
0100
0010
0001
1000
0001
1000
0100
,
0010
0001
0010
0001
0010
0001
0001
0001
,
1000
0000
0010
0000
0010
0000
1000
0000
0001
0000
1000
0000
0001
0010
0100
1000
,
0002
0000
0000
0000
,
0003
1000
0100
1000
0001
0100
0010
0100
,
0M00
0100
0M00
0100
0001
2000
3000
0002
,
0003
0100
0001
1000
0001
0010
0001
0100
,
0001
1000
0100
0010
0001
1000
0010
0100
0001
1000
0100
1000
0001
0100
0010
0100
,
0001
1000
0010
1000
0001
0100
0001
1000
0100
1000
0001
0010
0001
1000
0100
0010
,
0002
0000
0000
0000
0000
0000
1003
0010
,
0200
0302
2003
3200
,
0310
0001
1000
0010
1000
0001
0100
0010
,
2000
0000
0000
0000
,
3002
0003
0000
0000
0020
0030
0000
0000
0200
0300
0000
0000
0000
0000
0000
0000
0010
0000
0000
0000
0100
0000
0000
0000
1000
0000
0000
0000
0000
0000
0000
0000
0002
0003
0000
0000
0200
0300
0000
0000
0020
0030
0000
0000
0000
0000
0000
0000
0100
0000
0000
0000
0010
0000
0000
0000
1000
0000
0000
0000
0000
0000
0000
0000
,
0010
0100
0010
1000
0010
0100
0010
1000
0001
0010
0100
1000
0004
0000
0000
0000
,
2003
0000
0000
0000
3100
0010
0001
1000
,
0000
0010
0000
1000
0001
0010
0100
2000
,
0000
0000
3100
0000
0010
0000
0001
0000
1000
0010
0100
0001
1000
0100
0010
0001
,
1000
0001
0010
0100
1000
0001
0100
0010
1000
0001
1000
0010
0100
0001
1000
0001
,
0020
0000
0031
0010
0000
0001
0020
0000
,
0031
0010
0001
0010
0200
0000
1300
0001
,
2000
0000
3000
0010
0000
1000
0002
0000
,
1003
0001
1000
0010
0100
0001
0100
0001
,
2000
0000
3010
1000
0000
0010
2000
0000
,
3010
1000
0010
1000
0002
0000
1003
0010
,
0100
0001
1000
0001
0010
0100
1000
0001
1000
0100
0010
0001
1000
0100
0010
0001
,
1000
0010
0100
0001
0100
0010
1000
0001
1000
0100
0010
0001
2000
0000
0000
0000
,
3002
0000
0000
0000
,
1003
0000
0000
0100
0000
0000
0010
0000
0000
0001
0000
0000
1001
0000
0000
0000
1100
0000
0000
0000
0011
0000
0000
0000
,
0001
1000
0001
0010
0100
1000
0001
0100
,
0020
0000
0000
2030
0000
0000
3001
0000
,
1000
0100
0010
0001
0100
0010
1000
0100
,
1000
0001
0010
0100
0010
0100
1000
0001
,
1000
0100
0010
0001
1000
0010
0100
0001
1000
0100
0010
0001
1000
0010
0100
0001
,
1000
0100
1000
0001
0100
0010
1000
0001
0100
0001
1000
0010
0200
0000
0000
0000
,
0320
0000
0000
0000
,
1030
0000
0000
0010
0000
0000
0100
0000
0000
0001
0000
0000
1001
0000
0000
0000
0101
0000
0000
0000
1010
0000
0000
0000
,
1000
0001
0100
0010
1000
0010
0100
0001
,
2000
0000
0000
3200
0000
0000
2300
0000
,
3002
0000
0023
0032
,
0000
0023
0032
0000
,
1003
0100
0010
0001
1000
0001
1000
0100
0010
0001
1000
0010
0100
0010
0100
0001
,
1000
0001
0010
0100
1000
0001
1000
0001
0010
0100
1000
0001
1000
0010
0100
0001
,
2000
0000
0000
0000
,
0000
0000
0000
0000
0000
0000
0000
3000
,
1000
0000
0000
0000
1000
0000
0000
0000
1000
0000
1000
0000
0000
0001
0000
0000
,
1000
0000
0001
0000
0100
0000
0001
0000
1000
0100
0010
0100
1000
0100
0010
0100
,
4000
0000
3040
0000
,
0430
0000
0304
0000
,
1003
0010
0100
0001
0100
0010
1000
0001
1000
0100
0010
0001
0010
0100
1000
0001
,
1000
0100
0010
0100
1000
0100
0010
0100
1000
0100
0010
0100
1000
0100
0010
0100
,
2000
0000
0000
0000
,
0000
0000
0000
0000
0000
0000
0000
3000
,
1000
0000
0000
0000
1000
0000
0000
0000
1000
0000
1000
0000
0000
0001
0000
0000
,
1000
0000
0001
0000
0010
0000
0001
0000
1000
0010
0100
0010
1000
0010
0100
0010
,
4000
0000
3040
0000
,
0430
0000
0304
0000
,
1003
0100
0010
0001
0010
0100
1000
0001
1000
0010
0100
0001
0100
0010
1000
0001
,
1000
0010
0100
0010
1000
0010
0100
0010
1000
0010
0100
0010
1000
0010
0100
0010
,
1000
0001
0001
0100
0001
0001
0100
0001
,
0100
0001
0100
0001
1000
0020
0000
0000
,
1030
0001
0001
0100
0010
0010
1000
0010
,
0100
0001
0001
0001
1000
0010
1000
0010
,
0100
0001
0001
0100
0001
0001
0100
0001
,
0100
0001
0100
0001
1000
0020
0000
0000
,
1030
0001
0001
0100
0010
0010
1000
0010
,
0100
0001
0001
0001
1000
0010
1000
0010
,
1000
0010
0100
0001
1000
0100
0010
0001
1000
0010
0100
0001
1000
0100
0010
0001
,
2000
3010
0200
0301
,
1000
0100
0010
0000
0001
0000
0100
0000
0010
0000
1000
0000
M000
0000
1000
0000
,
0002
0000
0000
0000
0000
0000
0000
0000
0000
0000
0000
0000
0000
0000
0000
0003
0002
0000
0000
0000
0000
0000
0000
0000
0003
0000
0000
0000
0000
0000
0000
0000
1000
0000
0000
0000
0100
0000
0000
0000
1000
0000
0000
0000
0000
0000
0000
0000
0001
0000
0000
0000
0000
0000
0000
0000
0000
0000
0000
0000
0000
0000
0000
0000
,
1000
0000
0000
0000
1000
0000
0100
0000
0010
0001
1000
0000
0010
0000
0100
0000
,
0001
0000
1000
0000
0001
0010
0100
0000
1000
0000
0001
0000
0100
0000
0010
0000
,
2000
0000
0000
0000
0000
0000
0000
0000
3001
0000
0010
0000
0100
0000
1000
0001
,
1000
0000
0100
0000
0010
0000
0001
0000
1000
0100
0010
0000
0100
0010
0001
0000
,
1000
0010
0100
0010
1000
0001
0010
0100
,
1000
0001
1000
0010
0100
0001
1000
0001
1000
0100
0010
0001
1000
0100
0010
0001
,
1000
0000
0010
0000
0100
0000
0001
0000
0100
0000
0010
0000
1000
0000
0001
0010
,
0100
0000
1000
0100
0010
0000
0001
0000
1000
0000
0010
0000
0100
0001
1000
0004
,
0000
0000
0000
0000
1003
0100
1000
0001
,
1000
0100
1000
0001
4000
0000
0000
0000
,
0000
0000
0000
0000
0000
0000
0000
0000
3001
0000
0010
0000
0100
1000
0001
0000
,
1000
0100
0010
0100
0010
0001
1000
0001
1000
0100
0010
0001
1000
0100
0010
0001
,
2000
0000
0000
0000
,
0000
0000
0000
0000
,
3020
0000
0000
0000
,
0000
0000
0000
0000
,
0030
0000
0000
0000
;
